osu file format v14

[General]
AudioFilename: Yamada kun to 7 nin no Majo OP -Kuchizuke Diamond- by WEAVER (1).mp3
AudioLeadIn: 0
PreviewTime: 46884
Countdown: 0
SampleSet: Normal
StackLeniency: 0.7
Mode: 3
LetterboxInBreaks: 0
SpecialStyle: 0
WidescreenStoryboard: 1

[Editor]
DistanceSpacing: 1
BeatDivisor: 4
GridSize: 4
TimelineZoom: 2.650002

[Metadata]
Title:Kuchizuke Diamond
TitleUnicode:Kuchizuke Diamond
Artist:WEAVER
ArtistUnicode:WEAVER
Creator:Kominaru
Version:5K Hard
Source:山田くんと7人の魔女
Tags:yamada-kun and the seven witches to nananin no majo opening
BeatmapID:682134
BeatmapSetID:304105

[Difficulty]
HPDrainRate:8
CircleSize:5
OverallDifficulty:8
ApproachRate:5
SliderMultiplier:1.4
SliderTickRate:1

[Events]
//Background and Video events
Video,0,"Yamada-kun to 7-nin no Majo OP.avi"
0,0,"hira042732.jpg",0,0
//Break Periods
//Storyboard Layer 0 (Background)
//Storyboard Layer 1 (Fail)
//Storyboard Layer 2 (Pass)
//Storyboard Layer 3 (Foreground)
//Storyboard Sound Samples

[TimingPoints]
970,365.853658536585,4,1,0,45,1,0
6823,-100,4,3,0,45,0,0
18530,-100,4,1,0,45,0,0
24384,-100,4,3,0,45,0,0
36091,-100,4,1,0,45,0,0
47799,-100,4,1,0,45,0,1
68287,366.967988159166,4,1,0,45,1,1
82921,-100,4,2,0,45,0,0

[HitObjects]
460,192,969,5,0,0:0:0:0:
256,192,969,1,0,0:0:0:0:
358,192,1152,1,0,0:0:0:0:
256,192,1335,1,0,0:0:0:0:
153,192,1518,1,0,0:0:0:0:
256,192,1884,1,0,0:0:0:0:
358,192,1976,1,0,0:0:0:0:
460,192,2067,1,0,0:0:0:0:
358,192,2159,1,0,0:0:0:0:
256,192,2250,1,0,0:0:0:0:
153,192,2341,1,0,0:0:0:0:
51,192,2433,1,0,0:0:0:0:
256,192,2616,1,0,0:0:0:0:
358,192,2799,1,0,0:0:0:0:
460,192,2982,128,0,3348:0:0:0:0:
51,192,3348,1,0,0:0:0:0:
51,192,3713,1,0,0:0:0:0:
153,192,3896,1,0,0:0:0:0:
256,192,4079,1,0,0:0:0:0:
358,192,4262,1,0,0:0:0:0:
51,192,4445,1,0,0:0:0:0:
460,192,4445,1,0,0:0:0:0:
358,192,4811,1,0,0:0:0:0:
153,192,4811,1,0,0:0:0:0:
256,192,5177,1,0,0:0:0:0:
51,192,5543,1,0,0:0:0:0:
153,192,5726,1,0,0:0:0:0:
256,192,5909,1,0,0:0:0:0:
358,192,5909,1,0,0:0:0:0:
51,192,6274,1,0,0:0:0:0:
460,192,6274,1,0,0:0:0:0:
153,192,6823,1,0,0:0:0:0:
256,192,6823,1,0,0:0:0:0:
51,192,7189,1,0,0:0:0:0:
358,192,7372,1,0,0:0:0:0:
256,192,7463,1,0,0:0:0:0:
460,192,7555,1,0,0:0:0:0:
51,192,7738,1,0,0:0:0:0:
460,192,7921,1,0,0:0:0:0:
153,192,8104,1,0,0:0:0:0:
256,192,8287,1,0,0:0:0:0:
51,192,8469,1,0,0:0:0:0:
358,192,8652,1,0,0:0:0:0:
256,192,8744,1,0,0:0:0:0:
358,192,8835,1,0,0:0:0:0:
256,192,8927,1,0,0:0:0:0:
358,192,9018,1,0,0:0:0:0:
153,192,9384,1,0,0:0:0:0:
51,192,9567,1,0,0:0:0:0:
460,192,9750,1,0,0:0:0:0:
358,192,9750,1,0,0:0:0:0:
153,192,9933,1,0,0:0:0:0:
256,192,10116,1,0,0:0:0:0:
153,192,10299,1,0,0:0:0:0:
51,192,10390,1,0,0:0:0:0:
153,192,10482,1,0,0:0:0:0:
358,192,10665,1,0,0:0:0:0:
460,192,10848,1,0,0:0:0:0:
358,192,11030,1,0,0:0:0:0:
153,192,11122,1,0,0:0:0:0:
256,192,11213,1,0,0:0:0:0:
51,192,11396,1,0,0:0:0:0:
256,192,11579,1,0,0:0:0:0:
153,192,11762,1,0,0:0:0:0:
460,192,11945,1,0,0:0:0:0:
358,192,12037,1,0,0:0:0:0:
256,192,12128,1,0,0:0:0:0:
153,192,12219,1,0,0:0:0:0:
51,192,12311,1,0,0:0:0:0:
358,192,12402,1,0,0:0:0:0:
256,192,12494,1,0,0:0:0:0:
51,192,12585,1,0,0:0:0:0:
153,192,12677,1,0,0:0:0:0:
256,192,12677,1,0,0:0:0:0:
358,192,12860,1,0,0:0:0:0:
256,192,12951,1,0,0:0:0:0:
460,192,13043,1,0,0:0:0:0:
153,192,13226,1,0,0:0:0:0:
51,192,13317,1,0,0:0:0:0:
256,192,13409,1,0,0:0:0:0:
51,192,13591,1,0,0:0:0:0:
153,192,13774,1,0,0:0:0:0:
51,192,13957,1,0,0:0:0:0:
460,192,14140,1,0,0:0:0:0:
256,192,14323,1,0,0:0:0:0:
153,192,14415,1,0,0:0:0:0:
358,192,14506,1,0,0:0:0:0:
153,192,14689,1,0,0:0:0:0:
51,192,14780,1,0,0:0:0:0:
153,192,14872,1,0,0:0:0:0:
256,192,15055,1,0,0:0:0:0:
358,192,15238,1,0,0:0:0:0:
51,192,15421,1,0,0:0:0:0:
153,192,15604,1,0,0:0:0:0:
358,192,15604,1,0,0:0:0:0:
51,192,15969,1,0,0:0:0:0:
358,192,16152,1,0,0:0:0:0:
256,192,16244,1,0,0:0:0:0:
358,192,16335,1,0,0:0:0:0:
51,192,16701,1,0,0:0:0:0:
153,192,16701,1,0,0:0:0:0:
153,192,17067,1,0,0:0:0:0:
460,192,17250,1,0,0:0:0:0:
358,192,17341,1,0,0:0:0:0:
256,192,17433,1,0,0:0:0:0:
153,192,17433,1,0,0:0:0:0:
256,192,17982,1,0,0:0:0:0:
51,192,18073,1,0,0:0:0:0:
460,192,18165,1,0,0:0:0:0:
358,192,18256,1,0,0:0:0:0:
256,192,18348,1,0,0:0:0:0:
51,192,18439,1,0,0:0:0:0:
358,192,18530,1,0,0:0:0:0:
460,192,18530,1,0,0:0:0:0:
256,192,18713,1,0,0:0:0:0:
153,192,18896,1,0,0:0:0:0:
51,192,19079,128,0,19445:0:0:0:0:
256,192,19445,1,0,0:0:0:0:
358,192,19537,1,0,0:0:0:0:
460,192,19628,1,0,0:0:0:0:
358,192,19719,1,0,0:0:0:0:
256,192,19811,1,0,0:0:0:0:
153,192,19902,1,0,0:0:0:0:
51,192,19994,1,0,0:0:0:0:
153,192,20177,1,0,0:0:0:0:
256,192,20360,1,0,0:0:0:0:
358,192,20543,128,0,20909:0:0:0:0:
51,192,20909,128,0,21274:0:0:0:0:
153,192,21274,1,0,0:0:0:0:
256,192,21457,1,0,0:0:0:0:
358,192,21457,1,0,0:0:0:0:
358,192,21640,1,0,0:0:0:0:
460,192,21823,1,0,0:0:0:0:
51,192,22006,128,0,22372:0:0:0:0:
460,192,22372,128,0,22738:0:0:0:0:
256,192,22738,128,0,23104:0:0:0:0:
51,192,23104,1,0,0:0:0:0:
153,192,23287,1,0,0:0:0:0:
358,192,23469,128,0,23835:0:0:0:0:
51,192,23835,1,0,0:0:0:0:
460,192,23835,1,0,0:0:0:0:
460,192,24384,1,0,0:0:0:0:
51,192,24384,1,0,0:0:0:0:
256,192,24750,1,0,0:0:0:0:
358,192,24933,1,0,0:0:0:0:
153,192,24933,1,0,0:0:0:0:
256,192,25299,1,0,0:0:0:0:
358,192,25482,1,0,0:0:0:0:
256,192,25573,1,0,0:0:0:0:
153,192,25665,1,0,0:0:0:0:
51,192,25756,1,0,0:0:0:0:
153,192,25848,1,0,0:0:0:0:
256,192,25848,1,0,0:0:0:0:
51,192,26213,1,0,0:0:0:0:
256,192,26396,1,0,0:0:0:0:
358,192,26396,1,0,0:0:0:0:
153,192,26762,1,0,0:0:0:0:
460,192,26945,1,0,0:0:0:0:
358,192,27037,1,0,0:0:0:0:
256,192,27128,1,0,0:0:0:0:
153,192,27219,1,0,0:0:0:0:
51,192,27311,1,0,0:0:0:0:
460,192,27311,1,0,0:0:0:0:
358,192,27677,1,0,0:0:0:0:
51,192,27860,1,0,0:0:0:0:
153,192,27860,1,0,0:0:0:0:
256,192,28226,1,0,0:0:0:0:
460,192,28409,1,0,0:0:0:0:
153,192,28500,1,0,0:0:0:0:
51,192,28591,1,0,0:0:0:0:
358,192,28683,1,0,0:0:0:0:
153,192,28774,1,0,0:0:0:0:
256,192,28774,1,0,0:0:0:0:
51,192,29140,1,0,0:0:0:0:
153,192,29323,1,0,0:0:0:0:
358,192,29323,1,0,0:0:0:0:
460,192,29506,1,0,0:0:0:0:
51,192,29506,1,0,0:0:0:0:
256,192,29689,1,0,0:0:0:0:
51,192,29872,1,0,0:0:0:0:
358,192,29872,1,0,0:0:0:0:
460,192,29872,1,0,0:0:0:0:
153,192,30238,1,0,0:0:0:0:
256,192,30238,1,0,0:0:0:0:
51,192,30604,1,0,0:0:0:0:
153,192,30787,1,0,0:0:0:0:
256,192,30787,1,0,0:0:0:0:
358,192,31152,1,0,0:0:0:0:
256,192,31335,1,0,0:0:0:0:
153,192,31427,1,0,0:0:0:0:
51,192,31518,1,0,0:0:0:0:
153,192,31610,1,0,0:0:0:0:
51,192,31701,1,0,0:0:0:0:
460,192,31701,1,0,0:0:0:0:
153,192,32067,1,0,0:0:0:0:
256,192,32250,1,0,0:0:0:0:
358,192,32250,1,0,0:0:0:0:
256,192,32616,1,0,0:0:0:0:
358,192,32799,1,0,0:0:0:0:
153,192,32890,1,0,0:0:0:0:
358,192,32982,1,0,0:0:0:0:
256,192,33073,1,0,0:0:0:0:
51,192,33165,1,0,0:0:0:0:
460,192,33165,1,0,0:0:0:0:
358,192,33530,1,0,0:0:0:0:
153,192,33713,1,0,0:0:0:0:
256,192,33713,1,0,0:0:0:0:
153,192,34079,1,0,0:0:0:0:
256,192,34262,1,0,0:0:0:0:
153,192,34354,1,0,0:0:0:0:
256,192,34445,1,0,0:0:0:0:
153,192,34537,1,0,0:0:0:0:
358,192,34628,1,0,0:0:0:0:
460,192,34628,1,0,0:0:0:0:
51,192,34994,1,0,0:0:0:0:
153,192,34994,1,0,0:0:0:0:
358,192,35177,1,0,0:0:0:0:
460,192,35360,1,0,0:0:0:0:
358,192,35543,1,0,0:0:0:0:
153,192,35726,1,0,0:0:0:0:
51,192,35909,1,0,0:0:0:0:
256,192,36091,1,0,0:0:0:0:
358,192,36091,1,0,0:0:0:0:
51,192,36274,1,0,0:0:0:0:
153,192,36457,1,0,0:0:0:0:
51,192,36640,1,0,0:0:0:0:
256,192,36823,1,0,0:0:0:0:
153,192,37006,1,0,0:0:0:0:
256,192,37189,1,0,0:0:0:0:
153,192,37372,1,0,0:0:0:0:
51,192,37463,1,0,0:0:0:0:
358,192,37555,1,0,0:0:0:0:
460,192,37555,1,0,0:0:0:0:
256,192,37738,1,0,0:0:0:0:
153,192,37921,1,0,0:0:0:0:
51,192,38104,1,0,0:0:0:0:
256,192,38287,1,0,0:0:0:0:
153,192,38469,1,0,0:0:0:0:
358,192,38652,1,0,0:0:0:0:
256,192,38835,1,0,0:0:0:0:
153,192,38927,1,0,0:0:0:0:
358,192,39018,1,4,0:0:0:0:
460,192,39018,1,4,0:0:0:0:
256,192,39384,1,0,0:0:0:0:
51,192,39567,1,0,0:0:0:0:
153,192,39750,1,4,0:0:0:0:
256,192,39750,1,4,0:0:0:0:
358,192,40116,1,0,0:0:0:0:
256,192,40299,1,0,0:0:0:0:
358,192,40482,1,4,0:0:0:0:
460,192,40482,1,4,0:0:0:0:
51,192,40848,1,0,0:0:0:0:
153,192,41030,1,0,0:0:0:0:
460,192,41213,1,0,0:0:0:0:
358,192,41396,1,0,0:0:0:0:
153,192,41579,1,0,0:0:0:0:
153,192,41762,1,0,0:0:0:0:
51,192,41854,1,0,0:0:0:0:
256,192,41945,1,0,0:0:0:0:
358,192,41945,1,0,0:0:0:0:
51,192,42128,1,0,0:0:0:0:
153,192,42311,1,0,0:0:0:0:
51,192,42494,1,0,0:0:0:0:
256,192,42677,1,0,0:0:0:0:
153,192,42860,1,0,0:0:0:0:
358,192,43043,1,0,0:0:0:0:
256,192,43226,1,0,0:0:0:0:
51,192,43317,1,0,0:0:0:0:
153,192,43409,1,0,0:0:0:0:
460,192,43409,1,0,0:0:0:0:
51,192,43774,1,0,0:0:0:0:
256,192,43957,1,0,0:0:0:0:
153,192,43957,1,0,0:0:0:0:
358,192,44323,1,0,0:0:0:0:
51,192,44415,1,0,0:0:0:0:
153,192,44506,1,0,0:0:0:0:
256,192,44506,1,0,0:0:0:0:
358,192,44872,1,0,0:0:0:0:
460,192,44872,1,0,0:0:0:0:
358,192,45146,1,0,0:0:0:0:
256,192,45421,1,0,0:0:0:0:
153,192,45604,1,0,0:0:0:0:
51,192,45604,1,0,0:0:0:0:
51,192,45878,1,0,0:0:0:0:
153,192,46152,1,0,0:0:0:0:
256,192,46335,1,0,0:0:0:0:
51,192,46427,1,0,0:0:0:0:
256,192,46518,1,0,0:0:0:0:
51,192,46610,1,0,0:0:0:0:
153,192,46701,1,0,0:0:0:0:
460,192,46701,1,0,0:0:0:0:
256,192,47250,1,0,0:0:0:0:
153,192,47433,1,0,0:0:0:0:
358,192,47433,1,0,0:0:0:0:
256,192,47616,1,0,0:0:0:0:
51,192,47799,1,0,0:0:0:0:
256,192,47799,1,0,0:0:0:0:
460,192,47799,1,0,0:0:0:0:
153,192,47982,1,0,0:0:0:0:
256,192,48165,1,0,0:0:0:0:
153,192,48348,1,0,0:0:0:0:
256,192,48530,1,0,0:0:0:0:
358,192,48530,1,0,0:0:0:0:
51,192,48713,1,0,0:0:0:0:
256,192,48896,1,0,0:0:0:0:
153,192,49079,1,0,0:0:0:0:
51,192,49171,1,0,0:0:0:0:
256,192,49262,1,0,0:0:0:0:
358,192,49262,1,0,0:0:0:0:
153,192,49445,1,0,0:0:0:0:
51,192,49628,1,0,0:0:0:0:
153,192,49811,128,0,50177:0:0:0:0:
358,192,50177,1,0,0:0:0:0:
51,192,50360,1,0,0:0:0:0:
256,192,50543,1,0,0:0:0:0:
51,192,50726,1,0,0:0:0:0:
460,192,50726,1,0,0:0:0:0:
256,192,50909,1,0,0:0:0:0:
153,192,51091,1,0,0:0:0:0:
51,192,51274,128,0,51640:0:0:0:0:
153,192,51640,1,0,0:0:0:0:
256,192,51823,1,0,0:0:0:0:
358,192,52006,1,0,0:0:0:0:
460,192,52189,1,0,0:0:0:0:
51,192,52189,1,0,0:0:0:0:
256,192,52372,1,0,0:0:0:0:
153,192,52555,1,0,0:0:0:0:
51,192,52738,128,0,53104:0:0:0:0:
153,192,53104,1,0,0:0:0:0:
460,192,53287,1,0,0:0:0:0:
358,192,53378,1,0,0:0:0:0:
256,192,53469,1,0,0:0:0:0:
153,192,53561,1,0,0:0:0:0:
51,192,53652,1,0,0:0:0:0:
460,192,53652,1,0,0:0:0:0:
256,192,53835,1,0,0:0:0:0:
358,192,54018,1,0,0:0:0:0:
460,192,54018,1,0,0:0:0:0:
153,192,54201,1,0,0:0:0:0:
51,192,54293,1,0,0:0:0:0:
256,192,54384,1,0,0:0:0:0:
358,192,54384,1,0,0:0:0:0:
153,192,54567,1,0,0:0:0:0:
256,192,54750,1,0,0:0:0:0:
358,192,54750,1,0,0:0:0:0:
153,192,54933,1,0,0:0:0:0:
51,192,55024,1,0,0:0:0:0:
358,192,55116,1,0,0:0:0:0:
460,192,55116,1,0,0:0:0:0:
256,192,55116,1,0,0:0:0:0:
153,192,55299,1,0,0:0:0:0:
51,192,55482,1,0,0:0:0:0:
153,192,55665,1,0,0:0:0:0:
256,192,55665,1,0,0:0:0:0:
460,192,55665,128,0,56030:0:0:0:0:
51,192,56030,1,0,0:0:0:0:
153,192,56213,1,0,0:0:0:0:
51,192,56396,1,0,0:0:0:0:
256,192,56579,1,0,0:0:0:0:
358,192,56579,1,0,0:0:0:0:
153,192,56762,1,0,0:0:0:0:
51,192,56945,1,0,0:0:0:0:
460,192,57128,128,0,57494:0:0:0:0:
358,192,57128,1,0,0:0:0:0:
51,192,57494,1,0,0:0:0:0:
256,192,57677,1,0,0:0:0:0:
153,192,57860,1,0,0:0:0:0:
358,192,58043,1,0,0:0:0:0:
460,192,58043,1,0,0:0:0:0:
256,192,58226,1,0,0:0:0:0:
153,192,58409,1,0,0:0:0:0:
51,192,58591,1,0,0:0:0:0:
153,192,58774,1,0,0:0:0:0:
256,192,58774,1,0,0:0:0:0:
358,192,58957,1,0,0:0:0:0:
51,192,59140,1,0,0:0:0:0:
460,192,59140,1,0,0:0:0:0:
256,192,59323,1,0,0:0:0:0:
153,192,59415,1,0,0:0:0:0:
358,192,59506,1,0,0:0:0:0:
460,192,59506,1,0,0:0:0:0:
153,192,59689,1,0,0:0:0:0:
256,192,59872,1,0,0:0:0:0:
358,192,59872,1,0,0:0:0:0:
460,192,60055,1,0,0:0:0:0:
256,192,60146,1,0,0:0:0:0:
51,192,60238,1,0,0:0:0:0:
153,192,60238,1,0,0:0:0:0:
256,192,60421,1,0,0:0:0:0:
358,192,60604,1,0,0:0:0:0:
460,192,60604,1,0,0:0:0:0:
153,192,60787,1,0,0:0:0:0:
51,192,60878,1,0,0:0:0:0:
256,192,60969,1,0,0:0:0:0:
358,192,60969,1,0,0:0:0:0:
153,192,61335,1,0,0:0:0:0:
256,192,61518,1,0,0:0:0:0:
358,192,61518,1,0,0:0:0:0:
153,192,61884,1,0,0:0:0:0:
256,192,62067,1,0,0:0:0:0:
358,192,62067,1,0,0:0:0:0:
51,192,62250,1,0,0:0:0:0:
153,192,62341,1,0,0:0:0:0:
460,192,62433,1,0,0:0:0:0:
358,192,62433,1,0,0:0:0:0:
51,192,62616,1,0,0:0:0:0:
153,192,62799,1,0,0:0:0:0:
256,192,62799,1,0,0:0:0:0:
256,192,63165,1,0,0:0:0:0:
358,192,63165,1,0,0:0:0:0:
153,192,63348,1,0,0:0:0:0:
51,192,63439,1,0,0:0:0:0:
358,192,63530,1,0,0:0:0:0:
460,192,63530,1,0,0:0:0:0:
256,192,63713,1,0,0:0:0:0:
358,192,63805,1,0,0:0:0:0:
460,192,63896,128,0,64262:0:0:0:0:
358,192,64262,1,0,0:0:0:0:
51,192,64445,1,0,0:0:0:0:
153,192,64628,1,0,0:0:0:0:
256,192,64628,1,0,0:0:0:0:
51,192,64811,1,0,0:0:0:0:
256,192,64994,1,0,0:0:0:0:
358,192,64994,1,0,0:0:0:0:
51,192,65177,1,0,0:0:0:0:
358,192,65360,1,0,0:0:0:0:
460,192,65360,1,0,0:0:0:0:
153,192,65543,1,0,0:0:0:0:
51,192,65634,1,0,0:0:0:0:
256,192,65726,1,0,0:0:0:0:
256,192,65909,1,0,0:0:0:0:
153,192,66000,1,0,0:0:0:0:
358,192,66091,1,0,0:0:0:0:
358,192,66274,1,0,0:0:0:0:
256,192,66366,1,0,0:0:0:0:
460,192,66457,1,0,0:0:0:0:
358,192,66640,1,0,0:0:0:0:
256,192,66732,1,0,0:0:0:0:
460,192,66823,1,0,0:0:0:0:
153,192,66823,1,0,0:0:0:0:
51,192,67006,1,0,0:0:0:0:
153,192,67189,1,0,0:0:0:0:
256,192,67189,1,0,0:0:0:0:
51,192,67372,1,0,0:0:0:0:
256,192,67555,1,0,0:0:0:0:
358,192,67555,1,0,0:0:0:0:
51,192,67738,1,0,0:0:0:0:
358,192,67921,1,0,0:0:0:0:
460,192,67921,1,0,0:0:0:0:
51,192,68104,1,0,0:0:0:0:
256,192,68287,1,0,0:0:0:0:
153,192,68287,1,0,0:0:0:0:
51,192,68470,1,0,0:0:0:0:
358,192,68653,1,0,0:0:0:0:
460,192,68653,1,0,0:0:0:0:
153,192,68837,1,0,0:0:0:0:
51,192,68929,1,0,0:0:0:0:
256,192,69020,1,0,0:0:0:0:
358,192,69020,1,0,0:0:0:0:
51,192,69204,1,0,0:0:0:0:
256,192,69387,1,0,0:0:0:0:
153,192,69387,1,0,0:0:0:0:
358,192,69571,1,0,0:0:0:0:
51,192,69663,1,0,0:0:0:0:
153,192,69754,1,0,0:0:0:0:
256,192,69754,1,0,0:0:0:0:
51,192,69938,1,0,0:0:0:0:
358,192,70121,1,0,0:0:0:0:
51,192,70305,1,0,0:0:0:0:
153,192,70488,1,0,0:0:0:0:
256,192,70672,1,0,0:0:0:0:
358,192,70855,1,0,0:0:0:0:
460,192,71039,1,0,0:0:0:0:
51,192,71222,1,0,0:0:0:0:
153,192,71222,1,0,0:0:0:0:
256,192,71222,1,0,0:0:0:0:
358,192,71406,1,0,0:0:0:0:
51,192,71589,1,0,0:0:0:0:
460,192,71589,1,0,0:0:0:0:
358,192,71773,1,0,0:0:0:0:
256,192,71864,1,0,0:0:0:0:
51,192,71956,1,0,0:0:0:0:
153,192,71956,1,0,0:0:0:0:
256,192,72140,1,0,0:0:0:0:
358,192,72323,1,0,0:0:0:0:
460,192,72323,1,0,0:0:0:0:
51,192,72507,1,0,0:0:0:0:
153,192,72598,1,0,0:0:0:0:
256,192,72690,1,0,0:0:0:0:
358,192,72690,1,0,0:0:0:0:
51,192,73057,1,0,0:0:0:0:
256,192,73241,1,0,0:0:0:0:
153,192,73241,1,0,0:0:0:0:
256,192,73608,1,0,0:0:0:0:
358,192,73791,1,0,0:0:0:0:
460,192,73791,1,0,0:0:0:0:
153,192,73975,1,0,0:0:0:0:
51,192,74066,1,0,0:0:0:0:
256,192,74158,1,0,0:0:0:0:
358,192,74158,1,0,0:0:0:0:
153,192,74341,1,0,0:0:0:0:
51,192,74525,1,0,0:0:0:0:
460,192,74708,128,0,75075:0:0:0:0:
358,192,74708,1,0,0:0:0:0:
153,192,75075,1,0,0:0:0:0:
256,192,75259,1,0,0:0:0:0:
51,192,75442,1,0,0:0:0:0:
358,192,75626,1,0,0:0:0:0:
460,192,75626,1,0,0:0:0:0:
256,192,75809,1,0,0:0:0:0:
153,192,75993,1,0,0:0:0:0:
51,192,76176,128,0,76543:0:0:0:0:
358,192,76543,1,0,0:0:0:0:
460,192,76727,1,0,0:0:0:0:
153,192,76910,1,0,0:0:0:0:
51,192,77002,1,0,0:0:0:0:
256,192,77094,1,0,0:0:0:0:
358,192,77094,1,0,0:0:0:0:
153,192,77277,1,0,0:0:0:0:
460,192,77461,1,0,0:0:0:0:
358,192,77461,1,0,0:0:0:0:
256,192,77644,1,0,0:0:0:0:
153,192,77736,1,0,0:0:0:0:
51,192,77828,1,0,0:0:0:0:
460,192,77828,1,0,0:0:0:0:
153,192,78011,1,0,0:0:0:0:
256,192,78195,1,0,0:0:0:0:
358,192,78195,1,0,0:0:0:0:
153,192,78378,1,0,0:0:0:0:
51,192,78470,1,0,0:0:0:0:
460,192,78562,1,0,0:0:0:0:
358,192,78562,1,0,0:0:0:0:
51,192,78745,1,0,0:0:0:0:
153,192,78929,1,0,0:0:0:0:
256,192,78929,1,0,0:0:0:0:
51,192,79112,1,0,0:0:0:0:
358,192,79296,1,0,0:0:0:0:
256,192,79296,1,0,0:0:0:0:
51,192,79479,1,0,0:0:0:0:
358,192,79663,1,0,0:0:0:0:
460,192,79663,1,0,0:0:0:0:
51,192,79846,1,0,0:0:0:0:
153,192,80029,1,0,0:0:0:0:
256,192,80029,1,0,0:0:0:0:
51,192,80213,1,0,0:0:0:0:
460,192,80396,1,0,0:0:0:0:
358,192,80580,128,0,80947:0:0:0:0:
51,192,80947,1,0,0:0:0:0:
256,192,81130,1,0,0:0:0:0:
153,192,81314,1,0,0:0:0:0:
256,192,81497,1,0,0:0:0:0:
358,192,81497,1,0,0:0:0:0:
153,192,81681,1,0,0:0:0:0:
51,192,81864,1,0,0:0:0:0:
153,192,82048,1,0,0:0:0:0:
256,192,82231,1,0,0:0:0:0:
358,192,82415,1,0,0:0:0:0:
460,192,82598,1,0,0:0:0:0:
256,192,82782,1,0,0:0:0:0:
51,192,82965,1,0,0:0:0:0:
153,192,82965,1,0,0:0:0:0:
358,192,83149,1,0,0:0:0:0:
51,192,83332,1,0,0:0:0:0:
153,192,83332,1,0,0:0:0:0:
358,192,83516,1,0,0:0:0:0:
256,192,83699,1,0,0:0:0:0:
153,192,83699,1,0,0:0:0:0:
358,192,83883,1,0,0:0:0:0:
153,192,84066,1,0,0:0:0:0:
256,192,84066,1,0,0:0:0:0:
358,192,84250,1,0,0:0:0:0:
256,192,84433,1,0,0:0:0:0:
358,192,84433,1,0,0:0:0:0:
460,192,84617,1,0,0:0:0:0:
256,192,84800,1,0,0:0:0:0:
358,192,84800,1,0,0:0:0:0:
460,192,84984,1,0,0:0:0:0:
51,192,85167,1,0,0:0:0:0:
153,192,85167,1,0,0:0:0:0:
256,192,85351,1,0,0:0:0:0:
51,192,85534,1,0,0:0:0:0:
153,192,85534,1,0,0:0:0:0:
256,192,85717,1,0,0:0:0:0:
51,192,85901,1,0,0:0:0:0:
153,192,85901,1,0,0:0:0:0:
358,192,86084,1,0,0:0:0:0:
51,192,86268,1,0,0:0:0:0:
153,192,86268,1,0,0:0:0:0:
358,192,86451,1,0,0:0:0:0:
153,192,86635,1,0,0:0:0:0:
256,192,86635,1,0,0:0:0:0:
358,192,86818,1,0,0:0:0:0:
153,192,87002,1,0,0:0:0:0:
256,192,87002,1,0,0:0:0:0:
358,192,87185,1,0,0:0:0:0:
256,192,87369,1,0,0:0:0:0:
358,192,87369,1,0,0:0:0:0:
460,192,87552,1,0,0:0:0:0:
256,192,87736,1,0,0:0:0:0:
358,192,87736,1,0,0:0:0:0:
460,192,87919,1,0,0:0:0:0:
51,192,88103,1,0,0:0:0:0:
153,192,88103,1,0,0:0:0:0:
460,192,88286,1,0,0:0:0:0:
51,192,88470,1,0,0:0:0:0:
153,192,88470,1,0,0:0:0:0:
460,192,88653,1,0,0:0:0:0:
