osu file format v14

[General]
AudioFilename: MP3.mp3
AudioLeadIn: 0
PreviewTime: 74711
Countdown: 0
SampleSet: Soft
StackLeniency: 0.7
Mode: 0
LetterboxInBreaks: 0
WidescreenStoryboard: 0

[Editor]
Bookmarks: 30465,31403
DistanceSpacing: 0.9
BeatDivisor: 4
GridSize: 16
TimelineZoom: 1.5

[Metadata]
Title:Are One
TitleUnicode:Are One
Artist:WATANABE KAZUHIRO
ArtistUnicode:ワタナベカズヒロ
Creator:Regraz
Version:Hard
Source:咎狗の血 True Blood
Tags:ed ending TV Size Togainu no chi bl yaoi boys love visual novel ed ps2 shiki akira [_Abhor_] Abhor Kyshiro
BeatmapID:600551
BeatmapSetID:263289

[Difficulty]
HPDrainRate:5.4
CircleSize:3.8
OverallDifficulty:5.2
ApproachRate:6.9
SliderMultiplier:2.3
SliderTickRate:1

[Events]
//Background and Video events
0,0,"BG.jpg",0,0
//Break Periods
//Storyboard Layer 0 (Background)
//Storyboard Layer 1 (Fail)
//Storyboard Layer 2 (Pass)
//Storyboard Layer 3 (Foreground)
//Storyboard Sound Samples

[TimingPoints]
649,937.5,4,2,1,25,1,0
15649,-142.857142857143,4,2,1,25,0,0
45649,-100,4,2,1,25,0,0
71899,-100,4,2,1,15,0,0
74243,-100,4,2,1,5,0,0
74712,-100,4,2,1,25,0,0
75649,-80,4,1,1,45,0,1
109399,-80,4,1,1,45,0,0
113149,-80,4,1,1,45,0,1
113383,-100,4,1,1,45,0,0

[Colours]
Combo1 : 242,24,57
Combo2 : 192,192,192
Combo3 : 18,124,255

[HitObjects]
27,47,15649,6,0,B|139:59|139:59|189:111,1,160.99999508667,2|0,0:0|0:0,0:0:0:0:
256,141,17055,1,0,0:0:0:0:
339,93,17524,2,0,B|373:59|373:59|485:47,1,160.99999508667,2|0,0:0|0:0,0:0:0:0:
460,238,19399,6,0,P|407:299|321:274,1,160.99999508667,2|0,0:0|0:0,0:0:0:0:
256,230,20805,1,0,0:0:0:0:
177,287,21274,2,0,P|100:297|52:238,1,160.99999508667,2|0,0:0|0:0,0:0:0:0:
136,64,23149,6,0,P|189:94|179:201,1,160.99999508667,2|0,0:0|0:0,0:0:0:0:
257,257,24555,1,0,0:0:0:0:
320,186,25024,2,0,P|313:109|376:64,1,160.99999508667,2|0,0:0|0:0,0:0:0:0:
449,242,26899,6,0,B|351:254|351:254|314:299|332:345,1,160.99999508667,2|0,0:0|0:0,0:0:0:0:
255,243,28305,1,0,0:0:0:0:
185,310,28774,2,0,B|187:275|161:254|161:254|63:242,1,160.99999508667,2|0,0:0|0:0,0:0:0:0:
26,52,30649,6,0,B|98:43|98:43|120:49|120:49|198:39,1,160.99999508667,2|0,0:0|0:0,0:0:0:0:
486,52,32524,2,0,B|414:43|414:43|392:49|392:49|326:40,1,160.99999508667,2|0,0:0|0:0,0:0:0:0:
245,92,33930,1,0,0:0:0:0:
305,169,34399,6,0,L|384:188,1,80.499997543335,2|0,0:0|0:0,0:0:0:0:
386,284,35336,2,0,L|308:303,1,80.499997543335,2|0,0:0|0:0,0:0:0:0:
210,304,36274,2,0,L|131:285,1,80.499997543335,2|0,0:0|0:0,0:0:0:0:
129,188,37211,2,0,L|208:170,1,80.499997543335,2|0,0:0|0:0,0:0:0:0:
319,43,38149,6,0,P|354:110|315:195,1,160.99999508667,2|0,0:0|0:0,0:0:0:0:
136,225,40024,2,0,L|126:323,2,80.499997543335,2|0|0,0:0|0:0|0:0,0:0:0:0:
63,161,41430,1,0,0:0:0:0:
116,80,41899,6,0,B|218:56|218:56|240:82|237:128,1,160.99999508667,2|0,0:0|0:0,0:0:0:0:
243,204,43305,2,0,B|240:229|262:255|262:255|364:231,1,160.99999508667,2|0,0:0|0:0,0:0:0:0:
445,180,44711,1,2,0:0:0:0:
185,272,45649,6,0,B|205:211|164:165|164:165|134:99|187:45,1,230,4|0,3:0|1:0,0:0:0:0:
326,270,47289,1,0,0:0:0:0:
326,270,47524,2,0,B|307:211|348:165|348:165|378:99|335:56,1,230,4|0,3:0|1:0,0:0:0:0:
209,63,48930,1,0,0:0:0:0:
117,150,49399,6,0,L|100:285,1,115,4|0,3:0|0:0,0:0:0:0:
200,344,50336,2,0,L|199:286,1,57.5,0|0,1:0|0:0,0:0:0:0:
312,286,50805,2,0,L|312:344,1,57.5
366,191,51274,2,0,B|311:163|256:193|256:193|201:163|146:191,1,230,4|0,3:0|1:0,0:0:0:0:
256,274,52680,1,0,0:0:0:0:
199,156,53149,6,0,P|254:143|312:156,1,115,4|0,3:0|0:0,0:0:0:0:
422,224,54086,2,0,L|418:292,1,57.5,0|0,1:0|0:0,0:0:0:0:
489,171,54555,2,0,L|492:99,1,57.5
446,37,55024,2,0,P|390:51|334:34,1,115,4|0,3:0|0:0,0:0:0:0:
256,81,55727,1,0,0:0:0:0:
175,36,55961,2,0,P|121:51|66:37,1,115,0|0,1:0|0:0,0:0:0:0:
30,222,56899,6,0,L|19:107,1,115,4|0,3:0|0:0,0:0:0:0:
115,269,57836,2,0,L|123:342,1,57.5,0|0,1:0|0:0,0:0:0:0:
193,257,58305,2,0,L|181:184,1,57.5
211,336,58774,2,0,P|304:317|364:349,1,115,4|0,3:0|0:0,0:0:0:0:
469,314,59711,2,0,L|480:148,1,115,0|0,1:0|0:0,0:0:0:0:
464,73,60649,6,0,P|374:39|339:168,1,230,4|0,3:0|1:0,0:0:0:0:
256,248,62055,1,0,0:0:0:0:
256,248,62289,1,0,0:0:0:0:
209,179,62524,2,0,P|184:107|144:88,1,115,4|0,3:0|0:0,0:0:0:0:
16,107,63461,1,0,1:0:0:0:
138,273,64164,1,0,0:0:0:0:
139,273,64399,6,0,L|14:286,1,115,4|0,3:0|0:0,0:0:0:0:
272,279,65336,2,0,L|160:256,1,115,0|0,1:0|0:0,0:0:0:0:
411,249,66274,2,0,L|286:262,1,115,4|0,3:0|0:0,0:0:0:0:
450,267,67211,1,0,1:0:0:0:
413,80,67914,1,0,0:0:0:0:
413,80,68149,6,0,B|358:54|358:54|281:53,1,115,4|0,3:0|0:0,0:0:0:0:
258,171,69086,1,0,1:0:0:0:
141,122,69555,1,0,0:0:0:0:
43,202,70024,2,0,P|30:260|53:330,2,115,4|0|0,3:0|0:0|1:0,0:0:0:0:
155,260,71430,1,0,0:0:0:0:
256,192,71899,12,0,74242,0:0:0:0:
260,190,74711,5,0,1:0:0:0:
146,304,74945,1,0,1:0:0:0:
85,155,75180,1,4,3:0:0:0:
85,155,75649,6,0,P|165:134|175:39,1,143.75,4|0,0:0|0:0,0:0:0:0:
256,32,76352,1,0,0:0:0:0:
331,76,76586,2,0,L|328:176,2,71.875,8|8|0,0:0|0:0|0:0,0:0:0:0:
409,38,77289,1,0,0:0:0:0:
481,85,77524,2,0,L|502:263,1,143.75
328,264,78461,2,0,P|258:240|195:262,1,143.75,8|0,0:0|0:0,0:0:0:0:
131,321,79164,1,0,0:0:0:0:
65,128,79399,6,0,L|60:272,1,143.75,4|0,0:0|0:0,0:0:0:0:
130,321,80102,1,0,0:0:0:0:
204,276,80336,2,0,L|215:194,1,71.875,8|8,0:0|0:0,0:0:0:0:
291,279,80805,2,0,L|300:350,1,71.875
334,204,81274,2,0,P|429:208|478:148,1,143.75
357,42,82211,1,8,0:0:0:0:
240,168,82680,2,0,L|233:243,1,71.875
52,114,83149,6,0,P|129:123|185:65,1,143.75,4|0,0:0|0:0,0:0:0:0:
256,49,83852,1,0,0:0:0:0:
333,86,84086,2,0,L|413:96,1,71.875,8|8,0:0|0:0,0:0:0:0:
300,163,84555,2,0,L|224:179,1,71.875
367,211,85024,2,0,P|391:296|358:350,2,143.75,0|0|8,0:0|0:0|0:0,0:0:0:0:
214,352,86430,2,0,L|296:348,1,71.875
99,363,86899,6,0,P|118:292|45:236,1,143.75,4|0,0:0|0:0,0:0:0:0:
149,201,87602,1,0,0:0:0:0:
227,160,87836,2,0,P|235:195|233:231,2,71.875,8|8|0,0:0|0:0|0:0,0:0:0:0:
284,289,88539,1,0,0:0:0:0:
345,235,88774,2,0,P|424:221|493:261,1,143.75
493,161,89477,1,0,0:0:0:0:
494,139,89594,1,0,0:0:0:0:
496,117,89711,5,8,0:0:0:0:
403,29,89945,1,8,0:0:0:0:
319,154,90180,2,0,L|310:82,1,71.875
443,237,90649,6,0,P|411:280|316:279,1,143.75,4|0,0:0|0:0,0:0:0:0:
256,233,91352,1,0,0:0:0:0:
186,284,91586,2,0,L|93:294,2,71.875,8|8|0,0:0|0:0|0:0,0:0:0:0:
256,233,92289,1,0,0:0:0:0:
193,173,92524,2,0,P|251:146|331:189,2,143.75,0|0|8,0:0|0:0|0:0,0:0:0:0:
38,250,93930,2,0,L|28:348,1,71.875
120,215,94399,6,0,P|131:119|76:61,1,143.75,4|0,0:0|0:0,0:0:0:0:
48,156,95102,1,0,0:0:0:0:
109,302,95336,2,0,L|190:290,1,71.875,8|8,0:0|0:0,0:0:0:0:
330,336,95805,2,0,L|261:319,1,71.875
397,281,96274,2,0,L|393:208,2,71.875,8|8|0,0:0|0:0|0:0,0:0:0:0:
459,341,96977,1,0,0:0:0:0:
489,260,97211,2,0,L|495:167,1,71.875,8|0,0:0|0:0,0:0:0:0:
448,45,97680,2,0,L|444:117,1,71.875
295,48,98149,6,0,P|213:74|126:38,1,143.75,4|0,0:0|0:0,0:0:0:0:
86,19,98852,1,0,0:0:0:0:
31,78,99086,2,0,P|20:128|27:159,1,71.875,8|8,0:0|0:0,0:0:0:0:
94,273,99555,2,0,P|97:238|87:204,1,71.875
39,339,100024,1,0,0:0:0:0:
211,331,100492,1,0,0:0:0:0:
382,347,100961,1,8,0:0:0:0:
464,196,101430,2,0,L|458:290,1,71.875
461,84,101899,6,0,P|366:112|302:64,1,143.75,4|0,0:0|0:0,0:0:0:0:
258,46,102602,1,0,0:0:0:0:
182,95,102836,2,0,L|51:84,1,71.875,8|8,0:0|0:0,0:0:0:0:
61,222,103305,2,0,L|192:210,1,71.875
230,338,103774,5,0,0:0:0:0:
214,232,104008,1,8,3:0:0:0:
320,215,104242,1,0,0:0:0:0:
337,321,104477,1,0,0:0:0:0:
437,217,104711,1,8,0:0:0:0:
457,79,104945,1,8,0:0:0:0:
320,57,105180,1,8,3:0:0:0:
300,194,105414,1,0,0:0:0:0:
96,269,105649,6,0,P|171:256|255:330,1,143.75,4|0,0:0|0:0,0:0:0:0:
85,69,106586,1,8,0:0:0:0:
42,141,106820,1,0,0:0:0:0:
125,144,107055,1,0,0:0:0:0:
412,126,107524,5,0,0:0:0:0:
477,220,107758,1,0,0:0:0:0:
359,225,107992,1,0,0:0:0:0:
166,184,108461,2,0,P|202:252|155:324,1,143.75,8|0,0:0|0:0,0:0:0:0:
94,282,109164,1,0,0:0:0:0:
18,323,109399,5,4,0:0:0:0:
256,192,109633,12,4,111274,3:0:0:0:
385,208,111742,5,8,3:0:0:0:
385,208,112211,1,8,3:0:0:0:
264,324,112445,1,8,3:0:0:0:
216,160,112680,1,4,3:0:0:0:
216,160,113149,5,4,0:0:0:0:
