osu file format v9

[General]
AudioFilename: 03 .mp3
AudioLeadIn: 2000
PreviewTime: 14126
Countdown: 0
SampleSet: Normal
StackLeniency: 0.7
Mode: 0
LetterboxInBreaks: 1

[Editor]
Bookmarks: 14743,23436,94567
DistanceSpacing: 1.1
BeatDivisor: 4
GridSize: 4

[Metadata]
Title:William Tell Overture
Artist:W.T. Orchestra
Creator:Louis Cyphre
Version:Tonoicutzu
Source:jubeat
Tags:Tonoicutzu KuraiPettan AngelHoney

[Difficulty]
HPDrainRate:5
CircleSize:4
OverallDifficulty:6
ApproachRate:6
SliderMultiplier:1.6
SliderTickRate:2

[Events]
//Background and Video events
0,0,"Color-Burst-psd33578.png"
//Break Periods
2,43167,49213
//Storyboard Layer 0 (Background)
//Storyboard Layer 1 (Fail)
//Storyboard Layer 2 (Pass)
//Storyboard Layer 3 (Foreground)
//Storyboard Sound Samples
//Background Colour Transformations
3,100,255,255,255

[TimingPoints]
386,500,4,1,0,60,1,0
886,-100,4,1,0,30,0,0
1011,-100,4,1,0,60,0,0
6886,-100,4,1,0,30,0,0
7011,-100,4,1,0,60,0,0
13261,-100,4,1,0,5,0,0
14143,480,4,1,1,60,1,0
14383,480,4,1,1,60,1,0
17983,476.190476190476,4,1,1,60,1,0
18221,476.190476190476,4,1,1,60,1,0
21799,472.44094488189,4,1,1,60,1,0
22035,472.44094488189,4,1,1,60,1,0
25578,468.75,4,1,1,60,1,0
25812,468.75,4,1,1,60,1,0
29328,458.015267175573,4,1,1,60,1,0
29557,458.015267175573,4,1,1,60,1,0
32992,449.438202247191,4,1,1,60,1,0
33216,449.438202247191,4,1,1,60,1,0
36587,444.444444444444,4,1,1,60,1,0
36809,444.444444444444,4,1,1,60,1,0
40142,434.782608695652,4,1,1,60,1,0
40359,434.782608695652,4,1,1,60,1,0
43620,421.052631578947,4,1,1,60,1,0
43830,421.052631578947,4,1,1,60,1,0
46988,409.556313993174,4,1,1,60,1,0
47192,409.556313993174,4,1,1,60,1,0
50263,400,4,1,1,60,1,0
50463,400,4,1,1,60,1,0
53463,388.349514563107,4,1,1,60,1,0
53657,388.349514563107,4,1,1,60,1,0
56569,378.548895899054,4,1,1,60,1,0
56758,378.548895899054,4,1,1,60,1,0
59597,372.670807453416,4,1,1,60,1,0
59783,372.670807453416,4,1,1,60,1,0
62016,363.636363636364,4,1,1,60,1,0
63473,361.44578313253,4,1,1,60,1,0
64918,355.029585798817,4,1,1,60,1,0
66338,352.941176470588,4,1,1,60,1,0
67749,344.827586206897,4,1,1,60,1,0
70507,340.909090909091,4,1,1,60,1,0
71870,337.078651685393,4,1,1,60,1,0
73218,331.491712707182,4,1,1,60,1,0
74543,329.67032967033,4,1,1,60,1,0
75861,326.086956521739,4,1,1,60,1,0
77165,322.58064516129,4,1,1,60,1,0
78455,317.460317460317,4,1,1,60,1,0
79724,315.789473684211,4,1,1,60,1,0
94171,-100,4,1,1,5,0,0

[Colours]
Combo1 : 0,0,255
Combo2 : 0,255,0
Combo3 : 255,128,0
Combo4 : 255,0,0
Combo5 : 244,0,244

[HitObjects]
360,96,386,2,0,B|406:109|413:161|406:200|360:220,1,160
272,219,1136,2,0,B|216:219,2,40
80,40,2136,6,0,B|40:40,2,40
168,40,2636,2,0,B|255:80,1,80
176,128,3136,2,0,B|237:201,1,80
136,200,3636,2,0,B|160:292,1,80
72,256,4136,1,0
72,344,4386,6,0,B|144:368|144:368|224:344,2,160
144,288,5636,1,0
144,200,5886,1,0
144,112,6136,1,0
232,112,6386,6,0,B|304:88|304:88|384:112,1,160
384,200,7136,2,0,B|384:264,2,40
120,200,8136,6,0,B|120:248,2,40
192,152,8636,2,0,B|192:96,2,40
272,112,9136,2,0,B|272:216,1,80
352,152,9636,2,0,B|352:112,2,40
432,184,10136,1,0
256,192,10386,12,0,13386
32,88,14143,6,0,B|72:80|72:80|112:88,1,80
176,144,14623,1,0
240,88,14863,2,0,B|240:32|288:24|336:32|336:88,2,160,8|0|8
240,176,16063,6,0,B|200:184|200:184|160:176,1,80
161,264,16543,1,0
73,264,16783,2,0,B|17:264|9:312|17:360|73:360,2,160,8|0|8
73,175,17983,6,0,B|169:175,1,80
240,175,18459,2,0,B|240:71,1,80,0|8
415,95,19173,2,0,B|463:167|415:247,1,160,0|8
256,328,20125,5,0
256,192,20601,12,4,21544
104,192,22035,6,0,B|144:168|184:192,2,80,0|0|8
184,88,22979,1,0
272,88,23216,2,0,B|312:72|352:88,1,80,0|8
448,176,23924,6,0,B|448:264,2,80,0|0|8
328,224,24869,2,0,B|224:224,2,80,0|0|8
208,96,25812,6,0,B|168:80|128:96,1,80
168,176,26280,2,0,B|168:256,1,80,8|0
230,318,26749,1,0
292,255,26983,1,0
354,317,27218,1,8
416,254,27452,5,0
478,191,27687,2,0,B|507:142|454:13|295:15|266:63,1,320,8|8
178,63,28858,2,0,B|178:145,1,80,0|8
178,231,29327,6,0,B|130:231,2,40
252,276,29786,2,0,B|276:236|252:196,1,80,0|8
254,111,30244,1,0
191,48,30473,1,8
103,48,30702,1,0
40,110,30931,2,0,B|0:190|40:270,2,160,4|8|8
102,172,32076,1,0
164,234,32305,2,0,B|236:274|330:231,1,160,8|8
392,184,32992,6,0,B|392:80,1,80,0|8
304,104,33440,2,0,B|304:56,2,40,0|0|8
216,104,33890,2,0,B|216:208,1,80,0|8
216,272,34339,1,0
128,272,34564,2,0,B|88:208|88:208|136:136,2,160,8|8|8
216,272,35687,1,0
312,272,35912,1,8
312,184,36137,2,0,B|344:144|312:112,1,80,0|8
232,72,36587,5,0
152,104,36809,2,0,B|112:88|72:104,2,80,8|0|8
152,192,37475,1,0
152,280,37697,1,8
240,280,37920,2,0,B|278:279|278:279|312:256,1,80,0|8
400,120,38586,1,8
312,120,38809,2,0,B|272:120|272:120|232:144,1,80,0|8
160,280,39475,2,0,B|208:280|208:280|256:248,1,80,8|0
324,276,39920,1,8
384,208,40142,6,0,B|376:160|376:160|384:120,1,80,0|8
472,128,40576,2,0,B|480:80|480:80|472:40,1,80,0|8
392,16,41011,1,0
312,56,41228,1,8
232,16,41445,2,0,B|224:64|224:64|232:104,1,80,0|8
232,184,41880,2,0,B|240:232|240:232|232:272,1,80,0|8
145,262,42315,1,0
57,262,42532,1,8
100,184,42750,2,0,B|164:184,2,40,0|0|4
104,72,50263,6,0,B|144:72,2,40
144,152,50663,1,0
232,152,50863,2,0,B|254:107|347:107|369:152,2,160,8|0|8
232,240,51863,6,0,B|296:240,2,40
272,320,52263,1,0
360,320,52463,2,0,B|382:275|475:275|497:320,2,160,8|0|8
272,320,53463,6,0,B|272:256,2,40
184,320,53851,1,0
184,232,54045,2,0,B|139:209|139:116|184:94,2,160,8|0|8
256,192,55016,12,4,56375
256,192,56758,6,0,B|256:128|256:128|176:64,1,160,0|8
256,192,57515,2,0,B|256:256|256:256|336:320,1,160,0|8
256,192,58272,2,0,B|192:192|192:192|128:272,1,160,0|8
256,192,59029,2,0,B|320:192|320:192|384:112,1,160,0|8
200,112,59783,2,0,B|32:112,1,160,0|8
40,288,60528,2,0,B|200:288,1,160,0|8
256,192,61087,12,0,62021
256,192,63653,6,0,B|272:152|244:101|193:73|154:90,2,160
80,192,64738,2,0,B|80:272,1,80,0|4
256,192,66514,6,0,B|239:231|267:282|318:310|357:293,2,160
432,232,67573,1,0
496,168,67749,1,0
400,24,68093,1,4
256,120,68438,1,8
112,24,68783,1,4
120,200,69128,5,8
256,312,69473,1,4
392,200,69817,1,8
256,312,70162,1,4
256,136,70507,6,0,B|176:56|91:96|46:186|125:266,1,320,8|8
256,136,71870,2,0,B|335:56|420:96|465:186|386:266,1,320,8|8
256,264,73218,6,0,B|176:343|91:303|46:213|125:133,1,320,8|8
256,264,74543,2,0,B|335:343|420:303|465:213|386:133,1,320,8|8
256,192,75861,12,4,77165
256,192,77245,12,4,78455
40,192,79724,6,0,B|80:208|120:192,3,80
152,112,80355,2,0,B|192:96|232:112,3,80
264,192,80987,2,0,B|304:208|344:192,3,80
376,112,81618,2,0,B|416:96|456:112,1,80
504,192,81934,2,0,B|464:208|424:192,1,80
392,272,82250,1,4
256,192,82408,12,4,84777
256,192,85092,12,4,86987
256,192,87302,5,0
256,192,87460,2,0,B|256:104,3,80
168,112,88092,2,0,B|80:112,3,80
88,200,88725,2,0,B|88:288,3,80
176,280,89355,2,0,B|264:280,2,80
216,200,89829,5,4
464,296,90302,1,0
464,208,90460,2,0,B|464:120,3,80
376,128,91092,1,4
80,208,91645,6,0,B|32:208,1,40,8|4
376,320,92276,2,0,B|424:320,1,40
256,192,92513,12,0,94250
