osu file format v9

[General]
AudioFilename: 03 .mp3
AudioLeadIn: 2000
PreviewTime: 14126
Countdown: 0
SampleSet: Soft
StackLeniency: 0.7
Mode: 0
LetterboxInBreaks: 1

[Editor]
Bookmarks: 23436
DistanceSpacing: 0.8
BeatDivisor: 4
GridSize: 8

[Metadata]
Title:William Tell Overture
Artist:W.T. Orchestra
Creator:Louis Cyphre
Version:Kurai
Source:jubeat
Tags:Tonoicutzu KuraiPettan AngelHoney

[Difficulty]
HPDrainRate:5
CircleSize:4
OverallDifficulty:5
ApproachRate:8
SliderMultiplier:2.2
SliderTickRate:2

[Events]
//Background and Video events
0,0,"Color-Burst-psd33578.png"
//Break Periods
//Storyboard Layer 0 (Background)
//Storyboard Layer 1 (Fail)
//Storyboard Layer 2 (Pass)
//Storyboard Layer 3 (Foreground)
//Storyboard Sound Samples
//Background Colour Transformations
3,100,255,255,255

[TimingPoints]
386,500,4,1,0,60,1,0
636,-100,4,1,0,30,0,0
886,-100,4,1,0,60,0,0
10261,-100,4,2,0,70,0,0
10511,-100,4,1,0,60,0,0
13261,-100,4,2,0,5,0,0
14143,480,4,1,1,60,1,0
14383,480,4,1,1,60,1,0
17983,476.190476190476,4,1,1,60,1,0
18221,476.190476190476,4,1,1,60,1,0
21799,472.44094488189,4,1,1,60,1,0
22035,472.44094488189,4,1,1,60,1,0
25578,468.75,4,1,1,60,1,0
25812,468.75,4,1,1,60,1,0
29328,458.015267175573,4,1,1,60,1,0
29557,458.015267175573,4,1,1,60,1,0
32992,449.438202247191,4,1,1,60,1,0
33216,449.438202247191,4,1,1,60,1,0
36587,444.444444444444,4,1,1,60,1,0
36809,444.444444444444,4,1,1,60,1,0
40142,434.782608695652,4,1,1,60,1,0
40359,434.782608695652,4,1,1,60,1,0
43620,421.052631578947,4,1,1,60,1,0
43830,421.052631578947,4,1,1,60,1,0
46988,409.556313993174,4,1,1,60,1,0
47192,409.556313993174,4,1,1,60,1,0
50263,400,4,1,1,60,1,0
50463,400,4,1,1,60,1,0
53463,388.349514563107,4,1,1,60,1,0
53657,388.349514563107,4,1,1,60,1,0
56569,378.548895899054,4,1,1,60,1,0
56758,378.548895899054,4,1,1,60,1,0
59597,372.670807453416,4,1,1,60,1,0
59783,372.670807453416,4,1,1,60,1,0
62016,363.636363636364,4,1,1,60,1,0
63473,361.44578313253,4,1,1,60,1,0
64918,355.029585798817,4,1,1,60,1,0
66338,352.941176470588,4,1,1,60,1,0
67749,344.827586206897,4,1,1,60,1,0
69042,-133.333333333333,4,1,1,60,0,0
70507,340.909090909091,4,1,1,60,1,0
71870,337.078651685393,4,1,1,60,1,0
73218,331.491712707182,4,1,1,60,1,0
74543,329.67032967033,4,1,1,60,1,0
75861,326.086956521739,4,1,1,60,1,0
77165,322.58064516129,4,1,1,60,1,0
78455,317.460317460317,4,1,1,60,1,0
79724,315.789473684211,4,1,1,60,1,0
94171,-100,4,1,1,5,0,0

[Colours]
Combo1 : 0,0,255
Combo2 : 0,255,0
Combo3 : 255,128,0
Combo4 : 255,0,0
Combo5 : 244,0,244

[HitObjects]
136,80,386,2,0,B|87:112|75:189|128:232,2,165
184,56,1261,1,0
240,48,1386,1,0
432,312,2136,6,0,B|408:344|368:352,2,55
464,208,2636,5,0
352,224,2886,1,8
240,240,3136,2,0,B|248:311|324:334,1,110
352,224,3636,1,0
464,208,3886,2,0,B|455:136|379:113,1,110,8|0
256,56,4386,5,0
108,122,4636,6,0,B|50:151|48:216,1,110,0|8
160,224,5136,1,0
272,240,5386,2,0,B|263:311|187:334,2,110,0|0|8
160,224,6136,1,0
256,88,6386,5,0
80,312,7136,2,0,B|40:360,2,55,0|0|0
432,312,8136,2,0,B|472:360,2,55
256,272,8636,2,0,B|256:344,2,55
168,128,9136,5,0
336,128,9386,1,0
256,48,9636,6,0,B|256:112,1,55
256,160,9886,1,0
336,304,10136,5,0
168,304,10386,1,4
256,192,10511,12,0,13386
120,312,14143,6,0,B|80:304|64:264,1,55
48,240,14383,1,8
160,232,14623,2,0,B|200:240|216:280,1,55
232,304,14863,1,8
344,304,15103,2,0,B|408:304,1,55
456,304,15343,5,8
400,192,15583,1,0
336,88,15823,1,8
112,80,16063,6,0,B|72:88|56:128,1,55
40,152,16303,1,8
152,160,16543,2,0,B|192:152|208:112,1,55
224,88,16783,1,8
336,88,17023,2,0,B|400:88,1,55
448,88,17263,5,8
392,200,17503,1,0
328,304,17743,1,8
184,304,17983,5,0
176,296,18102,1,0
168,288,18221,1,8
328,304,18459,1,0
336,296,18578,1,0
344,288,18697,1,8
256,208,18935,5,0
256,200,19054,1,0
256,192,19173,1,8
307,94,19411,2,0,B|256:63|203:94,1,110,0|8
112,160,19887,5,0
112,160,20006,1,0
112,160,20125,2,0,B|48:192|32:272|72:328|128:344,1,220,8|8
152,320,20720,5,0
192,336,20840,1,8
232,320,20959,1,0
272,336,21078,1,8
360,272,21316,5,0
456,216,21554,1,8
368,120,21799,6,0,B|392:64,2,55,0|0|8
256,96,22271,2,0,B|256:24,2,55,0|0|8
144,120,22743,2,0,B|120:64,2,55,0|0|8
256,192,23216,5,0
256,192,23452,1,8
144,264,23688,6,0,B|120:320,2,55,0|0|8
256,288,24160,2,0,B|256:360,2,55,0|0|8
368,264,24633,2,0,B|392:320,2,55,0|0|8
256,192,25105,5,0
256,192,25342,1,8
144,192,25578,5,0
104,192,25695,1,0
64,192,25812,1,8
104,296,26046,2,0,B|58:341,2,55,0|0|8
216,288,26515,1,0
216,328,26632,1,0
216,368,26749,1,8
296,248,26983,5,0
296,136,27218,1,8
328,32,27452,5,0
328,32,27569,1,0
328,32,27687,2,8,B|390:49|416:116|413:179|361:225,1,220,0|0
338,240,28272,5,0
298,248,28390,1,8
256,240,28507,1,0
216,248,28624,1,8
160,152,28858,6,0,B|88:248,1,110,4|8
64,136,29328,5,0
64,136,29442,1,0
64,136,29557,1,8
144,64,29786,1,0
144,64,29900,1,0
144,64,30015,1,8
256,88,30244,1,0
256,88,30358,1,0
256,88,30473,1,8
368,64,30702,5,0
368,64,30931,1,8
448,136,31160,1,0
448,136,31389,1,8
448,248,31618,1,0
448,248,31847,1,8
368,320,32076,1,0
256,320,32305,5,8
184,208,32534,1,0
64,264,32763,1,8
64,152,32992,6,0,B|64:88,2,55,0|0|8
160,96,33440,2,0,B|205:50,2,55,0|0|8
256,144,33890,2,0,B|320:144,2,55,0|0|8
184,224,34339,6,0,B|144:272|144:336,1,110,0|8
248,280,34789,2,0,B|253:342|298:387,1,110,0|8
336,280,35238,2,0,B|384:320|448:320,2,110,0|8|0
416,200,35912,5,8
376,96,36137,1,8
376,96,36362,2,0,B|336:136|272:128,1,110,8|0
224,112,36698,5,0
168,128,36809,1,12
72,80,37031,2,0,B|24:136,2,55,0|0|12
88,192,37475,2,0,B|88:256,2,55,0|0|12
192,232,37920,5,0
264,312,38142,1,8
312,208,38364,1,0
232,104,38586,5,8
312,208,38808,1,0
368,88,39031,1,8
232,104,39253,1,0
136,160,39475,6,0,B|88:200|80:264,2,110,12|12|8
88,64,40142,6,0,B|56:72|32:96,2,55,0|0|8
200,48,40576,1,0
256,48,40685,1,0
312,48,40793,1,8
424,64,41011,2,0,B|456:72|480:96,2,55,0|0|8
400,168,41445,5,0
352,272,41663,1,8
288,184,41880,1,0
416,152,42098,5,4
352,296,42315,1,0
264,168,42532,1,12
224,320,42750,1,0
120,200,42967,1,12
256,32,43402,5,4
312,128,43620,1,0
320,136,43725,1,0
328,144,43830,1,8
200,128,44040,1,0
192,136,44145,1,0
184,144,44251,1,8
256,224,44461,2,8,B|256:336,2,110,0|8|0
80,192,45303,6,8,B|48:248|80:312,2,110,0|8|0
432,192,46145,2,8,B|464:248|432:312,1,110
256,192,46777,5,4
160,136,46988,1,0
160,128,47090,1,0
160,120,47192,1,8
256,64,47396,1,0
256,72,47499,1,0
256,80,47601,1,8
352,136,47806,1,0
256,192,48011,1,8
160,248,48215,1,0
352,248,48625,5,0
256,192,48830,1,8
160,136,49035,1,0
256,336,49444,5,0
256,336,49649,1,8
432,48,50263,2,0,B|456:112|456:120,2,55,0|0|8
360,128,50663,1,0
352,136,50763,1,0
344,144,50863,1,8
248,96,51063,1,0
240,96,51163,1,0
232,96,51263,1,8
96,40,51463,5,0
48,176,51663,1,8
104,272,51863,6,0,B|144:352,2,55,0|0|8
216,288,52263,2,0,B|256:368,2,55,0|0|8
328,304,52663,2,0,B|368:384,2,55,0|0|8
256,176,53063,5,0
184,48,53263,1,8
296,48,53463,5,0
304,48,53560,1,0
312,48,53657,1,8
392,120,53851,1,0
384,120,53948,1,0
376,120,54045,1,8
464,192,54239,1,0
472,192,54336,1,0
480,192,54433,1,8
392,264,54627,5,0
296,328,54822,1,8
184,328,55016,5,0
184,328,55113,1,0
184,328,55210,2,0,B|128:328|92:280|92:280|128:224|184:224,1,220,8|8
224,224,55695,5,0
264,208,55792,1,8
304,224,55890,1,0
344,208,55987,1,8
448,120,56181,5,0
320,80,56375,1,8
216,120,56569,6,0,B|192:64,2,55,0|0|8
128,184,56947,2,0,B|72:184,2,55,0|0|8
216,256,57325,2,0,B|192:312,2,55,0|0|8
336,192,57704,5,0
464,192,57893,1,8
384,80,58082,5,0
376,80,58177,1,0
368,80,58272,1,8
256,112,58461,2,0,B|256:48,2,55,0|0|8
144,80,58840,1,0
136,80,58934,1,0
128,80,59029,1,8
64,200,59218,5,0
136,312,59407,1,8
248,312,59597,6,0,B|312:312,2,55,0|0|8
320,232,59969,2,0,B|400:232,2,55,0|0|8
392,152,60342,2,0,B|456:152,2,55,0|0|8
256,152,60714,5,0
120,152,60901,1,8
144,48,61087,5,0
144,48,61180,1,0
144,48,61273,2,8,B|64:40|-8:104|8:192|56:232,1,220
24,232,61739,5,0
40,272,61832,1,8
24,312,61925,1,0
40,352,62016,1,8
152,352,62197,5,4
256,304,62379,1,8
352,352,62561,1,4
352,240,62743,2,0,B|328:192|336:128,1,110,8|4
256,208,63106,1,8
176,132,63288,2,0,B|184:192|160:240,2,110,4|8|4
440,192,64015,5,4
256,352,64376,1,4
72,192,64738,1,4
72,192,64918,5,8
112,304,65095,1,4
208,224,65273,1,8
208,224,65450,1,4
256,112,65628,1,8
304,224,65805,1,4
304,224,65983,1,8
400,304,66160,1,4
440,192,66338,1,8
440,192,66514,6,0,B|440:64|312:24,1,220,4|0
72,192,67220,2,0,B|72:64|200:24,1,220
256,128,67749,5,12
256,192,68093,1,12
256,256,68438,1,12
256,320,68783,1,12
368,200,69128,6,12,B|320:152|408:104|352:16,1,164.999995082617
144,200,69817,2,12,B|192:152|104:104|160:16,1,164.999995082617
256,192,70507,12,0,71188
256,192,71529,1,8
256,192,71870,12,0,72544
256,192,72881,1,8
256,192,73218,12,0,73880
256,192,74212,5,8
256,192,74543,12,0,75202
256,40,75532,6,8,B|216:96|304:168|256:256,1,220
216,344,76024,54,0,B|148:300|156:229,1,110,4|8
64,280,76350,2,0,B|54:200|113:161,1,110,4|8
64,80,76676,6,0,B|143:70|182:129,1,110,4|8
256,160,77002,1,4
344,106,77165,2,0,B|391:70|451:80,1,110,8|4
416,176,77487,6,0,B|452:222|442:282,1,110,8|4
353,253,77810,2,0,B|346:311|296:347,1,110,8|4
256,256,78132,5,8
256,160,78294,1,4
256,64,78455,1,8
256,192,78534,12,8,79407
184,72,79724,6,0,B|128:56|72:72,1,110,8|4
128,144,80039,2,0,B|77:172|48:223,1,110,8|4
136,240,80355,2,0,B|120:296|136:352,1,110,8|4
208,304,80671,2,0,B|236:354|287:383,1,110,8|4
304,296,80987,2,0,B|360:312|416:296,1,110,8|4
360,224,81302,2,0,B|410:195|439:144,1,110,8|4
352,136,81618,2,0,B|368:80|352:24,1,110,8|4
280,80,81934,2,0,B|251:29|200:0,1,110,8|4
144,72,82250,5,8
88,136,82408,1,4
144,200,82566,2,0,B|104:304,1,110,8|4
192,296,82881,1,8
256,232,83039,5,4
320,296,83197,1,8
407,302,83355,2,0,B|367:194,1,110,4|8
424,136,83671,5,4
368,72,83829,1,8
312,144,83987,1,4
256,72,84145,1,8
200,144,84302,5,4
112,160,84460,2,0,B|56:200|72:288,1,110,8|4
152,240,84776,1,8
192,320,84934,5,4
256,264,85092,1,8
320,320,85250,1,4
360,240,85408,1,8
443,255,85566,6,0,B|447:199|402:159,1,110,4|8
416,72,85881,1,4
336,96,86039,1,8
304,176,86197,5,4
208,176,86355,1,8
176,96,86513,1,4
96,72,86671,1,8
112,160,86829,6,0,B|96:224|152:264,1,110,4|8
96,336,87145,2,0,B|152:360|208:320,1,110,4|8
256,192,87381,12,4,89829
256,40,90302,53,0
256,56,90381,1,0
256,72,90460,1,12
256,160,90618,1,0
216,240,90776,1,8
296,280,90934,1,0
256,360,91092,1,12
80,104,91645,6,0,B|96:168,1,55,0|12
432,104,92276,2,0,B|416:168,1,55,0|12
256,192,92434,12,0,94250
