osu file format v9

[General]
AudioFilename: 03 .mp3
AudioLeadIn: 2000
PreviewTime: 14126
Countdown: 0
SampleSet: Normal
StackLeniency: 0.7
Mode: 0
LetterboxInBreaks: 1

[Editor]
DistanceSpacing: 0.8
BeatDivisor: 4
GridSize: 8

[Metadata]
Title:William Tell Overture
Artist:W.T. Orchestra
Creator:Louis Cyphre
Version:Champion
Source:jubeat
Tags:Tonoicutzu KuraiPettan AngelHoney

[Difficulty]
HPDrainRate:6
CircleSize:4
OverallDifficulty:7
ApproachRate:8
SliderMultiplier:2.4
SliderTickRate:2

[Events]
//Background and Video events
0,0,"Color-Burst-psd33578.png"
//Break Periods
//Storyboard Layer 0 (Background)
//Storyboard Layer 1 (Fail)
//Storyboard Layer 2 (Pass)
//Storyboard Layer 3 (Foreground)
//Storyboard Sound Samples
//Background Colour Transformations
3,100,255,255,255

[TimingPoints]
386,500,4,2,0,60,1,0
13261,-100,4,2,0,5,0,0
14143,480,4,1,1,60,1,0
14383,480,4,1,1,60,1,0
17983,476.190476190476,4,1,1,60,1,0
18221,476.190476190476,4,1,1,60,1,0
21799,472.44094488189,4,1,1,60,1,0
22035,472.44094488189,4,1,1,60,1,0
25578,468.75,4,1,1,60,1,0
25812,468.75,4,1,1,60,1,0
29328,458.015267175573,4,1,1,60,1,0
29557,458.015267175573,4,1,1,60,1,0
30587,-100,4,1,2,60,0,0
30816,-100,4,1,1,60,0,0
31045,-100,4,1,2,60,0,0
31274,-100,4,1,1,60,0,0
31503,-100,4,1,2,60,0,0
31732,-100,4,1,1,60,0,0
31961,-100,4,1,2,60,0,0
32190,-100,4,1,1,60,0,0
32419,-100,4,1,2,60,0,0
32648,-100,4,1,1,60,0,0
32877,-100,4,1,2,60,0,0
32992,449.438202247191,4,1,1,60,1,0
33216,449.438202247191,4,1,1,60,1,0
34227,-100,4,1,2,60,0,0
34451,-100,4,1,1,60,0,0
34676,-100,4,1,2,60,0,0
34901,-100,4,1,1,60,0,0
35126,-100,4,1,2,60,0,0
35350,-100,4,1,1,60,0,0
35575,-100,4,1,2,60,0,0
35800,-100,4,1,1,60,0,0
36024,-100,4,1,2,60,0,0
36249,-100,4,1,1,60,0,0
36587,444.444444444444,4,1,1,60,1,0
36809,444.444444444444,4,1,1,60,1,0
37809,-100,4,1,2,60,0,0
38031,-100,4,1,1,60,0,0
38253,-100,4,1,2,60,0,0
38475,-100,4,1,1,60,0,0
38697,-100,4,1,2,60,0,0
38920,-100,4,1,1,60,0,0
39142,-100,4,1,2,60,0,0
39364,-100,4,1,1,60,0,0
39586,-100,4,1,2,60,0,0
39809,-100,4,1,1,60,0,0
40142,434.782608695652,4,1,1,60,1,0
40359,434.782608695652,4,1,1,60,1,0
41337,-100,4,1,2,60,0,0
41554,-100,4,1,1,60,0,0
41772,-100,4,1,2,60,0,0
41989,-100,4,1,1,60,0,0
42206,-100,4,1,2,60,0,0
42424,-100,4,1,1,60,0,0
42641,-100,4,1,2,60,0,0
42859,-100,4,1,1,60,0,0
43620,421.052631578947,4,1,1,60,1,0
43830,421.052631578947,4,1,1,60,1,0
46988,409.556313993174,4,1,1,60,1,0
47192,409.556313993174,4,1,1,60,1,0
50263,400,4,1,1,60,1,0
50463,400,4,1,1,60,1,0
53463,388.349514563107,4,1,1,60,1,0
53657,388.349514563107,4,1,1,60,1,0
56569,378.548895899054,4,1,1,60,1,0
56758,378.548895899054,4,1,1,60,1,0
59597,372.670807453416,4,1,1,60,1,0
59783,372.670807453416,4,1,1,60,1,0
62016,363.636363636364,4,1,1,60,1,0
63473,361.44578313253,4,1,1,60,1,0
64918,355.029585798817,4,1,1,60,1,0
66338,352.941176470588,4,1,1,60,1,0
67749,344.827586206897,4,1,1,60,1,0
70507,340.909090909091,4,1,1,10,1,0
71274,-100,4,1,0,60,0,0
71870,337.078651685393,4,1,1,10,1,0
72628,-100,4,1,0,60,0,0
73218,331.491712707182,4,1,1,10,1,0
73963,-100,4,1,0,60,0,0
74543,329.67032967033,4,1,1,10,1,0
75284,-100,4,1,0,60,0,0
75861,326.086956521739,4,1,1,60,1,0
77165,322.58064516129,4,1,1,60,1,0
78455,317.460317460317,4,1,1,60,1,0
79724,315.789473684211,4,1,1,60,1,0
94171,-100,4,1,1,5,0,0

[Colours]
Combo1 : 0,0,255
Combo2 : 0,255,0
Combo3 : 255,128,0
Combo4 : 255,0,0
Combo5 : 244,0,244

[HitObjects]
256,192,386,1,4
208,352,1135,5,0
256,336,1261,1,0
304,352,1386,1,0
464,112,2136,5,0
416,96,2261,1,0
400,48,2386,1,0
320,96,2636,1,0
256,24,2886,1,0
192,96,3136,1,0
96,96,3386,6,0,B|32:128|32:200,1,120
57,326,3886,2,0,B|120:294|120:232,1,120
416,288,4386,6,0,B|480:256|480:184,1,120
454,57,4886,2,0,B|391:89|392:152,1,120
320,88,5386,2,0,B|240:88|240:88|192:120,1,120
192,296,5886,2,0,B|272:296|272:296|320:264,1,120
256,192,6386,1,0
456,48,7136,5,0
472,96,7261,1,0
456,144,7386,1,0
432,232,7636,1,0
456,328,7886,1,0
360,304,8136,5,0
320,272,8261,1,0
280,304,8386,1,0
104,304,8636,5,0
144,272,8761,1,0
184,304,8886,1,0
320,192,9136,5,0
144,192,9386,1,0
192,48,9636,5,0
232,80,9761,1,0
272,48,9886,1,0
336,192,10136,5,0
128,192,10386,1,4
256,192,10636,12,0,13386
464,48,14143,5,0
424,72,14263,1,0
384,48,14383,1,8
296,184,14623,5,0
256,160,14743,1,0
216,184,14863,1,8
48,48,15103,5,0
88,72,15223,1,0
128,48,15343,1,8
136,144,15583,5,0
376,144,15823,1,8
464,336,16063,5,0
424,312,16183,1,0
384,336,16303,1,8
296,200,16543,5,0
256,224,16663,1,0
216,200,16783,1,8
48,336,17023,5,0
88,312,17143,1,0
128,336,17263,1,8
136,240,17503,5,0
376,240,17743,1,8
456,48,17983,5,0
424,88,18102,1,0
392,128,18221,1,8
256,24,18459,5,0
256,72,18578,1,0
256,120,18697,1,8
56,48,18935,5,0
88,88,19054,1,0
120,128,19173,1,8
208,176,19411,6,0,B|224:200|257:209|257:209|288:200|304:176,1,120,0|8
384,224,19887,5,0
400,272,20006,1,0
384,320,20125,1,8
304,264,20363,1,0
248,344,20601,1,0
200,352,20720,5,0
152,336,20840,1,0
128,288,20959,1,0
136,240,21078,5,8
256,192,21316,1,0
376,144,21554,1,8
416,48,21799,5,0
368,32,21917,1,0
320,48,22035,1,8
96,48,22271,5,0
144,32,22389,1,0
192,48,22507,1,8
216,168,22743,5,0
256,192,22861,1,0
296,168,22979,1,8
392,192,23216,5,0
120,192,23452,1,8
80,280,23688,5,0
112,320,23806,1,0
160,328,23924,1,8
208,120,24160,5,0
256,104,24279,1,0
304,120,24397,1,8
432,280,24633,5,0
400,320,24751,1,0
352,328,24869,1,8
400,192,25105,5,0
112,192,25342,1,8
80,104,25578,6,0,B|144:104,2,60,0|0|8
432,104,26046,2,0,B|368:104,2,60,0|0|8
227,319,26515,2,0,B|287:319,2,60,0|0|8
72,256,26983,5,0
440,256,27218,1,8
352,216,27452,5,0
368,168,27569,1,0
384,120,27687,1,8
160,216,27921,5,0
128,176,28038,1,0
128,120,28155,1,0
152,80,28272,5,0
192,56,28390,1,0
240,56,28507,1,0
280,80,28624,1,8
424,288,28858,5,0
88,288,29093,1,4
216,336,29328,5,0
256,312,29442,1,0
296,336,29557,1,8
384,232,29786,5,0
352,192,29900,1,0
384,152,30015,1,8
128,232,30244,5,0
160,192,30358,1,0
128,152,30473,1,8
96,64,30702,5,8
416,64,30931,1,8
40,136,31160,5,8
472,136,31389,1,8
96,208,31618,5,8
416,208,31847,1,8
40,280,32076,5,8
472,280,32305,1,8
96,352,32534,5,8
416,352,32763,1,8
96,208,32992,6,0,B|176:208,2,60,0|0|8
416,208,33440,2,0,B|336:208,2,60,0|0|8
304,96,33890,5,0
256,112,34002,1,0
208,96,34114,1,0
152,288,34339,5,8
360,288,34564,1,8
416,208,34789,6,0,B|448:208|472:168|448:128|416:128,1,120,8|8
96,208,35238,2,0,B|64:208|40:168|64:128|96:128,1,120,8|8
352,168,35687,5,8
160,168,35912,1,4
64,56,36137,5,0
448,56,36362,1,4
440,272,36586,5,0
392,288,36698,1,0
344,304,36809,1,8
72,272,37031,5,0
120,288,37142,1,0
168,304,37253,1,8
296,216,37475,5,0
256,192,37586,1,0
216,216,37697,1,8
48,144,37920,5,8
464,248,38142,1,8
136,56,38364,5,8
376,328,38586,1,8
464,144,38808,5,8
48,248,39031,1,8
376,56,39253,5,8
136,328,39475,1,8
376,328,39697,5,0
136,56,39920,1,0
56,192,40142,5,0
104,192,40250,1,0
152,192,40359,1,8
456,192,40576,5,0
408,192,40685,1,0
360,192,40793,1,8
256,48,41011,6,0,B|256:128,2,60,0|0|8
200,296,41445,2,0,B|256:336|312:296,1,120,8|8
464,120,41880,6,0,B|408:80|352:120,1,120,8|8
48,120,42315,2,0,B|103:80|159:120,1,120,8|8
408,176,42750,5,8
104,176,42967,1,4
352,328,43619,5,0
320,296,43725,1,0
320,248,43830,1,2
160,56,44040,5,0
192,88,44145,1,0
192,136,44251,1,2
192,240,44461,5,2
320,144,44672,1,2
112,192,44882,5,0
400,192,45093,1,2
168,320,45303,5,0
344,64,45514,1,2
40,144,45724,5,0
472,240,45935,1,2
40,344,46145,5,0
472,40,46356,1,2
392,312,46988,5,0
352,288,47090,1,0
304,304,47192,1,2
120,312,47396,5,0
160,288,47499,1,0
208,304,47601,1,2
256,216,47806,5,2
256,120,48011,1,2
328,56,48215,5,0
184,56,48420,1,2
376,144,48625,5,0
136,144,48830,1,2
464,192,49035,5,0
48,192,49239,1,2
256,336,49444,5,0
256,40,49649,1,4
456,256,50263,5,0
416,280,50363,1,0
376,304,50463,1,8
296,168,50663,5,0
256,192,50763,1,0
216,216,50863,1,8
136,80,51063,5,0
96,104,51163,1,0
56,128,51263,1,8
128,192,51463,5,0
384,192,51663,1,8
456,128,51863,5,0
416,104,51963,1,0
376,80,52063,1,8
296,216,52263,5,0
256,192,52363,1,0
216,168,52463,1,8
136,304,52663,5,0
96,280,52763,1,0
56,256,52863,1,8
128,192,53063,5,0
384,192,53263,1,8
472,240,53463,5,0
456,288,53560,1,0
424,320,53657,1,8
256,296,53851,5,0
256,248,53948,1,0
256,200,54045,1,8
40,240,54239,5,0
56,288,54336,1,0
88,320,54433,1,8
160,256,54627,5,0
352,256,54822,1,8
304,168,55016,5,0
256,152,55113,1,0
208,168,55210,1,8
256,248,55404,1,0
176,296,55598,1,0
208,328,55695,5,0
256,344,55792,1,0
304,328,55890,1,0
336,296,55987,1,8
384,216,56181,5,0
128,216,56375,1,8
80,136,56569,5,0
56,96,56663,1,0
32,56,56758,1,8
256,136,56947,5,0
232,96,57041,1,0
208,56,57136,1,8
432,136,57325,5,0
408,96,57420,1,0
384,56,57515,1,8
344,192,57704,5,0
168,192,57893,1,8
432,248,58082,5,0
456,288,58177,1,0
480,328,58272,1,8
256,248,58461,5,0
280,288,58556,1,0
304,328,58650,1,8
80,248,58840,5,0
104,288,58934,1,0
128,328,59029,1,8
168,192,59218,5,0
344,192,59407,1,8
448,32,59597,6,0,B|384:32,2,60,0|0|8
56,32,59969,2,0,B|120:32,2,60,0|0|8
256,80,60342,1,0
256,80,60435,1,0
256,80,60528,1,8
128,144,60714,5,0
384,144,60901,1,8
336,232,61087,5,0
336,232,61180,1,0
336,232,61273,1,8
256,288,61460,1,0
176,232,61646,1,0
160,232,61739,1,0
144,232,61832,1,0
128,232,61925,1,0
112,232,62016,1,8
56,152,62197,5,0
80,112,62288,1,0
128,96,62379,5,0
176,112,62470,1,0
200,152,62561,1,0
240,176,62652,1,0
280,152,62743,1,0
304,112,62834,1,0
344,88,62925,1,0
384,112,63015,1,0
408,152,63106,5,0
384,192,63197,1,0
400,240,63288,1,0
448,256,63379,1,0
488,240,63473,1,0
472,336,63653,6,0,B|400:312|416:360|352:336,1,120,0|8
312,248,64015,2,0,B|256:213|200:248,1,120,8|8
256,328,64376,1,8
256,328,64557,1,8
156,337,64738,2,0,B|96:360|112:312|40:336,1,120,8|4
64,240,65095,5,0
80,192,65184,1,0
120,168,65273,1,0
160,192,65361,1,0
176,240,65450,1,0
216,264,65539,1,0
256,240,65628,5,0
272,192,65716,1,0
312,168,65805,1,0
352,192,65894,1,0
368,240,65983,1,0
408,264,66071,1,0
448,240,66160,5,0
464,192,66249,1,0
448,144,66338,1,0
504,64,66514,6,0,B|456:64|456:64|448:72|448:72|440:64|440:64|384:64,1,120,8|8
312,112,66867,2,0,B|256:152|200:112,1,120,8|8
121,64,67220,2,0,B|72:64|72:64|64:72|64:72|56:64|56:64|8:64,1,120,8|8
64,144,67573,1,8
64,240,67749,6,0,B|200:240,1,120,2|0
448,240,68093,2,0,B|312:240,1,120,2|0
64,312,68438,6,0,B|200:312,1,120,2|0
448,312,68783,2,0,B|312:312,1,120,2|0
256,248,69128,5,2
408,128,69473,1,2
104,128,69817,5,2
256,8,70162,1,2
256,248,70507,6,0,B|256:280,16,30,4|0|0|0|0|0|0|0|0|0|0|0|0|0|0|0|0
336,192,71359,1,8
304,104,71529,1,0
208,104,71700,1,8
176,192,71870,6,0,B|153:214,16,30
256,296,72712,1,8
360,192,72881,1,0
256,96,73049,1,8
152,192,73218,6,0,B|104:192,16,30
256,48,74046,1,8
400,192,74212,1,0
256,336,74378,1,8
112,192,74543,6,0,B|64:192,16,30
256,8,75367,1,8
448,192,75532,1,0
256,376,75696,1,8
344,336,75861,5,0
416,272,76024,1,8
344,208,76187,1,0
416,144,76350,1,8
344,80,76513,5,0
256,32,76676,1,8
256,128,76839,1,0
168,80,77002,1,8
96,144,77165,5,0
168,208,77326,1,8
96,272,77487,1,0
168,336,77648,1,8
256,304,77810,5,0
344,336,77971,1,8
416,272,78132,1,0
344,208,78294,1,8
256,168,78455,6,0,B|256:208,8,30
256,160,78851,1,0
256,152,78931,1,0
256,144,79010,1,0
256,136,79089,1,0
256,128,79169,1,0
256,120,79248,1,0
256,112,79328,1,0
256,104,79407,5,0
256,96,79486,1,0
256,88,79566,1,0
256,80,79645,1,0
256,80,79724,6,0,B|296:40|296:40|368:40,1,120,8|0
256,304,80039,2,0,B|216:344|216:344|144:344,1,120,8|0
368,192,80355,6,0,B|408:232|408:232|408:304,1,120,8|0
144,192,80671,2,0,B|104:152|104:152|104:80,1,120,8|0
192,120,80987,5,8
144,32,81145,1,0
320,256,81302,5,8
360,344,81460,1,0
320,120,81618,5,8
368,32,81776,1,0
192,256,81934,5,8
152,344,82092,1,0
72,288,82250,5,8
80,192,82408,1,0
88,184,82487,1,0
96,176,82566,1,0
104,168,82645,1,0
112,160,82724,1,0
120,152,82802,1,0
128,144,82881,1,0
384,144,83039,5,0
392,152,83118,1,0
400,160,83197,1,0
408,168,83276,1,0
416,176,83355,1,0
424,184,83434,1,0
432,192,83513,1,0
448,288,83671,6,0,B|384:264|392:304|328:280,1,120,0|8
312,200,83987,5,0
296,120,84145,1,8
216,120,84302,1,0
200,200,84460,1,8
180,280,84618,2,0,B|118:257|126:297|63:274,1,120,0|8
80,192,84934,5,0
88,184,85013,1,0
96,176,85092,1,0
104,168,85171,1,0
112,160,85250,1,0
120,152,85329,1,0
128,144,85408,1,0
208,88,85566,5,0
216,96,85645,1,0
224,104,85724,1,0
232,112,85802,1,0
240,120,85881,1,0
248,128,85960,1,0
256,136,86039,1,0
352,112,86197,6,0,B|440:24,1,120,0|8
376,192,86513,2,0,B|464:104,1,120,0|8
168,272,86829,6,0,B|80:360,1,120,0|8
144,192,87145,2,0,B|56:280,1,120,0|8
88,120,87460,6,0,B|176:32,1,120,0|0
256,88,87776,1,2
424,120,87934,6,0,B|339:35,1,120,2|0
72,120,88250,6,0,B|156:35,1,120,2|0
440,120,88566,6,0,B|355:35,1,120,2|0
72,120,88881,6,0,B|156:35,1,120,2|0
456,120,89197,6,0,B|371:35,1,120,2|0
56,120,89513,6,0,B|140:35,1,120,2|0
256,328,89829,1,4
256,40,90302,5,0
264,64,90381,1,0
272,88,90460,2,0,B|272:140|272:140|224:188,1,120,8|0
240,296,90776,2,0,B|240:243|240:243|288:195,1,120,8|0
376,168,91092,1,4
40,192,91645,5,8
40,192,91724,1,4
472,192,92276,5,8
472,192,92355,1,4
256,192,92434,12,0,94250
