osu file format v9

[General]
AudioFilename: 03 .mp3
AudioLeadIn: 2000
PreviewTime: 14126
Countdown: 0
SampleSet: Normal
StackLeniency: 0.7
Mode: 0
LetterboxInBreaks: 1

[Editor]
DistanceSpacing: 1.4
BeatDivisor: 2
GridSize: 8

[Metadata]
Title:William Tell Overture
Artist:W.T. Orchestra
Creator:Louis Cyphre
Version:Beginner
Source:jubeat
Tags:Tonoicutzu KuraiPettan AngelHoney

[Difficulty]
HPDrainRate:1
CircleSize:3
OverallDifficulty:1
ApproachRate:1
SliderMultiplier:0.700000005960464
SliderTickRate:1

[Events]
//Background and Video events
0,0,"Color-Burst-psd33578.png"
//Break Periods
2,43167,48783
//Storyboard Layer 0 (Background)
//Storyboard Layer 1 (Fail)
//Storyboard Layer 2 (Pass)
//Storyboard Layer 3 (Foreground)
//Storyboard Sound Samples
//Background Colour Transformations
3,100,255,255,255

[TimingPoints]
386,500,4,1,0,60,1,0
13136,-100,4,1,0,5,0,0
14143,480,4,1,1,60,1,0
14383,480,4,1,1,60,1,0
17983,476.190476190476,4,1,1,60,1,0
18221,476.190476190476,4,1,1,60,1,0
21799,472.44094488189,4,1,1,60,1,0
22035,472.44094488189,4,1,1,60,1,0
25578,468.75,4,1,1,60,1,0
25812,468.75,4,1,1,60,1,0
29328,458.015267175573,4,1,1,60,1,0
29557,458.015267175573,4,1,1,60,1,0
32992,449.438202247191,4,1,1,60,1,0
33216,449.438202247191,4,1,1,60,1,0
36587,444.444444444444,4,1,1,60,1,0
36809,444.444444444444,4,1,1,60,1,0
40142,434.782608695652,4,1,1,60,1,0
40359,434.782608695652,4,1,1,60,1,0
43620,421.052631578947,4,1,1,60,1,0
43830,421.052631578947,4,1,1,60,1,0
46988,409.556313993174,4,1,1,60,1,0
47192,409.556313993174,4,1,1,60,1,0
50263,400,4,1,1,60,1,0
50463,400,4,1,1,60,1,0
53463,388.349514563107,4,1,1,60,1,0
53657,388.349514563107,4,1,1,60,1,0
56569,378.548895899054,4,1,1,60,1,0
56758,378.548895899054,4,1,1,60,1,0
59597,372.670807453416,4,1,1,60,1,0
59783,372.670807453416,4,1,1,60,1,0
62016,363.636363636364,4,1,1,60,1,0
63473,361.44578313253,4,1,1,60,1,0
64918,355.029585798817,4,1,1,60,1,0
66338,352.941176470588,4,1,1,60,1,0
67749,344.827586206897,4,1,1,60,1,0
70507,340.909090909091,4,1,1,60,1,0
71870,337.078651685393,4,1,1,60,1,0
73218,331.491712707182,4,1,1,60,1,0
74543,329.67032967033,4,1,1,60,1,0
75861,326.086956521739,4,1,1,60,1,0
77165,322.58064516129,4,1,1,60,1,0
78455,317.460317460317,4,1,1,60,1,0
79724,315.789473684211,4,1,1,60,1,0
94092,-100,4,1,1,5,0,0

[Colours]
Combo1 : 0,0,255
Combo2 : 0,255,0
Combo3 : 255,128,0
Combo4 : 255,0,0
Combo5 : 244,0,244

[HitObjects]
384,192,386,1,2
256,40,1386,1,2
128,192,2386,1,2
256,344,3386,1,2
432,256,4386,6,0,B|392:240|375:193|392:144|432:144|472:144|488:96|472:48|432:32,1,280.000002384186,2|2
256,112,7386,1,2
80,32,8386,6,0,B|38:48|22:96|38:144|78:144|118:144|135:193|118:240|78:256,1,280.000002384186,2|4
256,192,10636,12,0,13386
440,192,14383,6,0,B|384:168|384:168|392:96|352:64|304:64,1,210.000001788139,8|0
208,64,16303,2,0,B|162:63|122:95|130:167|130:167|74:191,1,210.000001788139,8|0
160,248,18221,2,0,B|224:232|256:272|256:272|288:232|352:248,1,210.000001788139,8|0
424,184,20125,5,8
328,152,20601,2,0,B|184:152,1,140.000001192093
104,208,22035,6,0,B|48:215|8:280|48:344|104:352,1,210.000001788139,8|0
183,296,23924,2,0,B|200:248|256:224|256:224|312:248|328:296,1,210.000001788139,8|0
407,352,25812,2,0,B|464:344|504:280|464:215|408:208,1,210.000001788139,8|0
376,112,27687,6,0,B|288:112,1,70.0000005960464,8|0
208,112,28624,2,0,B|138:112,1,70.0000005960464,8|0
136,208,29557,6,0,B|112:288|192:320,1,140.000001192093,4|0
256,248,30931,1,0
320,319,31389,6,0,B|400:288|376:208,1,140.000001192093,4|0
352,112,32763,1,0
256,80,33216,6,0,B|208:64|208:64|160:88|128:128|160:176|176:248|136:288,1,280.000002384186,4|4
200,352,35463,1,0
256,272,35912,1,8
312,352,36362,1,0
361,269,36809,6,0,B|334:247|350:175|382:127|350:87|302:63|302:63|254:79,1,280.000002384186,0|8
256,176,39031,6,0,B|256:336,1,140.000001192093,0|8
160,344,40359,2,0,B|160:192,1,140.000001192093,0|8
256,168,41663,1,8
352,204,42098,2,0,B|352:344,1,140.000001192093,4|4
128,352,50463,6,0,B|128:280|128:280|56:264|56:176,1,210.000001788139,8|0
152,192,52063,2,0,B|256:160|256:224|360:192,1,210.000001788139,8|0
456,208,53657,2,0,B|456:120|384:104|384:104|384:32,1,210.000001788139,8|0
256,192,55210,12,0,56375
256,128,57136,5,0
96,240,57893,1,8
256,352,58650,1,0
416,240,59407,1,8
320,64,60155,2,0,B|256:16|192:64,2,140.000001192093,0|8|0
256,136,62016,1,4
256,192,62197,12,4,63470
256,192,64195,5,0
256,192,64557,1,0
256,192,64918,1,0
256,192,65095,12,4,66338
256,320,67043,5,0
256,320,67396,1,0
328,256,67749,2,0,B|328:104,1,140.000001192093,8|0
184,256,69128,2,0,B|184:116,1,140.000001192093,8|0
256,304,70507,6,0,B|466:304,1,210.000001788139,4|0
464,208,71870,2,0,B|248:208,1,210.000001788139,4|0
256,112,73218,2,0,B|46:112,1,210.000001788139,4|0
48,208,74543,2,0,B|264:208,1,210.000001788139,4|0
256,304,75861,5,4
432,216,76513,1,8
352,32,77165,1,0
160,32,77810,1,8
80,216,78455,1,0
256,312,79089,1,8
440,248,79724,6,0,B|440:88,1,140.000001192093,0|8
256,192,80987,1,0
72,120,81618,1,8
256,192,82250,12,8,84776
256,192,85092,12,8,87302
256,192,87934,5,0
448,192,88566,1,8
280,96,89197,1,0
224,280,89829,1,8
56,184,90460,6,0,B|56:40,1,140.000001192093,0|4
256,48,91724,1,4
256,248,92355,1,4
256,192,92671,12,0,94250
