osu file format v9

[General]
AudioFilename: 03 .mp3
AudioLeadIn: 0
PreviewTime: 14126
Countdown: 0
SampleSet: Normal
StackLeniency: 0.7
Mode: 0
LetterboxInBreaks: 1

[Editor]
DistanceSpacing: 1
BeatDivisor: 4
GridSize: 16

[Metadata]
Title:William Tell Overture
Artist:W.T. Orchestra
Creator:Louis Cyphre
Version:AngelHoney
Source:jubeat
Tags:Tonoicutzu KuraiPettan AngelHoney

[Difficulty]
HPDrainRate:4
CircleSize:3
OverallDifficulty:4
ApproachRate:6
SliderMultiplier:1.50000000596046
SliderTickRate:0.5

[Events]
//Background and Video events
0,0,"Color-Burst-psd33578.png"
//Break Periods
//Storyboard Layer 0 (Background)
//Storyboard Layer 1 (Fail)
//Storyboard Layer 2 (Pass)
//Storyboard Layer 3 (Foreground)
//Storyboard Sound Samples
//Background Colour Transformations
3,100,255,255,255

[TimingPoints]
386,500,4,1,0,60,1,0
13386,-100,4,1,0,5,0,0
14143,480,4,1,1,60,1,0
14383,480,4,1,1,60,1,0
17983,476.190476190476,4,1,1,60,1,0
18221,476.190476190476,4,1,1,60,1,0
21799,472.44094488189,4,1,1,60,1,0
22035,472.44094488189,4,1,1,60,1,0
25578,468.75,4,1,1,60,1,0
25812,468.75,4,1,1,60,1,0
29328,458.015267175573,4,1,1,60,1,0
29557,458.015267175573,4,1,1,60,1,0
32992,449.438202247191,4,1,1,60,1,0
33216,449.438202247191,4,1,1,60,1,0
36587,444.444444444444,4,1,1,60,1,0
36809,444.444444444444,4,1,1,60,1,0
40142,434.782608695652,4,1,1,60,1,0
40359,434.782608695652,4,1,1,60,1,0
43620,421.052631578947,4,1,1,60,1,0
43830,421.052631578947,4,1,1,60,1,0
46988,409.556313993174,4,1,1,60,1,0
47192,409.556313993174,4,1,1,60,1,0
50263,400,4,1,1,60,1,0
50463,400,4,1,1,60,1,0
53463,388.349514563107,4,1,1,60,1,0
53657,388.349514563107,4,1,1,60,1,0
56569,378.548895899054,4,1,1,60,1,0
56758,378.548895899054,4,1,1,60,1,0
59597,372.670807453416,4,1,1,60,1,0
59783,372.670807453416,4,1,1,60,1,0
62016,363.636363636364,4,1,1,60,1,0
63473,361.44578313253,4,1,1,60,1,0
64918,355.029585798817,4,1,1,60,1,0
66338,352.941176470588,4,1,1,60,1,0
67749,344.827586206897,4,1,1,60,1,0
70507,340.909090909091,4,1,1,60,1,0
71870,337.078651685393,4,1,1,60,1,0
73218,331.491712707182,4,1,1,60,1,0
74543,329.67032967033,4,1,1,60,1,0
75861,326.086956521739,4,1,1,60,1,0
77165,322.58064516129,4,1,1,60,1,0
78455,317.460317460317,4,1,1,60,1,0
79724,315.789473684211,4,1,1,60,1,0
94250,-100,4,1,1,5,0,0

[Colours]
Combo1 : 0,0,255
Combo2 : 0,255,0
Combo3 : 255,128,0
Combo4 : 255,0,0
Combo5 : 244,0,244

[HitObjects]
256,192,10386,12,0,13386
64,160,14143,6,0,B|32:128,2,37.5000001490115,0|0|4
192,128,14623,2,0,B|208:80,2,37.5000001490115,0|0|0
160,240,15103,2,0,B|192:336,2,75.000000298023
118,124,15823,1,0
256,112,16063,6,0,B|251:61,2,37.5000001490115,0|0|4
377,156,16543,2,0,B|434:120,2,37.5000001490115
277,231,17023,2,0,B|239:320,2,75.000000298023
329,111,17743,1,0
432,208,17983,5,0
416,224,18102,1,0
400,240,18221,2,0,B|336:304,1,75.000000298023,4|0
318,288,18578,1,0
288,288,18697,2,0,B|224:352,1,75.000000298023
128,336,19173,1,0
48,272,19411,1,0
144,224,19649,1,0
64,160,19887,5,0
80,144,20006,1,0
96,128,20125,2,0,B|176:128|240:64,1,150.000000596046,4|0
336,32,20840,1,0
432,80,21078,1,4
336,128,21316,1,0
432,176,21554,1,4
384,272,21799,6,0,B|448:272,2,37.5000001490115,0|0|4
288,336,22271,2,0,B|256:368,2,37.5000001490115
267,227,22743,1,0
251,227,22861,1,0
235,227,22979,2,0,B|155:227,2,75.000000298023
320,128,23688,6,0,B|320:80,2,37.5000001490115
416,176,24160,2,0,B|448:144,2,37.5000001490115
416,288,24633,1,0
400,304,24751,1,0
384,320,24869,2,0,B|352:352|304:352,2,75.000000298023
304,256,25578,5,0
288,256,25695,1,0
272,256,25812,2,0,B|192:256,1,75.000000298023,4|0
176,272,26163,1,0
160,288,26280,2,0,B|64:288,1,75.000000298023
16,208,26749,1,0
112,160,26983,1,0
32,96,27218,1,0
128,48,27452,5,0
144,48,27569,1,0
160,48,27687,2,0,B|224:96|320:80,1,150.000000596046
400,64,28390,1,0
480,128,28624,1,0
400,192,28858,1,0
480,256,29093,1,0
400,320,29328,6,0,B|400:368,2,37.5000001490115
288,320,29786,2,0,B|288:384,2,37.5000001490115
176,320,30244,1,0
176,304,30358,1,0
176,288,30473,2,0,B|208:192,1,75.000000298023,4|0
96,208,30931,2,0,B|128:112,1,75.000000298023,4|0
224,144,31389,2,0,B|256:48,1,75.000000298023,4|0
352,80,31847,2,0,B|384:-16,1,75.000000298023,4|0
464,64,32305,2,0,B|496:160,2,75.000000298023,4|0|4
384,160,32992,6,0,B|384:208,2,37.5000001490115,0|0|4
288,112,33440,2,0,B|288:64,2,37.5000001490115,0|0|4
192,160,33890,2,0,B|192:208,2,37.5000001490115,0|0|4
96,112,34339,2,0,B|16:48,1,75.000000298023,0|4
0,160,34789,2,0,B|80:224,1,75.000000298023,0|4
32,320,35238,2,0,B|112:288,1,75.000000298023,0|4
192,256,35687,1,0
288,288,35912,1,4
384,272,36137,1,0
480,304,36362,1,4
496,208,36587,6,0,B|496:112,1,75.000000298023,0|4
400,176,37031,2,0,B|400:96,1,75.000000298023,0|4
304,192,37475,2,0,B|304:96,1,75.000000298023,0|4
208,160,37920,2,0,B|208:64,1,75.000000298023,0|4
112,192,38364,2,0,B|112:112,1,75.000000298023,0|4
16,176,38808,2,0,B|16:80,1,75.000000298023,0|4
96,32,39253,1,0
192,64,39475,1,4
288,32,39697,1,0
384,64,39920,1,4
480,48,40142,5,0
480,64,40250,1,0
480,80,40359,1,4
400,144,40576,1,0
400,160,40685,1,0
400,176,40793,1,4
496,208,41011,1,0
496,224,41119,1,0
496,240,41228,2,0,B|496:320,1,75.000000298023,4|0
400,272,41663,2,0,B|400:368,1,75.000000298023,4|0
304,256,42098,2,0,B|304:336,1,75.000000298023,4|0
208,288,42532,2,0,B|208:384,1,75.000000298023,4|0
112,320,42967,6,0,B|80:240|112:160,1,150.000000596046,4|0
272,208,43830,2,0,B|304:128|272:48,1,150.000000596046,0|0
464,32,44672,2,0,B|432:112|464:192,1,150.000000596046,0|0
432,336,45514,2,0,B|352:368|272:336,1,150.000000596046,0|0
192,192,46356,6,0,B|272:160|352:192,1,150.000000596046,0|0
192,320,47192,2,0,B|112:352|32:320,1,150.000000596046,0|0
32,176,48011,2,0,B|64:96|32:16,1,150.000000596046,0|0
208,80,48830,2,0,B|176:160|208:240,1,150.000000596046,0|0
288,336,49649,1,8
480,112,50263,5,0
464,112,50363,1,0
448,112,50463,1,12
416,208,50663,1,0
400,208,50763,1,0
384,208,50863,1,8
304,144,51063,1,0
288,144,51163,1,0
272,144,51263,2,0,B|176:144,1,75.000000298023,8|0
112,192,51663,1,8
32,144,51863,5,0
32,128,51963,1,0
32,112,52063,1,12
128,96,52263,1,0
128,80,52363,1,0
128,64,52463,2,0,B|208:16,1,75.000000298023,8|0
256,96,52863,2,0,B|336:48,1,75.000000298023,8|0
400,112,53263,1,8
464,192,53463,6,0,B|512:192,2,37.5000001490115,0|0|12
384,256,53851,2,0,B|416:304,2,37.5000001490115,0|0|8
288,224,54239,1,0
208,272,54433,2,0,B|160:304|112:304,1,75.000000298023,8|0
48,256,54822,2,0,B|96:224|112:192,1,75.000000298023,8|0
32,144,55210,6,0,B|96:96|192:80,1,150.000000596046,8|8
256,64,55792,1,0
352,64,55987,2,0,B|352:112|368:144,1,75.000000298023,4|0
416,208,56375,1,4
464,288,56569,6,0,B|512:304,2,37.5000001490115,8|0|4
384,336,56947,2,0,B|336:368,2,37.5000001490115,0|0|8
320,272,57325,2,0,B|272:272|224:240,1,75.000000298023,0|8
304,176,57704,2,0,B|256:144|208:144,1,75.000000298023,0|8
144,128,58082,6,0,B|176:80,2,37.5000001490115,0|0|4
48,144,58461,2,0,B|32:96,2,37.5000001490115,0|0|8
112,224,58840,2,0,B|128:256|128:304,1,75.000000298023,0|8
208,256,59218,2,0,B|224:304|272:336,1,75.000000298023,0|8
336,272,59597,5,0
352,256,59690,1,0
368,240,59783,2,0,B|400:208|416:144,1,75.000000298023,12|0
320,160,60155,2,0,B|352:112|352:64,1,75.000000298023,8|0
272,48,60528,1,8
192,16,60714,1,0
112,48,60901,1,8
48,112,61087,5,0
64,128,61180,1,0
80,144,61273,2,0,B|144:192|240:176,1,150.000000596046,8|12
304,144,61832,1,0
384,112,62016,2,0,B|400:208|352:272,3,150.000000596046,12|0|4|0
224,288,63473,6,0,B|192:272|160:224,1,75.000000298023,12|0
240,192,63834,2,0,B|208:160|192:96,1,75.000000298023,12|0
288,112,64195,2,0,B|256:64|240:16,1,75.000000298023,12|0
336,32,64557,2,0,B|368:48|400:80,1,75.000000298023,12|0
448,144,64918,2,0,B|464:224|416:304,3,150.000000596046,12|8|12|8
272,304,66338,6,0,B|224:304|176:288,1,75.000000298023,12|0
144,224,66690,2,0,B|192:208|240:208,1,75.000000298023,12|0
288,160,67043,2,0,B|256:128|208:112,1,75.000000298023,12|0
160,64,67396,2,0,B|208:32|256:32,1,75.000000298023,12|0
320,48,67749,5,12
448,96,68093,1,8
320,144,68438,1,12
448,192,68783,1,8
320,240,69128,5,12
176,288,69473,1,8
320,336,69817,1,12
176,192,70162,1,8
320,144,70507,5,12
176,96,70847,1,0
320,48,71188,1,12
352,48,71359,1,8
384,48,71529,1,8
416,48,71700,1,8
448,48,71870,5,12
480,192,72207,1,0
384,304,72544,1,12
352,304,72712,1,8
320,304,72881,1,8
288,304,73049,1,8
256,304,73218,5,12
144,208,73549,1,0
240,80,73880,1,12
208,80,74046,1,8
176,80,74212,1,8
144,80,74378,1,8
112,80,74543,5,12
64,224,74872,1,0
176,320,75202,1,8
192,304,75367,1,8
208,288,75532,1,8
224,272,75696,1,8
240,256,75861,6,0,B|288:256|336:240,1,75.000000298023,12|0
384,192,76187,2,0,B|352:160|304:160,1,75.000000298023,8|0
240,112,76513,2,0,B|272:80|336:80,1,75.000000298023,8|0
384,32,76839,2,0,B|352:0|304:0,1,75.000000298023,8|0
240,16,77165,6,0,B|208:32|144:32,1,75.000000298023,12|0
96,80,77487,2,0,B|128:112|176:112,1,75.000000298023,8|0
240,144,77810,2,0,B|212:182|160:208,1,75.000000298023,8|0
112,240,78132,2,0,B|144:272|192:288,1,75.000000298023,8|0
256,192,78455,12,0,79407
240,352,79724,6,0,B|144:320,1,75.000000298023,12|0
128,288,80039,2,0,B|224:256,1,75.000000298023,8|0
256,240,80355,2,0,B|160:208,1,75.000000298023,8|0
128,192,80671,2,0,B|208:160,1,75.000000298023,8|0
240,144,80987,6,0,B|192:64,1,75.000000298023,12|0
240,48,81302,2,0,B|320:0,1,75.000000298023,8|0
336,48,81618,2,0,B|384:128,1,75.000000298023,8|0
336,144,81934,2,0,B|240:192,1,75.000000298023,8|0
224,208,82250,6,0,B|208:256,6,37.5000001490115,12|0|0|0|0|0|0
160,208,82881,2,0,B|144:256,6,37.5000001490115,8|0|0|0|0|0|0
96,224,83513,2,0,B|80:272,6,37.5000001490115,8|0|0|0|0|0|0
32,240,84145,2,0,B|16:288,6,37.5000001490115,8|0|0|0|0|0|0
16,192,84776,6,0,B|32:144,6,37.5000001490115,12|0|0|0|0|0|0
80,176,85408,2,0,B|96:112,6,37.5000001490115,8|0|0|0|0|0|0
144,160,86039,2,0,B|160:96,6,37.5000001490115,8|0|0|0|0|0|0
208,144,86671,2,0,B|224:80,6,37.5000001490115,8|0|0|0|0|0|0
256,128,87302,6,0,B|304:128|352:144,3,75.000000298023,12|0|0|0
368,176,87934,2,0,B|320:176|272:192,3,75.000000298023,8|0|0|0
256,224,88566,2,0,B|304:224|352:240,3,75.000000298023,8|0|0|0
368,272,89197,2,0,B|320:272|272:288,3,75.000000298023,8|0|0|0
256,320,89829,5,12
112,256,90302,1,0
128,240,90460,1,8
144,224,90618,1,8
160,208,90776,1,8
176,192,90934,1,8
192,176,91092,1,12
320,272,91645,6,0,B|352:240,1,37.5000001490115,0|8
336,112,92276,2,0,B|368:80,1,37.5000001490115,0|8
256,192,92513,12,0,94250
