osu file format v14

[General]
AudioFilename: Vospi - Reverence.mp3
AudioLeadIn: 0
PreviewTime: 72903
Countdown: 0
SampleSet: Soft
StackLeniency: 0.5
Mode: 3
LetterboxInBreaks: 0
SpecialStyle: 0
WidescreenStoryboard: 1

[Editor]
DistanceSpacing: 0.8
BeatDivisor: 8
GridSize: 4
TimelineZoom: 3.599998

[Metadata]
Title:Reverence
TitleUnicode:Reverence
Artist:Vospi
ArtistUnicode:Vospi
Creator:Side
Version:Hard
Source:Cytus
Tags:Hydria Piano Instrumental Drum and Bass DnB Rayark Chapter 8 Another Me
BeatmapID:1006357
BeatmapSetID:456709

[Difficulty]
HPDrainRate:8
CircleSize:4
OverallDifficulty:7.5
ApproachRate:5
SliderMultiplier:1.4
SliderTickRate:1

[Events]
//Background and Video events
0,0,"cytus___reverence_vospi_by_xcanner-d6i8i5j.jpg",0,0
//Break Periods
//Storyboard Layer 0 (Background)
//Storyboard Layer 1 (Fail)
//Storyboard Layer 2 (Pass)
//Storyboard Layer 3 (Foreground)
//Storyboard Sound Samples

[TimingPoints]
345.509202453988,348.837209302326,4,2,1,30,1,0
141275,-100,4,2,1,30,0,1
158019,-100,4,2,1,30,0,0

[HitObjects]
320,192,258,5,0,0:0:0:0:
448,192,345,5,2,0:0:0:0:
320,192,432,1,0,0:0:0:0:
192,192,519,1,0,0:0:0:0:
64,192,607,1,0,0:0:0:0:
448,192,694,1,0,0:0:0:0:
64,192,781,1,0,0:0:0:0:
192,192,868,1,0,0:0:0:0:
320,192,955,1,0,0:0:0:0:
448,192,1043,1,2,0:0:0:0:
320,192,1130,1,0,0:0:0:0:
192,192,1217,1,0,0:0:0:0:
64,192,1304,1,0,0:0:0:0:
448,192,1392,1,0,0:0:0:0:
320,192,1479,1,0,0:0:0:0:
192,192,1566,1,0,0:0:0:0:
64,192,1653,1,0,0:0:0:0:
448,192,1740,1,2,0:0:0:0:
320,192,1828,1,0,0:0:0:0:
192,192,1915,1,0,0:0:0:0:
64,192,2002,1,0,0:0:0:0:
192,192,2089,1,0,0:0:0:0:
64,192,2176,1,0,0:0:0:0:
192,192,2264,1,0,0:0:0:0:
320,192,2351,1,0,0:0:0:0:
448,192,2438,1,2,0:0:0:0:
320,192,2525,1,0,0:0:0:0:
192,192,2612,1,0,0:0:0:0:
64,192,2700,1,0,0:0:0:0:
448,192,2787,1,0,0:0:0:0:
320,192,2874,1,0,0:0:0:0:
192,192,2961,1,0,0:0:0:0:
64,192,3048,1,0,0:0:0:0:
448,192,3136,1,4,0:0:0:0:
320,192,3136,1,0,0:0:0:0:
192,192,3136,1,0,0:0:0:0:
64,192,3310,1,0,0:0:0:0:
448,192,3485,1,0,0:0:0:0:
320,192,3485,1,2,0:0:0:0:
192,192,3659,1,0,0:0:0:0:
64,192,3659,128,0,4008:0:0:0:0:
192,192,4008,1,0,0:0:0:0:
448,192,4182,1,0,0:0:0:0:
320,192,4182,1,2,0:0:0:0:
64,192,4531,1,0,0:0:0:0:
192,192,4531,1,0,0:0:0:0:
320,192,4705,1,0,0:0:0:0:
192,192,4880,1,2,0:0:0:0:
448,192,4880,1,0,0:0:0:0:
64,192,5054,1,0,0:0:0:0:
192,192,5054,1,0,0:0:0:0:
64,192,5403,1,0,0:0:0:0:
192,192,5578,1,2,0:0:0:0:
448,192,5578,1,0,0:0:0:0:
320,192,5665,1,0,0:0:0:0:
192,192,5752,1,0,0:0:0:0:
64,192,5839,1,0,0:0:0:0:
192,192,5926,1,0,0:0:0:0:
320,192,5926,1,0,0:0:0:0:
448,192,6101,1,0,0:0:0:0:
64,192,6275,1,2,0:0:0:0:
192,192,6275,1,0,0:0:0:0:
448,192,6450,128,0,6798:0:0:0:0:
320,192,6450,1,0,0:0:0:0:
320,192,6798,1,0,0:0:0:0:
64,192,6973,1,2,0:0:0:0:
192,192,6973,1,0,0:0:0:0:
192,192,7322,1,0,0:0:0:0:
448,192,7322,1,0,0:0:0:0:
320,192,7496,1,0,0:0:0:0:
64,192,7671,1,2,0:0:0:0:
448,192,7671,1,0,0:0:0:0:
192,192,7845,1,0,0:0:0:0:
448,192,7845,1,0,0:0:0:0:
64,192,8194,1,0,0:0:0:0:
192,192,8368,1,2,0:0:0:0:
448,192,8368,1,0,0:0:0:0:
320,192,8455,1,0,0:0:0:0:
64,192,8543,1,0,0:0:0:0:
192,192,8630,1,0,0:0:0:0:
320,192,8717,1,0,0:0:0:0:
64,192,8717,1,4,0:0:0:0:
64,192,9066,1,2,0:0:0:0:
448,192,9066,1,0,0:0:0:0:
192,192,9415,1,0,0:0:0:0:
64,192,9415,1,0,0:0:0:0:
448,192,9589,1,0,0:0:0:0:
192,192,9764,1,2,0:0:0:0:
320,192,9764,1,0,0:0:0:0:
64,192,9938,1,0,0:0:0:0:
192,192,10112,1,0,0:0:0:0:
320,192,10112,1,0,0:0:0:0:
64,192,10461,1,2,0:0:0:0:
448,192,10461,1,0,0:0:0:0:
64,192,10810,1,0,0:0:0:0:
192,192,10810,1,0,0:0:0:0:
320,192,10985,1,0,0:0:0:0:
64,192,11159,1,2,0:0:0:0:
448,192,11159,1,0,0:0:0:0:
192,192,11246,1,0,0:0:0:0:
320,192,11333,1,0,0:0:0:0:
448,192,11421,1,0,0:0:0:0:
320,192,11508,1,4,0:0:0:0:
64,192,11508,128,0,11857:0:0:0:0:
192,192,11682,1,0,0:0:0:0:
448,192,11857,1,0,0:0:0:0:
320,192,11857,1,2,0:0:0:0:
192,192,12031,128,0,12380:0:0:0:0:
320,192,12380,1,0,0:0:0:0:
192,192,12554,1,2,0:0:0:0:
448,192,12554,1,0,0:0:0:0:
64,192,12903,1,4,0:0:0:0:
448,192,12903,1,2,0:0:0:0:
320,192,12903,1,0,0:0:0:0:
192,192,13165,1,0,0:0:0:0:
448,192,13426,128,2,14298:0:0:0:0:
64,192,13426,1,4,0:0:0:0:
192,192,13426,1,0,0:0:0:0:
64,192,14298,1,0,0:0:0:0:
64,192,14647,1,0,0:0:0:0:
64,192,14996,1,0,0:0:0:0:
320,192,15083,1,0,0:0:0:0:
192,192,15171,1,0,0:0:0:0:
448,192,15258,1,0,0:0:0:0:
64,192,15345,1,0,0:0:0:0:
320,192,15432,1,0,0:0:0:0:
192,192,15519,1,0,0:0:0:0:
448,192,15607,1,0,0:0:0:0:
64,192,15694,1,4,0:0:0:0:
320,192,15694,1,0,0:0:0:0:
192,192,15694,1,0,0:0:0:0:
192,192,15868,1,0,0:0:0:0:
448,192,16043,1,8,0:0:0:0:
320,192,16043,1,0,0:0:0:0:
192,192,16217,1,0,0:0:0:0:
448,192,16392,128,0,16740:0:0:0:0:
320,192,16566,1,0,0:0:0:0:
64,192,16740,1,8,0:0:0:0:
192,192,16740,1,0,0:0:0:0:
320,192,16915,1,0,0:0:0:0:
64,192,17089,1,0,0:0:0:0:
448,192,17089,1,0,0:0:0:0:
192,192,17264,1,0,0:0:0:0:
320,192,17438,1,8,0:0:0:0:
448,192,17438,1,0,0:0:0:0:
192,192,17612,1,0,0:0:0:0:
448,192,17787,128,0,18136:0:0:0:0:
64,192,17961,1,0,0:0:0:0:
320,192,18136,1,8,0:0:0:0:
192,192,18136,1,0,0:0:0:0:
64,192,18310,1,0,0:0:0:0:
192,192,18397,1,0,0:0:0:0:
320,192,18485,1,0,0:0:0:0:
448,192,18485,1,0,0:0:0:0:
192,192,18659,1,0,0:0:0:0:
320,192,18833,1,8,0:0:0:0:
64,192,18833,1,0,0:0:0:0:
448,192,19008,1,0,0:0:0:0:
320,192,19182,128,0,19531:0:0:0:0:
192,192,19357,1,0,0:0:0:0:
64,192,19531,1,8,0:0:0:0:
448,192,19531,1,0,0:0:0:0:
320,192,19705,1,0,0:0:0:0:
64,192,19880,1,0,0:0:0:0:
448,192,19880,1,0,0:0:0:0:
192,192,20054,1,0,0:0:0:0:
448,192,20229,1,8,0:0:0:0:
320,192,20229,1,0,0:0:0:0:
64,192,20403,1,0,0:0:0:0:
192,192,20578,128,0,20926:0:0:0:0:
64,192,20752,1,0,0:0:0:0:
320,192,20926,1,0,0:0:0:0:
448,192,20926,1,8,0:0:0:0:
192,192,21101,1,0,0:0:0:0:
64,192,21275,1,4,0:0:0:0:
448,192,21275,1,0,0:0:0:0:
320,192,21275,1,0,0:0:0:0:
192,192,21537,1,0,0:0:0:0:
448,192,21798,128,0,22147:0:0:0:0:
64,192,21798,1,2,0:0:0:0:
192,192,22147,1,0,0:0:0:0:
320,192,22322,1,8,0:0:0:0:
192,192,22496,1,2,0:0:0:0:
64,192,22496,1,0,0:0:0:0:
448,192,22496,1,0,0:0:0:0:
192,192,22845,1,0,0:0:0:0:
64,192,23019,1,8,0:0:0:0:
448,192,23019,1,0,0:0:0:0:
320,192,23194,1,0,0:0:0:0:
448,192,23368,128,0,23717:0:0:0:0:
192,192,23543,1,0,0:0:0:0:
64,192,23717,1,8,0:0:0:0:
320,192,23717,1,0,0:0:0:0:
192,192,23892,1,0,0:0:0:0:
448,192,24066,1,0,0:0:0:0:
64,192,24066,1,0,0:0:0:0:
320,192,24240,1,0,0:0:0:0:
192,192,24415,1,8,0:0:0:0:
448,192,24415,1,0,0:0:0:0:
64,192,24589,1,0,0:0:0:0:
320,192,24764,1,0,0:0:0:0:
192,192,24938,1,0,0:0:0:0:
64,192,25112,1,8,0:0:0:0:
320,192,25112,1,0,0:0:0:0:
192,192,25287,1,0,0:0:0:0:
448,192,25461,1,0,0:0:0:0:
64,192,25461,1,0,0:0:0:0:
448,192,25636,1,0,0:0:0:0:
64,192,25810,1,8,0:0:0:0:
320,192,25810,1,0,0:0:0:0:
320,192,25985,1,0,0:0:0:0:
448,192,26072,1,0,0:0:0:0:
192,192,26159,1,8,0:0:0:0:
64,192,26159,1,0,0:0:0:0:
320,192,26246,1,0,0:0:0:0:
192,192,26333,1,0,0:0:0:0:
320,192,26421,1,0,0:0:0:0:
448,192,26508,1,8,0:0:0:0:
64,192,26508,1,0,0:0:0:0:
64,192,26682,1,0,0:0:0:0:
192,192,26769,1,0,0:0:0:0:
448,192,26857,1,0,0:0:0:0:
64,192,26857,1,4,0:0:0:0:
320,192,26857,1,0,0:0:0:0:
192,192,27031,1,0,0:0:0:0:
448,192,27031,1,0,0:0:0:0:
448,192,27205,1,8,0:0:0:0:
192,192,27380,1,0,0:0:0:0:
64,192,27554,1,0,0:0:0:0:
320,192,27554,1,0,0:0:0:0:
320,192,27729,1,0,0:0:0:0:
64,192,27729,1,0,0:0:0:0:
448,192,27903,1,8,0:0:0:0:
64,192,27990,1,0,0:0:0:0:
192,192,28019,1,0,0:0:0:0:
448,192,28078,1,0,0:0:0:0:
64,192,28252,1,0,0:0:0:0:
448,192,28426,1,0,0:0:0:0:
192,192,28426,1,0,0:0:0:0:
64,192,28601,1,8,0:0:0:0:
320,192,28775,1,0,0:0:0:0:
320,192,28950,128,0,29298:0:0:0:0:
192,192,28950,1,0,0:0:0:0:
64,192,29124,1,0,0:0:0:0:
448,192,29298,1,8,0:0:0:0:
64,192,29298,1,0,0:0:0:0:
192,192,29473,1,0,0:0:0:0:
320,192,29647,1,0,0:0:0:0:
448,192,29647,1,0,0:0:0:0:
192,192,29822,1,0,0:0:0:0:
448,192,29822,128,0,30345:0:0:0:0:
64,192,29996,1,8,0:0:0:0:
320,192,29996,1,0,0:0:0:0:
192,192,30171,1,0,0:0:0:0:
64,192,30345,128,0,30868:0:0:0:0:
448,192,30519,1,0,0:0:0:0:
320,192,30694,1,8,0:0:0:0:
192,192,30694,1,0,0:0:0:0:
448,192,30868,128,0,31217:0:0:0:0:
192,192,31043,1,0,0:0:0:0:
64,192,31043,1,0,0:0:0:0:
320,192,31217,1,0,0:0:0:0:
192,192,31392,1,0,0:0:0:0:
448,192,31392,1,8,0:0:0:0:
64,192,31566,1,0,0:0:0:0:
192,192,31653,1,0,0:0:0:0:
64,192,31740,128,0,32089:0:0:0:0:
320,192,31740,1,0,0:0:0:0:
320,192,31915,1,0,0:0:0:0:
448,192,32089,1,8,0:0:0:0:
192,192,32089,1,0,0:0:0:0:
320,192,32264,1,0,0:0:0:0:
192,192,32438,1,4,0:0:0:0:
448,192,32438,1,0,0:0:0:0:
64,192,32438,1,0,0:0:0:0:
64,192,32700,1,0,0:0:0:0:
320,192,32961,128,0,33485:0:0:0:0:
448,192,32961,1,0,0:0:0:0:
192,192,33310,1,0,0:0:0:0:
64,192,33485,1,8,0:0:0:0:
192,192,33485,1,0,0:0:0:0:
448,192,33659,128,0,34182:0:0:0:0:
320,192,33659,1,0,0:0:0:0:
64,192,33659,1,0,0:0:0:0:
192,192,34008,1,0,0:0:0:0:
64,192,34182,1,8,0:0:0:0:
192,192,34182,1,0,0:0:0:0:
320,192,34357,1,0,0:0:0:0:
448,192,34531,1,0,0:0:0:0:
192,192,34531,1,0,0:0:0:0:
64,192,34705,1,0,0:0:0:0:
448,192,34880,1,8,0:0:0:0:
64,192,34880,1,0,0:0:0:0:
320,192,35054,1,0,0:0:0:0:
448,192,35229,1,0,0:0:0:0:
192,192,35229,1,0,0:0:0:0:
64,192,35403,1,0,0:0:0:0:
320,192,35578,1,8,0:0:0:0:
448,192,35578,1,0,0:0:0:0:
192,192,35752,1,0,0:0:0:0:
448,192,35926,1,0,0:0:0:0:
64,192,35926,1,0,0:0:0:0:
320,192,36101,1,0,0:0:0:0:
192,192,36275,1,8,0:0:0:0:
448,192,36275,1,0,0:0:0:0:
64,192,36450,1,0,0:0:0:0:
192,192,36624,1,0,0:0:0:0:
320,192,36624,1,0,0:0:0:0:
320,192,36973,1,8,0:0:0:0:
448,192,36973,1,0,0:0:0:0:
64,192,37060,1,0,0:0:0:0:
320,192,37147,1,0,0:0:0:0:
192,192,37235,1,0,0:0:0:0:
64,192,37322,1,0,0:0:0:0:
320,192,37322,1,8,0:0:0:0:
64,192,37496,1,0,0:0:0:0:
192,192,37496,1,0,0:0:0:0:
448,192,37671,1,8,0:0:0:0:
320,192,37671,1,0,0:0:0:0:
192,192,37845,1,0,0:0:0:0:
320,192,38019,1,0,0:0:0:0:
448,192,38019,1,0,0:0:0:0:
64,192,38019,128,4,39066:0:0:0:0:
448,192,38368,1,0,0:0:0:0:
192,192,38368,1,8,0:0:0:0:
320,192,38543,128,0,38892:0:0:0:0:
448,192,38892,1,0,0:0:0:0:
320,192,39066,1,0,0:0:0:0:
192,192,39066,1,8,0:0:0:0:
448,192,39240,1,0,0:0:0:0:
64,192,39415,1,0,0:0:0:0:
192,192,39415,1,0,0:0:0:0:
448,192,39589,1,0,0:0:0:0:
320,192,39764,1,8,0:0:0:0:
64,192,39764,1,0,0:0:0:0:
192,192,39938,128,0,40287:0:0:0:0:
448,192,40287,1,0,0:0:0:0:
64,192,40461,1,8,0:0:0:0:
320,192,40461,1,0,0:0:0:0:
192,192,40636,1,0,0:0:0:0:
448,192,40810,1,2,0:0:0:0:
64,192,40810,128,0,42205:0:0:0:0:
320,192,40897,1,0,0:0:0:0:
192,192,40985,1,0,0:0:0:0:
320,192,41072,1,0,0:0:0:0:
448,192,41159,1,8,0:0:0:0:
192,192,41246,1,0,0:0:0:0:
320,192,41333,1,0,0:0:0:0:
448,192,41421,1,0,0:0:0:0:
192,192,41508,1,0,0:0:0:0:
448,192,41595,1,0,0:0:0:0:
320,192,41682,1,0,0:0:0:0:
192,192,41769,1,0,0:0:0:0:
448,192,41857,1,8,0:0:0:0:
320,192,41944,1,0,0:0:0:0:
192,192,42031,1,0,0:0:0:0:
320,192,42118,1,0,0:0:0:0:
448,192,42205,128,0,43601:0:0:0:0:
64,192,42380,1,0,0:0:0:0:
192,192,42554,1,8,0:0:0:0:
320,192,42554,1,0,0:0:0:0:
64,192,42729,1,0,0:0:0:0:
320,192,42903,1,0,0:0:0:0:
64,192,43078,1,0,0:0:0:0:
192,192,43252,1,8,0:0:0:0:
320,192,43252,1,0,0:0:0:0:
64,192,43426,1,0,0:0:0:0:
192,192,43601,1,4,0:0:0:0:
64,192,43601,128,0,44647:0:0:0:0:
320,192,43775,1,0,0:0:0:0:
448,192,43950,1,0,0:0:0:0:
192,192,43950,1,8,0:0:0:0:
320,192,44124,128,0,44473:0:0:0:0:
448,192,44473,1,0,0:0:0:0:
192,192,44647,1,8,0:0:0:0:
320,192,44647,1,0,0:0:0:0:
64,192,44822,1,0,0:0:0:0:
448,192,44996,1,0,0:0:0:0:
320,192,44996,1,0,0:0:0:0:
192,192,45171,1,0,0:0:0:0:
320,192,45345,1,0,0:0:0:0:
64,192,45345,1,8,0:0:0:0:
192,192,45519,128,0,45868:0:0:0:0:
64,192,45868,1,0,0:0:0:0:
320,192,46043,1,8,0:0:0:0:
448,192,46043,1,0,0:0:0:0:
64,192,46217,1,0,0:0:0:0:
320,192,46392,1,0,0:0:0:0:
448,192,46392,128,0,47787:0:0:0:0:
192,192,46479,1,0,0:0:0:0:
64,192,46566,1,0,0:0:0:0:
192,192,46653,1,0,0:0:0:0:
320,192,46740,1,8,0:0:0:0:
64,192,46828,1,0,0:0:0:0:
192,192,46915,1,0,0:0:0:0:
64,192,47002,1,0,0:0:0:0:
320,192,47089,1,0,0:0:0:0:
192,192,47176,1,0,0:0:0:0:
64,192,47264,1,0,0:0:0:0:
320,192,47351,1,0,0:0:0:0:
192,192,47438,1,8,0:0:0:0:
64,192,47525,1,0,0:0:0:0:
192,192,47612,1,0,0:0:0:0:
320,192,47700,1,0,0:0:0:0:
192,192,47787,128,0,49182:0:0:0:0:
320,192,47961,1,0,0:0:0:0:
448,192,48136,1,0,0:0:0:0:
64,192,48136,1,8,0:0:0:0:
320,192,48310,1,0,0:0:0:0:
64,192,48485,1,0,0:0:0:0:
320,192,48659,1,0,0:0:0:0:
64,192,48833,1,8,0:0:0:0:
448,192,48833,1,0,0:0:0:0:
320,192,49008,1,0,0:0:0:0:
64,192,49182,1,4,0:0:0:0:
448,192,49182,128,0,50229:0:0:0:0:
192,192,49357,1,0,0:0:0:0:
64,192,49531,1,8,0:0:0:0:
320,192,49531,1,0,0:0:0:0:
192,192,49705,128,0,50054:0:0:0:0:
320,192,50054,1,0,0:0:0:0:
192,192,50229,1,8,0:0:0:0:
64,192,50403,1,0,0:0:0:0:
448,192,50578,1,0,0:0:0:0:
320,192,50578,1,0,0:0:0:0:
192,192,50752,1,0,0:0:0:0:
64,192,50926,1,8,0:0:0:0:
448,192,50926,1,0,0:0:0:0:
320,192,51101,128,0,51450:0:0:0:0:
64,192,51450,1,0,0:0:0:0:
192,192,51624,1,8,0:0:0:0:
448,192,51624,1,0,0:0:0:0:
64,192,51798,1,0,0:0:0:0:
320,192,51973,1,0,0:0:0:0:
448,192,51973,128,0,53368:0:0:0:0:
64,192,52147,1,0,0:0:0:0:
320,192,52322,1,8,0:0:0:0:
192,192,52322,1,0,0:0:0:0:
64,192,52496,1,0,0:0:0:0:
320,192,52671,1,0,0:0:0:0:
64,192,52845,1,0,0:0:0:0:
320,192,53019,1,8,0:0:0:0:
192,192,53019,1,0,0:0:0:0:
64,192,53194,1,0,0:0:0:0:
192,192,53368,1,0,0:0:0:0:
64,192,53368,128,0,54764:0:0:0:0:
320,192,53543,1,0,0:0:0:0:
448,192,53717,1,0,0:0:0:0:
192,192,53717,1,8,0:0:0:0:
320,192,53892,1,0,0:0:0:0:
192,192,54066,1,0,0:0:0:0:
320,192,54240,1,0,0:0:0:0:
448,192,54415,1,0,0:0:0:0:
192,192,54415,1,8,0:0:0:0:
320,192,54589,1,0,0:0:0:0:
192,192,54764,1,4,0:0:0:0:
320,192,54764,128,0,55810:0:0:0:0:
64,192,54938,1,0,0:0:0:0:
192,192,55112,1,8,0:0:0:0:
448,192,55112,1,0,0:0:0:0:
64,192,55287,128,0,55636:0:0:0:0:
192,192,55636,1,0,0:0:0:0:
64,192,55810,1,8,0:0:0:0:
448,192,55810,1,0,0:0:0:0:
320,192,55985,1,0,0:0:0:0:
64,192,56159,1,0,0:0:0:0:
448,192,56159,1,0,0:0:0:0:
192,192,56333,1,0,0:0:0:0:
320,192,56508,1,0,0:0:0:0:
64,192,56508,1,8,0:0:0:0:
448,192,56682,128,0,57205:0:0:0:0:
320,192,57031,1,0,0:0:0:0:
192,192,57205,1,0,0:0:0:0:
64,192,57205,1,8,0:0:0:0:
448,192,57380,1,0,0:0:0:0:
64,192,57554,1,0,0:0:0:0:
320,192,57554,128,0,58950:0:0:0:0:
192,192,57642,1,0,0:0:0:0:
448,192,57729,1,0,0:0:0:0:
192,192,57816,1,0,0:0:0:0:
64,192,57903,1,8,0:0:0:0:
448,192,57990,1,0,0:0:0:0:
64,192,58078,1,0,0:0:0:0:
192,192,58165,1,0,0:0:0:0:
448,192,58252,1,0,0:0:0:0:
192,192,58339,1,0,0:0:0:0:
64,192,58426,1,0,0:0:0:0:
448,192,58514,1,0,0:0:0:0:
192,192,58601,1,8,0:0:0:0:
64,192,58688,1,0,0:0:0:0:
448,192,58775,1,0,0:0:0:0:
192,192,58862,1,0,0:0:0:0:
64,192,58950,1,0,0:0:0:0:
448,192,58950,128,0,59996:0:0:0:0:
64,192,59124,1,0,0:0:0:0:
192,192,59298,1,0,0:0:0:0:
192,192,59473,1,0,0:0:0:0:
320,192,59647,1,0,0:0:0:0:
320,192,59822,1,0,0:0:0:0:
64,192,59996,1,0,0:0:0:0:
320,192,59996,1,8,0:0:0:0:
192,192,60171,1,0,0:0:0:0:
320,192,60345,1,0,0:0:0:0:
64,192,60345,1,4,0:0:0:0:
448,192,60345,1,0,0:0:0:0:
192,192,60461,1,0,0:0:0:0:
320,192,60578,1,0,0:0:0:0:
448,192,60694,1,0,0:0:0:0:
64,192,60694,1,2,0:0:0:0:
192,192,60926,1,0,0:0:0:0:
64,192,61043,1,0,0:0:0:0:
448,192,61043,1,0,0:0:0:0:
320,192,61159,1,0,0:0:0:0:
64,192,61392,1,2,0:0:0:0:
448,192,61392,1,0,0:0:0:0:
192,192,61624,1,0,0:0:0:0:
64,192,61740,1,0,0:0:0:0:
448,192,61740,1,0,0:0:0:0:
320,192,61857,1,0,0:0:0:0:
192,192,61973,1,0,0:0:0:0:
64,192,62089,1,0,0:0:0:0:
448,192,62089,1,2,0:0:0:0:
64,192,62322,1,0,0:0:0:0:
320,192,62438,1,0,0:0:0:0:
448,192,62438,1,0,0:0:0:0:
192,192,62554,1,0,0:0:0:0:
192,192,62787,1,0,0:0:0:0:
64,192,62787,1,2,0:0:0:0:
448,192,63019,1,0,0:0:0:0:
320,192,63136,1,0,0:0:0:0:
64,192,63136,1,0,0:0:0:0:
192,192,63368,1,0,0:0:0:0:
320,192,63485,1,0,0:0:0:0:
64,192,63485,1,2,0:0:0:0:
192,192,63601,1,0,0:0:0:0:
448,192,63833,1,0,0:0:0:0:
64,192,63833,1,0,0:0:0:0:
320,192,63950,1,0,0:0:0:0:
192,192,64182,1,2,0:0:0:0:
448,192,64182,1,0,0:0:0:0:
320,192,64313,1,0,0:0:0:0:
448,192,64444,1,0,0:0:0:0:
192,192,64531,1,0,0:0:0:0:
64,192,64531,1,0,0:0:0:0:
448,192,64764,1,0,0:0:0:0:
64,192,64880,1,2,0:0:0:0:
192,192,64880,1,0,0:0:0:0:
320,192,64996,1,0,0:0:0:0:
448,192,65229,1,0,0:0:0:0:
64,192,65229,1,0,0:0:0:0:
320,192,65345,1,0,0:0:0:0:
320,192,65578,1,2,0:0:0:0:
192,192,65578,1,0,0:0:0:0:
448,192,65708,1,0,0:0:0:0:
192,192,65839,1,0,0:0:0:0:
64,192,65926,1,0,0:0:0:0:
448,192,65926,1,0,0:0:0:0:
192,192,66043,1,0,0:0:0:0:
320,192,66159,1,0,0:0:0:0:
448,192,66275,1,0,0:0:0:0:
192,192,66275,1,2,0:0:0:0:
64,192,66508,1,0,0:0:0:0:
448,192,66624,1,0,0:0:0:0:
320,192,66624,1,0,0:0:0:0:
192,192,66740,1,0,0:0:0:0:
64,192,66973,1,2,0:0:0:0:
320,192,66973,1,0,0:0:0:0:
64,192,67205,1,0,0:0:0:0:
448,192,67322,1,0,0:0:0:0:
192,192,67322,1,0,0:0:0:0:
320,192,67438,1,0,0:0:0:0:
192,192,67554,1,0,0:0:0:0:
64,192,67671,1,2,0:0:0:0:
320,192,67671,1,0,0:0:0:0:
64,192,67903,1,0,0:0:0:0:
320,192,68019,1,0,0:0:0:0:
448,192,68019,1,0,0:0:0:0:
192,192,68136,1,0,0:0:0:0:
64,192,68368,1,2,0:0:0:0:
192,192,68368,1,0,0:0:0:0:
192,192,68630,1,0,0:0:0:0:
320,192,68717,1,2,0:0:0:0:
448,192,68804,1,0,0:0:0:0:
192,192,68892,1,0,0:0:0:0:
320,192,68979,1,0,0:0:0:0:
448,192,69066,1,0,0:0:0:0:
64,192,69153,1,0,0:0:0:0:
192,192,69240,1,0,0:0:0:0:
320,192,69328,1,0,0:0:0:0:
448,192,69415,1,2,0:0:0:0:
320,192,69502,1,0,0:0:0:0:
192,192,69589,1,0,0:0:0:0:
64,192,69676,1,0,0:0:0:0:
320,192,69764,1,0,0:0:0:0:
192,192,69851,1,0,0:0:0:0:
448,192,69938,1,0,0:0:0:0:
320,192,70025,1,0,0:0:0:0:
64,192,70112,128,0,70636:0:0:0:10:soft-hitnormal.wav
192,192,70112,1,4,0:0:0:10:soft-hitnormal.wav
448,192,70636,128,0,70985:0:0:0:10:soft-hitnormal.wav
192,192,70985,128,0,71333:0:0:0:10:soft-hitnormal.wav
320,192,71333,128,0,72205:0:0:0:10:soft-hitnormal.wav
448,192,72205,128,0,72903:0:0:0:10:soft-hitnormal.wav
64,192,72903,1,4,0:0:0:0:
320,192,72903,1,0,0:0:0:0:
192,192,73078,1,0,0:0:0:0:
320,192,73252,1,2,0:0:0:0:
64,192,73426,1,0,0:0:0:0:
448,192,73426,128,0,73950:0:0:0:0:
192,192,73426,1,0,0:0:0:0:
320,192,73775,1,0,0:0:0:0:
64,192,73950,1,0,0:0:0:0:
192,192,73950,1,2,0:0:0:0:
320,192,74124,1,0,0:0:0:0:
64,192,74298,1,0,0:0:0:0:
448,192,74298,1,0,0:0:0:0:
192,192,74473,1,0,0:0:0:0:
320,192,74647,1,2,0:0:0:0:
64,192,74822,1,0,0:0:0:0:
192,192,74822,1,0,0:0:0:0:
448,192,74822,1,0,0:0:0:0:
64,192,75171,1,0,0:0:0:0:
448,192,75345,1,2,0:0:0:0:
320,192,75432,1,0,0:0:0:0:
192,192,75519,1,0,0:0:0:0:
64,192,75607,1,0,0:0:0:0:
320,192,75694,1,0,0:0:0:0:
448,192,75694,1,0,0:0:0:0:
64,192,75868,1,0,0:0:0:0:
192,192,76043,1,2,0:0:0:0:
448,192,76217,128,0,76740:0:0:0:0:
320,192,76217,1,0,0:0:0:0:
64,192,76217,1,0,0:0:0:0:
320,192,76566,1,0,0:0:0:0:
192,192,76740,1,2,0:0:0:0:
64,192,76740,1,0,0:0:0:0:
320,192,76915,1,0,0:0:0:0:
64,192,77089,1,0,0:0:0:0:
448,192,77089,1,0,0:0:0:0:
192,192,77264,1,0,0:0:0:0:
320,192,77438,1,2,0:0:0:0:
192,192,77612,1,0,0:0:0:0:
448,192,77612,1,0,0:0:0:0:
64,192,77612,1,0,0:0:0:0:
64,192,77961,1,0,0:0:0:0:
320,192,78136,1,2,0:0:0:0:
192,192,78223,1,0,0:0:0:0:
448,192,78310,1,0,0:0:0:0:
320,192,78397,1,0,0:0:0:0:
192,192,78485,1,0,0:0:0:0:
64,192,78485,1,4,0:0:0:0:
192,192,78659,1,0,0:0:0:0:
320,192,78833,1,2,0:0:0:0:
192,192,79008,1,0,0:0:0:0:
448,192,79008,128,0,79531:0:0:0:0:
64,192,79182,1,0,0:0:0:0:
192,192,79357,1,0,0:0:0:0:
320,192,79531,1,2,0:0:0:0:
192,192,79705,1,0,0:0:0:0:
320,192,79880,1,0,0:0:0:0:
64,192,79880,1,0,0:0:0:0:
192,192,80054,1,0,0:0:0:0:
320,192,80229,1,2,0:0:0:0:
448,192,80403,1,0,0:0:0:0:
192,192,80403,1,0,0:0:0:0:
64,192,80578,1,0,0:0:0:0:
320,192,80752,1,0,0:0:0:0:
64,192,80926,1,2,0:0:0:0:
192,192,81014,1,0,0:0:0:0:
448,192,81101,1,0,0:0:0:0:
320,192,81188,1,0,0:0:0:0:
192,192,81275,128,4,81624:0:0:0:0:
64,192,81275,1,0,0:0:0:0:
320,192,81450,1,0,0:0:0:0:
448,192,81624,1,2,0:0:0:0:
192,192,81798,1,0,0:0:0:0:
320,192,81798,128,0,82322:0:0:0:0:
448,192,82147,1,0,0:0:0:0:
64,192,82147,1,0,0:0:0:0:
192,192,82322,1,0,0:0:0:0:
448,192,82322,1,2,0:0:0:0:
64,192,82496,1,0,0:0:0:0:
320,192,82671,1,4,0:0:0:0:
448,192,82671,1,0,0:0:0:0:
64,192,82671,1,0,0:0:0:0:
192,192,82932,1,0,0:0:0:0:
448,192,83194,128,0,83892:0:0:0:0:
64,192,83194,128,4,83892:0:0:0:0:
320,192,83194,128,0,83892:0:0:0:0:
64,192,84066,1,0,0:0:0:0:
448,192,84066,1,0,0:0:0:0:
448,192,84240,1,0,0:0:0:0:
64,192,84415,1,0,0:0:0:0:
320,192,84415,1,0,0:0:0:0:
320,192,84589,1,0,0:0:0:0:
192,192,84764,1,0,0:0:0:0:
448,192,84764,1,0,0:0:0:0:
320,192,84851,1,0,0:0:0:0:
192,192,84938,1,0,0:0:0:0:
320,192,85025,1,0,0:0:0:0:
64,192,85112,1,0,0:0:0:0:
448,192,85112,1,0,0:0:0:0:
192,192,85200,1,0,0:0:0:0:
64,192,85287,1,0,0:0:0:0:
192,192,85374,1,0,0:0:0:0:
448,192,85461,1,0,0:0:0:0:
320,192,85461,1,4,0:0:0:0:
64,192,85461,1,0,0:0:0:0:
192,192,85636,1,0,0:0:0:0:
448,192,85810,1,8,0:0:0:0:
320,192,85810,1,0,0:0:0:0:
64,192,85985,1,0,0:0:0:0:
320,192,86159,128,0,86508:0:0:0:0:
64,192,86333,1,0,0:0:0:0:
448,192,86508,1,8,0:0:0:0:
192,192,86508,1,0,0:0:0:0:
320,192,86682,1,0,0:0:0:0:
192,192,86857,1,0,0:0:0:0:
64,192,86857,1,0,0:0:0:0:
320,192,87031,1,0,0:0:0:0:
448,192,87205,1,8,0:0:0:0:
192,192,87205,1,0,0:0:0:0:
64,192,87380,1,0,0:0:0:0:
320,192,87554,128,0,87903:0:0:0:0:
64,192,87729,1,0,0:0:0:0:
448,192,87903,1,8,0:0:0:0:
192,192,87903,1,0,0:0:0:0:
320,192,88078,1,0,0:0:0:0:
64,192,88252,1,0,0:0:0:0:
448,192,88252,128,0,88601:0:0:0:0:
320,192,88426,1,0,0:0:0:0:
192,192,88601,128,8,88775:0:0:0:0:
64,192,88601,1,0,0:0:0:0:
320,192,88775,128,0,88950:0:0:0:0:
64,192,88950,1,0,0:0:0:0:
192,192,89124,128,0,89298:0:0:0:0:
64,192,89298,1,8,0:0:0:0:
448,192,89298,1,0,0:0:0:0:
320,192,89473,128,0,89647:0:0:0:0:
192,192,89647,1,0,0:0:0:0:
64,192,89822,128,0,89996:0:0:0:0:
448,192,89996,1,8,0:0:0:0:
320,192,89996,1,0,0:0:0:0:
192,192,90171,128,0,90345:0:0:0:0:
448,192,90345,1,0,0:0:0:0:
320,192,90519,128,0,90694:0:0:0:0:
64,192,90694,1,8,0:0:0:0:
448,192,90694,1,0,0:0:0:0:
192,192,90868,1,0,0:0:0:0:
448,192,91043,1,4,0:0:0:0:
64,192,91043,128,0,92089:0:0:0:0:
192,192,91217,1,0,0:0:0:0:
448,192,91392,1,8,0:0:0:0:
320,192,91392,1,0,0:0:0:0:
192,192,91566,1,0,0:0:0:0:
448,192,91740,1,0,0:0:0:0:
320,192,91915,1,0,0:0:0:0:
448,192,92089,1,8,0:0:0:0:
192,192,92089,1,0,0:0:0:0:
320,192,92264,1,0,0:0:0:0:
64,192,92438,1,0,0:0:0:0:
192,192,92438,1,0,0:0:0:0:
320,192,92612,1,0,0:0:0:0:
448,192,92787,1,8,0:0:0:0:
192,192,92787,1,0,0:0:0:0:
64,192,92961,1,0,0:0:0:0:
320,192,93136,128,0,93485:0:0:0:0:
192,192,93310,1,0,0:0:0:0:
448,192,93485,1,8,0:0:0:0:
64,192,93485,1,0,0:0:0:0:
320,192,93659,1,0,0:0:0:0:
64,192,93833,1,0,0:0:0:0:
192,192,93833,1,0,0:0:0:0:
320,192,94008,1,0,0:0:0:0:
448,192,94182,1,8,0:0:0:0:
64,192,94182,1,0,0:0:0:0:
192,192,94357,1,0,0:0:0:0:
320,192,94531,1,0,0:0:0:0:
192,192,94705,1,0,0:0:0:0:
448,192,94880,1,8,0:0:0:0:
320,192,94880,1,0,0:0:0:0:
64,192,95054,1,0,0:0:0:0:
448,192,95229,1,0,0:0:0:0:
192,192,95229,1,0,0:0:0:0:
448,192,95403,1,0,0:0:0:0:
320,192,95578,1,8,0:0:0:0:
64,192,95578,1,0,0:0:0:0:
320,192,95752,1,0,0:0:0:0:
448,192,95839,1,0,0:0:0:0:
64,192,95926,1,8,0:0:0:0:
192,192,95926,1,0,0:0:0:0:
320,192,96014,1,0,0:0:0:0:
192,192,96101,1,0,0:0:0:0:
448,192,96188,1,0,0:0:0:0:
64,192,96275,1,8,0:0:0:0:
320,192,96275,1,0,0:0:0:0:
320,192,96450,1,8,0:0:0:0:
192,192,96537,1,0,0:0:0:0:
320,192,96624,1,0,0:0:0:0:
64,192,96624,1,4,0:0:0:0:
448,192,96624,1,0,0:0:0:0:
192,192,96798,1,0,0:0:0:0:
448,192,96798,1,0,0:0:0:0:
192,192,96973,1,0,0:0:0:0:
448,192,96973,1,8,0:0:0:0:
64,192,97147,1,0,0:0:0:0:
192,192,97322,1,0,0:0:0:0:
320,192,97322,1,0,0:0:0:0:
192,192,97496,1,0,0:0:0:0:
320,192,97496,1,0,0:0:0:0:
448,192,97671,1,8,0:0:0:0:
192,192,97758,1,0,0:0:0:0:
320,192,97787,1,0,0:0:0:0:
448,192,97845,1,0,0:0:0:0:
192,192,98019,1,0,0:0:0:0:
448,192,98194,1,0,0:0:0:0:
64,192,98194,1,0,0:0:0:0:
320,192,98368,1,8,0:0:0:0:
448,192,98543,1,0,0:0:0:0:
64,192,98543,1,0,0:0:0:0:
64,192,98717,128,0,99066:0:0:0:0:
448,192,98717,1,0,0:0:0:0:
192,192,98892,1,0,0:0:0:0:
320,192,99066,1,8,0:0:0:0:
448,192,99066,1,0,0:0:0:0:
64,192,99240,1,0,0:0:0:0:
448,192,99415,128,0,99764:0:0:0:0:
64,192,99415,1,2,0:0:0:0:
192,192,99589,1,0,0:0:0:0:
320,192,99764,128,8,100112:0:0:0:0:
64,192,99764,1,0,0:0:0:0:
448,192,99938,1,0,0:0:0:0:
192,192,100112,128,2,100461:0:0:0:0:
448,192,100287,1,0,0:0:0:0:
64,192,100461,128,8,100810:0:0:0:0:
320,192,100461,1,0,0:0:0:0:
192,192,100636,1,0,0:0:0:0:
320,192,100810,128,0,101508:0:0:0:0:
448,192,100810,1,2,0:0:0:0:
64,192,100985,1,0,0:0:0:0:
448,192,101159,1,8,0:0:0:0:
192,192,101159,1,0,0:0:0:0:
64,192,101333,1,0,0:0:0:0:
192,192,101421,1,0,0:0:0:0:
448,192,101508,128,0,102205:0:0:0:0:
64,192,101508,1,2,0:0:0:0:
64,192,101682,1,0,0:0:0:0:
320,192,101857,1,8,0:0:0:0:
192,192,101857,1,0,0:0:0:0:
64,192,102031,1,0,0:0:0:0:
320,192,102205,1,0,0:0:0:0:
64,192,102205,1,4,0:0:0:0:
192,192,102380,1,0,0:0:0:0:
64,192,102467,1,0,0:0:0:0:
320,192,102554,1,8,0:0:0:0:
448,192,102554,1,0,0:0:0:0:
64,192,102729,1,0,0:0:0:0:
64,192,103165,1,0,0:0:0:0:
320,192,103252,1,8,0:0:0:0:
448,192,103252,1,0,0:0:0:0:
64,192,103426,1,0,0:0:0:0:
448,192,103601,1,8,0:0:0:0:
320,192,103601,1,0,0:0:0:0:
448,192,103775,1,8,0:0:0:0:
320,192,103775,1,0,0:0:0:0:
64,192,103950,1,0,0:0:0:0:
64,192,104124,1,0,0:0:0:0:
448,192,104211,1,8,0:0:0:0:
320,192,104211,1,0,0:0:0:0:
64,192,104298,1,0,0:0:0:0:
64,192,104473,128,0,104647:0:0:0:0:
320,192,104647,1,0,0:0:0:0:
448,192,104647,1,8,0:0:0:0:
64,192,104822,1,0,0:0:0:0:
448,192,104996,1,2,0:0:0:0:
320,192,104996,1,0,0:0:0:0:
192,192,105171,1,0,0:0:0:0:
64,192,105345,1,2,0:0:0:0:
320,192,105345,1,0,0:0:0:0:
192,192,105432,1,0,0:0:0:0:
320,192,105519,1,0,0:0:0:0:
64,192,105694,1,2,0:0:0:0:
192,192,105694,1,0,0:0:0:0:
320,192,105868,1,0,0:0:0:0:
448,192,106043,1,2,0:0:0:0:
192,192,106043,1,0,0:0:0:0:
64,192,106130,1,0,0:0:0:0:
448,192,106217,1,0,0:0:0:0:
192,192,106304,1,0,0:0:0:0:
64,192,106392,1,0,0:0:0:0:
64,192,106740,1,0,0:0:0:0:
64,192,106915,1,0,0:0:0:0:
320,192,107787,1,4,0:0:0:0:
64,192,107787,128,0,108136:0:0:0:0:
192,192,108136,128,0,108310:0:0:0:0:
448,192,108136,1,8,0:0:0:0:
320,192,108310,128,0,108485:0:0:0:0:
192,192,108485,128,0,108659:0:0:0:0:
64,192,108659,128,0,108833:0:0:0:0:
448,192,108833,128,8,109008:0:0:0:0:
320,192,108833,1,0,0:0:0:0:
64,192,109008,128,0,109182:0:0:0:0:
448,192,109182,1,0,0:0:0:0:
192,192,109182,128,0,109531:0:0:0:0:
448,192,109531,128,8,109705:0:0:0:0:
320,192,109531,1,0,0:0:0:0:
192,192,109705,128,0,110054:0:0:0:0:
64,192,110054,128,0,110229:0:0:0:0:
448,192,110229,1,8,0:0:0:0:
320,192,110229,128,0,110403:0:0:0:0:
64,192,110403,128,0,110578:0:0:0:0:
448,192,110578,1,2,0:0:0:0:
320,192,110665,1,0,0:0:0:0:
192,192,110752,1,0,0:0:0:0:
64,192,110839,1,0,0:0:0:0:
448,192,110926,1,8,0:0:0:0:
320,192,111014,1,0,0:0:0:0:
192,192,111101,1,0,0:0:0:0:
320,192,111188,1,0,0:0:0:0:
448,192,111275,1,2,0:0:0:0:
64,192,111275,1,0,0:0:0:0:
192,192,111362,1,0,0:0:0:0:
320,192,111450,1,0,0:0:0:0:
448,192,111537,1,0,0:0:0:0:
64,192,111624,1,8,0:0:0:0:
192,192,111711,1,0,0:0:0:0:
320,192,111798,1,0,0:0:0:0:
192,192,111886,1,0,0:0:0:0:
64,192,111973,1,2,0:0:0:0:
448,192,111973,1,0,0:0:0:0:
320,192,112060,1,0,0:0:0:0:
448,192,112147,1,0,0:0:0:0:
320,192,112235,1,0,0:0:0:0:
448,192,112322,1,8,0:0:0:0:
320,192,112409,1,0,0:0:0:0:
448,192,112496,1,0,0:0:0:0:
320,192,112583,1,0,0:0:0:0:
192,192,112671,1,2,0:0:0:0:
64,192,112758,1,0,0:0:0:0:
192,192,112845,1,0,0:0:0:0:
64,192,112932,1,0,0:0:0:0:
192,192,113019,1,8,0:0:0:0:
64,192,113107,1,0,0:0:0:0:
192,192,113194,1,0,0:0:0:0:
64,192,113281,1,0,0:0:0:0:
320,192,113368,1,4,0:0:0:0:
448,192,113368,128,0,113717:0:0:0:0:
64,192,113717,1,8,0:0:0:0:
192,192,113717,128,0,113892:0:0:0:0:
448,192,113892,128,0,114066:0:0:0:0:
320,192,114066,128,0,114240:0:0:0:0:
64,192,114240,128,0,114415:0:0:0:0:
448,192,114415,1,8,0:0:0:0:
192,192,114415,128,0,114589:0:0:0:0:
64,192,114589,128,0,114764:0:0:0:0:
448,192,114764,1,0,0:0:0:0:
192,192,114764,128,0,115112:0:0:0:0:
320,192,115112,1,8,0:0:0:0:
448,192,115112,128,0,115287:0:0:0:0:
64,192,115287,128,0,115636:0:0:0:0:
192,192,115636,128,0,115810:0:0:0:0:
448,192,115810,1,8,0:0:0:0:
320,192,115810,128,0,115985:0:0:0:0:
192,192,115985,128,0,116159:0:0:0:0:
64,192,116159,1,0,0:0:0:0:
448,192,116159,1,2,0:0:0:0:
320,192,116246,1,0,0:0:0:0:
64,192,116333,1,0,0:0:0:0:
192,192,116421,1,0,0:0:0:0:
448,192,116508,1,8,0:0:0:0:
320,192,116595,1,0,0:0:0:0:
64,192,116682,1,0,0:0:0:0:
192,192,116769,1,0,0:0:0:0:
448,192,116857,1,2,0:0:0:0:
64,192,116857,1,0,0:0:0:0:
320,192,116944,1,0,0:0:0:0:
192,192,117031,1,0,0:0:0:0:
64,192,117118,1,0,0:0:0:0:
448,192,117205,1,8,0:0:0:0:
320,192,117293,1,0,0:0:0:0:
192,192,117380,1,0,0:0:0:0:
64,192,117467,1,0,0:0:0:0:
192,192,117554,1,2,0:0:0:0:
448,192,117554,1,0,0:0:0:0:
320,192,117642,1,0,0:0:0:0:
192,192,117729,1,0,0:0:0:0:
320,192,117816,1,0,0:0:0:0:
192,192,117903,1,8,0:0:0:0:
320,192,117990,1,0,0:0:0:0:
192,192,118078,1,0,0:0:0:0:
320,192,118165,1,0,0:0:0:0:
448,192,118252,1,2,0:0:0:0:
192,192,118252,1,0,0:0:0:0:
64,192,118339,1,0,0:0:0:0:
448,192,118426,1,0,0:0:0:0:
64,192,118514,1,0,0:0:0:0:
448,192,118601,1,8,0:0:0:0:
64,192,118688,1,0,0:0:0:0:
448,192,118775,1,0,0:0:0:0:
64,192,118862,1,0,0:0:0:0:
320,192,118950,1,4,0:0:0:0:
192,192,118950,1,0,0:0:0:0:
448,192,118950,1,0,0:0:0:0:
192,192,119124,1,0,0:0:0:0:
320,192,119298,1,8,0:0:0:0:
64,192,119298,1,0,0:0:0:0:
64,192,119473,1,0,0:0:0:0:
192,192,119560,1,0,0:0:0:0:
448,192,119647,1,0,0:0:0:0:
320,192,119735,1,0,0:0:0:0:
192,192,119822,1,0,0:0:0:0:
64,192,119996,1,0,0:0:0:0:
320,192,119996,1,8,0:0:0:0:
192,192,120171,1,0,0:0:0:0:
448,192,120345,1,0,0:0:0:0:
320,192,120345,1,0,0:0:0:0:
320,192,120519,1,0,0:0:0:0:
448,192,120694,1,8,0:0:0:0:
192,192,120694,1,0,0:0:0:0:
64,192,120868,1,0,0:0:0:0:
448,192,120955,1,0,0:0:0:0:
320,192,121043,1,0,0:0:0:0:
64,192,121130,1,0,0:0:0:0:
192,192,121217,1,0,0:0:0:0:
320,192,121392,1,0,0:0:0:0:
448,192,121392,1,8,0:0:0:0:
192,192,121566,1,0,0:0:0:0:
64,192,121740,1,2,0:0:0:0:
192,192,121828,1,0,0:0:0:0:
320,192,121915,1,0,0:0:0:0:
192,192,122002,1,0,0:0:0:0:
320,192,122089,1,0,0:0:0:0:
448,192,122089,1,8,0:0:0:0:
64,192,122176,1,0,0:0:0:0:
192,192,122264,1,0,0:0:0:0:
320,192,122351,1,0,0:0:0:0:
448,192,122438,1,2,0:0:0:0:
320,192,122525,1,0,0:0:0:0:
192,192,122612,1,0,0:0:0:0:
320,192,122700,1,0,0:0:0:0:
64,192,122787,1,0,0:0:0:0:
448,192,122787,1,8,0:0:0:0:
320,192,122874,1,0,0:0:0:0:
192,192,122961,1,0,0:0:0:0:
64,192,123048,1,0,0:0:0:0:
192,192,123136,1,2,0:0:0:0:
320,192,123223,1,0,0:0:0:0:
192,192,123310,1,0,0:0:0:0:
320,192,123397,1,0,0:0:0:0:
64,192,123485,1,0,0:0:0:0:
192,192,123485,1,8,0:0:0:0:
320,192,123572,1,0,0:0:0:0:
192,192,123659,1,0,0:0:0:0:
320,192,123746,1,0,0:0:0:0:
448,192,123833,1,2,0:0:0:0:
320,192,123921,1,0,0:0:0:0:
64,192,124008,1,0,0:0:0:0:
192,192,124095,1,0,0:0:0:0:
64,192,124182,1,0,0:0:0:0:
448,192,124182,1,8,0:0:0:0:
320,192,124269,1,0,0:0:0:0:
64,192,124357,1,0,0:0:0:0:
192,192,124444,1,0,0:0:0:0:
448,192,124531,1,0,0:0:0:0:
64,192,124531,1,4,0:0:0:0:
448,192,124705,1,0,0:0:0:0:
320,192,124880,1,8,0:0:0:0:
192,192,124880,1,0,0:0:0:0:
448,192,125054,1,0,0:0:0:0:
320,192,125142,1,0,0:0:0:0:
64,192,125229,1,0,0:0:0:0:
192,192,125316,1,0,0:0:0:0:
320,192,125403,1,0,0:0:0:0:
320,192,125578,1,8,0:0:0:0:
192,192,125578,1,0,0:0:0:0:
64,192,125752,1,0,0:0:0:0:
192,192,125926,1,0,0:0:0:0:
448,192,125926,1,0,0:0:0:0:
192,192,126101,1,0,0:0:0:0:
320,192,126275,1,8,0:0:0:0:
448,192,126275,1,0,0:0:0:0:
64,192,126450,1,0,0:0:0:0:
448,192,126537,1,0,0:0:0:0:
64,192,126624,1,0,0:0:0:0:
192,192,126711,1,0,0:0:0:0:
320,192,126798,1,0,0:0:0:0:
192,192,126973,1,0,0:0:0:0:
448,192,126973,1,8,0:0:0:0:
64,192,127147,1,0,0:0:0:0:
448,192,127322,1,2,0:0:0:0:
320,192,127409,1,0,0:0:0:0:
64,192,127496,1,0,0:0:0:0:
192,192,127583,1,0,0:0:0:0:
320,192,127671,1,0,0:0:0:0:
448,192,127671,1,8,0:0:0:0:
64,192,127758,1,0,0:0:0:0:
192,192,127845,1,0,0:0:0:0:
320,192,127932,1,0,0:0:0:0:
448,192,128019,1,2,0:0:0:0:
320,192,128107,1,0,0:0:0:0:
64,192,128194,1,0,0:0:0:0:
192,192,128281,1,0,0:0:0:0:
320,192,128368,1,0,0:0:0:0:
448,192,128368,1,8,0:0:0:0:
192,192,128455,1,0,0:0:0:0:
320,192,128543,1,0,0:0:0:0:
64,192,128630,1,0,0:0:0:0:
192,192,128717,1,2,0:0:0:0:
448,192,128804,1,0,0:0:0:0:
192,192,128892,1,0,0:0:0:0:
448,192,128979,1,0,0:0:0:0:
64,192,129066,1,0,0:0:0:0:
192,192,129066,1,8,0:0:0:0:
448,192,129153,1,0,0:0:0:0:
192,192,129240,1,0,0:0:0:0:
448,192,129328,1,0,0:0:0:0:
320,192,129415,1,2,0:0:0:0:
192,192,129502,1,0,0:0:0:0:
64,192,129589,1,0,0:0:0:0:
192,192,129676,1,0,0:0:0:0:
320,192,129764,1,0,0:0:0:0:
448,192,129764,1,8,0:0:0:0:
192,192,129851,1,0,0:0:0:0:
64,192,129938,1,0,0:0:0:0:
192,192,130025,1,0,0:0:0:0:
320,192,130112,1,4,0:0:0:0:
448,192,130112,1,0,0:0:0:0:
448,192,130287,1,0,0:0:0:0:
320,192,130461,1,8,0:0:0:0:
192,192,130461,1,0,0:0:0:0:
64,192,130636,1,0,0:0:0:0:
192,192,130723,1,0,0:0:0:0:
320,192,130810,1,0,0:0:0:0:
448,192,130897,1,0,0:0:0:0:
64,192,130985,1,0,0:0:0:0:
448,192,131159,1,8,0:0:0:0:
320,192,131159,1,0,0:0:0:0:
192,192,131333,1,0,0:0:0:0:
320,192,131508,1,0,0:0:0:0:
64,192,131508,1,0,0:0:0:0:
320,192,131682,1,0,0:0:0:0:
64,192,131857,1,8,0:0:0:0:
448,192,131857,1,0,0:0:0:0:
320,192,132031,1,0,0:0:0:0:
192,192,132118,1,0,0:0:0:0:
448,192,132205,1,0,0:0:0:0:
320,192,132293,1,0,0:0:0:0:
192,192,132380,1,0,0:0:0:0:
64,192,132554,1,8,0:0:0:0:
192,192,132554,1,0,0:0:0:0:
320,192,132729,1,0,0:0:0:0:
448,192,132903,1,2,0:0:0:0:
64,192,132990,1,0,0:0:0:0:
192,192,133078,1,0,0:0:0:0:
320,192,133165,1,0,0:0:0:0:
64,192,133252,1,0,0:0:0:0:
448,192,133252,1,8,0:0:0:0:
192,192,133339,1,0,0:0:0:0:
320,192,133426,1,0,0:0:0:0:
192,192,133514,1,0,0:0:0:0:
448,192,133601,1,2,0:0:0:0:
320,192,133688,1,0,0:0:0:0:
192,192,133775,1,0,0:0:0:0:
64,192,133862,1,0,0:0:0:0:
448,192,133950,1,8,0:0:0:0:
192,192,133950,1,0,0:0:0:0:
320,192,134037,1,0,0:0:0:0:
192,192,134124,1,0,0:0:0:0:
64,192,134211,1,0,0:0:0:0:
448,192,134298,1,2,0:0:0:0:
64,192,134386,1,0,0:0:0:0:
448,192,134473,1,0,0:0:0:0:
64,192,134560,1,0,0:0:0:0:
320,192,134647,1,0,0:0:0:0:
448,192,134647,1,8,0:0:0:0:
64,192,134735,1,0,0:0:0:0:
448,192,134822,1,0,0:0:0:0:
64,192,134909,1,0,0:0:0:0:
192,192,134996,1,2,0:0:0:0:
320,192,135083,1,0,0:0:0:0:
192,192,135171,1,0,0:0:0:0:
320,192,135258,1,0,0:0:0:0:
64,192,135345,1,0,0:0:0:0:
192,192,135345,1,8,0:0:0:0:
320,192,135432,1,0,0:0:0:0:
192,192,135519,1,0,0:0:0:0:
320,192,135607,1,0,0:0:0:0:
64,192,135694,1,4,0:0:0:0:
448,192,135694,1,0,0:0:0:0:
64,192,135868,1,0,0:0:0:0:
448,192,136043,1,8,0:0:0:0:
320,192,136043,1,0,0:0:0:0:
64,192,136217,1,0,0:0:0:0:
192,192,136304,1,0,0:0:0:0:
448,192,136392,1,0,0:0:0:0:
320,192,136479,1,0,0:0:0:0:
64,192,136566,1,0,0:0:0:0:
192,192,136740,1,0,0:0:0:0:
448,192,136740,1,8,0:0:0:0:
320,192,136915,1,0,0:0:0:0:
320,192,137089,1,0,0:0:0:0:
64,192,137089,1,0,0:0:0:0:
64,192,137264,1,0,0:0:0:0:
192,192,137438,1,8,0:0:0:0:
448,192,137438,1,0,0:0:0:0:
320,192,137612,1,0,0:0:0:0:
192,192,137700,1,0,0:0:0:0:
448,192,137787,1,0,0:0:0:0:
64,192,137874,1,0,0:0:0:0:
192,192,137961,1,0,0:0:0:0:
64,192,138136,1,0,0:0:0:0:
448,192,138136,1,8,0:0:0:0:
192,192,138310,1,0,0:0:0:0:
64,192,138485,128,0,138833:0:0:0:0:
320,192,138485,1,0,0:0:0:0:
320,192,138833,128,0,139008:0:0:0:0:
192,192,139008,128,0,139357:0:0:0:0:
320,192,139357,128,0,139531:0:0:0:0:
64,192,139531,128,0,139705:0:0:0:0:
192,192,139705,128,0,139880:0:0:0:0:
320,192,139880,128,0,140578:0:0:0:0:
64,192,140142,1,0,0:0:0:0:
192,192,140403,1,0,0:0:0:0:
448,192,140578,128,0,141275:0:0:0:0:
64,192,140752,1,0,0:0:0:0:
192,192,140926,1,0,0:0:0:0:
320,192,141101,1,0,0:0:0:0:
192,192,141275,1,4,0:0:0:0:
320,192,141275,1,0,0:0:0:0:
64,192,141275,1,0,0:0:0:0:
64,192,141450,1,0,0:0:0:0:
448,192,141624,1,8,0:0:0:0:
192,192,141624,1,0,0:0:0:0:
64,192,141798,1,0,0:0:0:0:
192,192,141973,1,0,0:0:0:0:
448,192,142147,1,0,0:0:0:0:
320,192,142322,1,8,0:0:0:0:
64,192,142322,1,0,0:0:0:0:
192,192,142496,1,0,0:0:0:0:
320,192,142671,1,0,0:0:0:0:
64,192,142671,1,0,0:0:0:0:
192,192,142845,1,0,0:0:0:0:
448,192,143019,1,8,0:0:0:0:
320,192,143019,1,0,0:0:0:0:
192,192,143194,1,0,0:0:0:0:
64,192,143368,1,0,0:0:0:0:
192,192,143543,1,0,0:0:0:0:
64,192,143717,1,8,0:0:0:0:
448,192,143717,1,0,0:0:0:0:
192,192,143804,1,0,0:0:0:0:
320,192,143892,1,0,0:0:0:0:
448,192,143979,1,0,0:0:0:0:
64,192,144066,1,4,0:0:0:0:
320,192,144066,128,0,144415:0:0:0:0:
192,192,144240,1,0,0:0:0:0:
448,192,144415,1,8,0:0:0:0:
64,192,144415,1,0,0:0:0:0:
64,192,144589,1,0,0:0:0:0:
192,192,144589,128,0,144938:0:0:0:0:
320,192,144938,1,0,0:0:0:0:
64,192,145112,1,0,0:0:0:0:
192,192,145112,1,8,0:0:0:0:
320,192,145287,1,0,0:0:0:0:
448,192,145461,1,4,0:0:0:0:
192,192,145461,1,0,0:0:0:0:
320,192,145636,1,0,0:0:0:0:
192,192,145810,1,8,0:0:0:0:
448,192,145810,1,0,0:0:0:0:
192,192,145985,128,0,146333:0:0:0:0:
64,192,145985,1,0,0:0:0:0:
448,192,146159,1,0,0:0:0:0:
320,192,146333,1,0,0:0:0:0:
64,192,146508,1,8,0:0:0:0:
192,192,146508,1,0,0:0:0:0:
320,192,146682,1,0,0:0:0:0:
320,192,146857,1,4,0:0:0:0:
448,192,146857,1,0,0:0:0:0:
192,192,147031,1,0,0:0:0:0:
64,192,147205,1,0,0:0:0:0:
448,192,147205,1,8,0:0:0:0:
320,192,147380,1,0,0:0:0:0:
64,192,147554,1,0,0:0:0:0:
192,192,147729,1,0,0:0:0:0:
448,192,147903,1,8,0:0:0:0:
64,192,147903,1,0,0:0:0:0:
320,192,148078,1,0,0:0:0:0:
192,192,148252,1,0,0:0:0:0:
448,192,148426,1,0,0:0:0:0:
64,192,148601,1,8,0:0:0:0:
320,192,148601,1,0,0:0:0:0:
192,192,148775,1,0,0:0:0:0:
64,192,148950,1,0,0:0:0:0:
448,192,148950,1,0,0:0:0:0:
192,192,149124,1,0,0:0:0:0:
320,192,149298,1,8,0:0:0:0:
64,192,149298,1,0,0:0:0:0:
448,192,149386,1,0,0:0:0:0:
320,192,149473,1,0,0:0:0:0:
192,192,149560,1,0,0:0:0:0:
448,192,149647,1,4,0:0:0:0:
64,192,149647,128,0,149996:0:0:0:0:
192,192,149822,1,0,0:0:0:0:
320,192,149996,1,8,0:0:0:0:
448,192,149996,1,0,0:0:0:0:
192,192,150171,128,0,150519:0:0:0:0:
320,192,150519,1,0,0:0:0:0:
448,192,150694,1,8,0:0:0:0:
64,192,150694,1,0,0:0:0:0:
192,192,150868,1,0,0:0:0:0:
448,192,151043,1,0,0:0:0:0:
64,192,151043,1,4,0:0:0:0:
320,192,151217,1,0,0:0:0:0:
192,192,151392,1,0,0:0:0:0:
448,192,151392,1,8,0:0:0:0:
64,192,151566,1,0,0:0:0:0:
320,192,151653,1,0,0:0:0:0:
448,192,151653,1,0,0:0:0:0:
192,192,151740,1,8,0:0:0:0:
64,192,151740,1,0,0:0:0:0:
320,192,151828,1,8,0:0:0:0:
448,192,151828,1,0,0:0:0:0:
64,192,151915,1,0,0:0:0:0:
192,192,151915,1,8,0:0:0:0:
320,192,152002,1,8,0:0:0:0:
448,192,152002,1,0,0:0:0:0:
192,192,152089,1,8,0:0:0:0:
64,192,152089,1,0,0:0:0:0:
320,192,152264,1,0,0:0:0:0:
192,192,152351,1,0,0:0:0:0:
64,192,152438,1,4,0:0:0:0:
448,192,152438,1,0,0:0:0:0:
192,192,152612,1,0,0:0:0:0:
448,192,152787,1,8,0:0:0:0:
320,192,152787,1,0,0:0:0:0:
64,192,152961,1,0,0:0:0:0:
192,192,153136,1,0,0:0:0:0:
64,192,153310,1,0,0:0:0:0:
448,192,153485,1,8,0:0:0:0:
320,192,153485,1,0,0:0:0:0:
192,192,153659,1,0,0:0:0:0:
64,192,153833,1,0,0:0:0:0:
448,192,153833,1,0,0:0:0:0:
192,192,154008,1,0,0:0:0:0:
320,192,154182,1,0,0:0:0:0:
448,192,154182,1,8,0:0:0:0:
64,192,154357,1,0,0:0:0:0:
448,192,154531,1,0,0:0:0:0:
192,192,154531,1,0,0:0:0:0:
64,192,154705,1,0,0:0:0:0:
320,192,154880,1,8,0:0:0:0:
192,192,154880,1,0,0:0:0:0:
64,192,155054,1,0,0:0:0:0:
192,192,155229,1,0,0:0:0:0:
448,192,155229,1,0,0:0:0:0:
320,192,155403,1,0,0:0:0:0:
192,192,155578,1,0,0:0:0:0:
448,192,155578,1,8,0:0:0:0:
64,192,155752,1,0,0:0:0:0:
320,192,155926,1,0,0:0:0:0:
192,192,156101,1,0,0:0:0:0:
448,192,156275,1,8,0:0:0:0:
320,192,156275,1,0,0:0:0:0:
192,192,156450,1,0,0:0:0:0:
192,192,156624,1,0,0:0:0:0:
64,192,156624,1,0,0:0:0:0:
320,192,156798,1,0,0:0:0:0:
448,192,156973,1,8,0:0:0:0:
64,192,156973,1,0,0:0:0:0:
192,192,157147,1,0,0:0:0:0:
448,192,157322,1,0,0:0:0:0:
64,192,157322,1,0,0:0:0:0:
192,192,157496,1,0,0:0:0:0:
320,192,157496,1,8,0:0:0:0:
192,192,157671,1,8,0:0:0:0:
320,192,157671,1,0,0:0:0:0:
64,192,157845,1,0,0:0:0:0:
192,192,158019,1,4,0:0:0:0:
320,192,158019,128,0,158368:0:0:0:0:
448,192,158368,1,2,0:0:0:0:
192,192,158717,1,0,0:0:0:0:
320,192,158892,1,0,0:0:0:0:
192,192,159066,1,2,0:0:0:0:
64,192,159240,1,0,0:0:0:0:
192,192,159415,1,0,0:0:0:0:
448,192,159415,128,0,159764:0:0:0:0:
320,192,159764,1,2,0:0:0:0:
320,192,160112,1,0,0:0:0:0:
64,192,160112,1,0,0:0:0:0:
448,192,160287,1,0,0:0:0:0:
192,192,160287,1,0,0:0:0:0:
320,192,160461,1,0,0:0:0:0:
64,192,160461,1,2,0:0:0:0:
192,192,160636,1,0,0:0:0:0:
320,192,160810,1,4,0:0:0:0:
448,192,160810,1,2,0:0:0:0:
64,192,160810,1,0,0:0:0:0:
192,192,161159,1,0,0:0:0:0:
448,192,161333,1,0,0:0:0:0:
320,192,161508,1,0,0:0:0:0:
64,192,161682,1,0,0:0:0:0:
448,192,161857,1,0,0:0:0:0:
320,192,162031,1,0,0:0:0:0:
192,192,162205,128,0,163601:0:0:0:0:
64,192,163601,128,0,166392:0:0:0:0:
