osu file format v14

[General]
AudioFilename: Vospi - Reverence.mp3
AudioLeadIn: 0
PreviewTime: 72904
Countdown: 0
SampleSet: Soft
StackLeniency: 0.7
Mode: 3
LetterboxInBreaks: 0
SpecialStyle: 0
WidescreenStoryboard: 0

[Editor]
DistanceSpacing: 0.8
BeatDivisor: 1
GridSize: 4
TimelineZoom: 0.800001

[Metadata]
Title:Reverence
TitleUnicode:Reverence
Artist:Vospi
ArtistUnicode:Vospi
Creator:Nivrad00
Version:Normal
Source:Cytus
Tags:Rayark Chapter 8 Another Me
BeatmapID:654041
BeatmapSetID:203929

[Difficulty]
HPDrainRate:7.5
CircleSize:7
OverallDifficulty:7.5
ApproachRate:5
SliderMultiplier:1.4
SliderTickRate:1

[Events]
//Background and Video events
0,0,"cytus___reverence_vospi_by_xcanner-d6i8i5j.jpg",0,0
//Break Periods
//Storyboard Layer 0 (Background)
//Storyboard Layer 1 (Fail)
//Storyboard Layer 2 (Pass)
//Storyboard Layer 3 (Foreground)
//Storyboard Sound Samples

[TimingPoints]
346,348.837209302326,4,2,1,30,1,0

[HitObjects]
402,192,346,5,2,0:0:0:0:
329,192,1043,1,2,0:0:0:0:
182,192,1741,1,2,0:0:0:0:
109,192,2439,1,2,0:0:0:0:
36,192,3136,5,0,0:0:0:0:
475,192,3136,1,4,0:0:0:0:
182,192,3311,1,0,0:0:0:0:
329,192,3485,1,2,0:0:0:0:
182,192,4008,1,0,0:0:0:0:
329,192,4183,1,2,0:0:0:0:
36,192,4532,1,0,0:0:0:0:
475,192,4532,1,0,0:0:0:0:
109,192,4706,1,0,0:0:0:0:
402,192,4880,1,2,0:0:0:0:
109,192,5404,1,0,0:0:0:0:
402,192,5578,1,2,0:0:0:0:
36,192,5927,1,0,0:0:0:0:
475,192,5927,1,0,0:0:0:0:
182,192,6101,1,0,0:0:0:0:
329,192,6276,1,2,0:0:0:0:
182,192,6799,1,0,0:0:0:0:
329,192,6973,1,2,0:0:0:0:
36,192,7322,1,0,0:0:0:0:
475,192,7322,1,0,0:0:0:0:
109,192,7497,1,0,0:0:0:0:
402,192,7671,1,2,0:0:0:0:
109,192,8194,1,0,0:0:0:0:
402,192,8369,1,2,0:0:0:0:
36,192,8718,1,0,0:0:0:0:
475,192,9066,1,0,0:0:0:0:
329,192,9415,1,0,0:0:0:0:
402,192,9590,1,0,0:0:0:0:
329,192,9764,1,0,0:0:0:0:
182,192,9939,1,0,0:0:0:0:
109,192,10113,1,0,0:0:0:0:
402,192,10462,1,0,0:0:0:0:
36,192,10811,1,0,0:0:0:0:
109,192,10985,1,0,0:0:0:0:
182,192,11159,1,0,0:0:0:0:
329,192,11334,1,0,0:0:0:0:
182,192,11508,1,0,0:0:0:0:
329,192,11857,1,2,0:0:0:0:
182,192,12380,1,0,0:0:0:0:
329,192,12555,1,2,0:0:0:0:
36,192,12904,1,0,0:0:0:0:
475,192,12904,1,2,0:0:0:0:
182,192,13427,1,0,0:0:0:0:
329,192,13427,1,2,0:0:0:0:
256,192,13427,1,4,0:0:0:0:
256,192,14299,1,2,0:0:0:0:
256,192,14648,1,2,0:0:0:0:
402,192,14997,128,2,15694:0:0:0:0:
109,192,15346,128,2,15694:0:0:0:0:
182,192,15694,1,4,0:0:0:0:
329,192,15694,1,0,0:0:0:0:
475,192,16043,1,8,0:0:0:0:
182,192,16566,1,0,0:0:0:0:
475,192,16741,1,8,0:0:0:0:
109,192,17090,1,0,0:0:0:0:
329,192,17090,1,0,0:0:0:0:
402,192,17439,1,8,0:0:0:0:
109,192,17962,1,0,0:0:0:0:
402,192,18136,1,8,0:0:0:0:
36,192,18485,1,0,0:0:0:0:
256,192,18485,1,0,0:0:0:0:
475,192,18834,1,8,0:0:0:0:
36,192,19357,1,0,0:0:0:0:
475,192,19532,1,8,0:0:0:0:
109,192,19880,1,0,0:0:0:0:
256,192,19880,1,0,0:0:0:0:
402,192,20229,1,8,0:0:0:0:
109,192,20752,1,0,0:0:0:0:
402,192,20927,1,8,0:0:0:0:
36,192,21276,128,2,21537:0:0:0:0:
475,192,21276,128,2,21537:0:0:0:0:
256,192,21799,128,2,22322:0:0:0:0:
256,192,22497,1,2,0:0:0:0:
329,192,23020,1,8,0:0:0:0:
109,192,23369,1,0,0:0:0:0:
182,192,23543,1,0,0:0:0:0:
256,192,23718,1,8,0:0:0:0:
329,192,23892,1,0,0:0:0:0:
402,192,24066,1,0,0:0:0:0:
329,192,24241,1,0,0:0:0:0:
256,192,24415,1,8,0:0:0:0:
182,192,24590,1,0,0:0:0:0:
109,192,24764,1,0,0:0:0:0:
329,192,25113,1,8,0:0:0:0:
36,192,25462,1,2,0:0:0:0:
182,192,25636,1,2,0:0:0:0:
329,192,25811,1,2,0:0:0:0:
475,192,25985,1,2,0:0:0:0:
109,192,26159,1,2,0:0:0:0:
182,192,26334,1,2,0:0:0:0:
329,192,26508,1,2,0:0:0:0:
402,192,26683,1,2,0:0:0:0:
36,192,26857,1,4,0:0:0:0:
475,192,26857,1,0,0:0:0:0:
182,192,27032,1,0,0:0:0:0:
109,192,27032,1,0,0:0:0:0:
402,192,27555,1,0,0:0:0:0:
329,192,27729,1,0,0:0:0:0:
182,192,28078,1,0,0:0:0:0:
109,192,28078,1,0,0:0:0:0:
182,192,28427,1,0,0:0:0:0:
109,192,28427,1,0,0:0:0:0:
329,192,28776,1,0,0:0:0:0:
402,192,28950,1,0,0:0:0:0:
256,192,29299,1,8,0:0:0:0:
36,192,29648,1,0,0:0:0:0:
475,192,29648,1,2,0:0:0:0:
402,192,29822,1,0,0:0:0:0:
182,192,29997,1,8,0:0:0:0:
329,192,30346,1,2,0:0:0:0:
182,192,30694,1,8,0:0:0:0:
402,192,30869,1,0,0:0:0:0:
36,192,31043,1,0,0:0:0:0:
475,192,31043,1,2,0:0:0:0:
182,192,31392,1,8,0:0:0:0:
329,192,31741,1,2,0:0:0:0:
182,192,32090,1,8,0:0:0:0:
109,192,32439,128,2,32700:0:0:0:0:
402,192,32439,128,2,32700:0:0:0:0:
256,192,32962,128,2,33485:0:0:0:0:
256,192,33659,1,2,0:0:0:0:
182,192,34357,1,0,0:0:0:0:
256,192,34532,1,0,0:0:0:0:
182,192,34706,1,0,0:0:0:0:
109,192,34880,1,0,0:0:0:0:
475,192,35055,1,0,0:0:0:0:
402,192,35229,1,2,2:0:0:0:
182,192,35404,1,0,0:0:0:0:
329,192,35578,1,10,0:0:0:0:
109,192,35752,1,0,0:0:0:0:
36,192,35927,1,2,0:0:0:0:
256,192,36276,1,10,0:0:0:0:
36,192,36625,1,2,0:2:0:0:
475,192,36625,1,0,0:0:0:0:
182,192,36973,5,2,0:0:0:0:
256,192,37148,1,2,0:0:0:0:
329,192,37322,1,2,0:0:0:0:
256,192,37497,1,2,0:0:0:0:
182,192,37671,5,2,0:0:0:0:
475,192,38020,1,4,0:0:0:0:
36,192,38020,1,0,0:0:0:0:
109,192,38543,1,0,0:0:0:0:
256,192,38892,1,0,0:0:0:0:
402,192,39241,1,0,0:0:0:0:
182,192,39415,1,0,0:0:0:0:
256,192,39590,1,0,0:0:0:0:
329,192,39764,1,0,0:0:0:0:
182,192,39939,1,0,0:0:0:0:
109,192,40287,1,0,0:0:0:0:
36,192,40811,1,0,0:0:0:0:
475,192,40811,1,2,0:0:0:0:
329,192,41159,1,2,0:0:0:0:
182,192,41508,1,2,0:0:0:0:
36,192,41857,1,2,0:0:0:0:
329,192,42206,1,2,0:0:0:0:
256,192,42555,1,2,0:0:0:0:
182,192,42904,1,2,0:0:0:0:
256,192,43252,1,2,0:0:0:0:
36,192,43601,1,0,0:0:0:0:
475,192,43601,1,4,0:0:0:0:
109,192,44125,1,0,0:0:0:0:
256,192,44473,1,0,0:0:0:0:
402,192,44822,1,0,0:0:0:0:
182,192,44997,1,0,0:0:0:0:
256,192,45171,1,0,0:0:0:0:
329,192,45346,1,0,0:0:0:0:
182,192,45520,1,0,0:0:0:0:
109,192,45869,1,0,0:0:0:0:
475,192,46392,1,0,0:0:0:0:
36,192,46392,1,2,0:0:0:0:
182,192,46741,1,2,0:0:0:0:
329,192,47090,1,2,0:0:0:0:
475,192,47439,1,2,0:0:0:0:
182,192,47787,1,2,0:0:0:0:
256,192,48136,1,2,0:0:0:0:
329,192,48485,1,2,0:0:0:0:
256,192,48834,1,2,0:0:0:0:
36,192,49183,1,4,0:0:0:0:
475,192,49183,1,0,0:0:0:0:
109,192,49706,1,0,0:0:0:0:
402,192,49706,1,0,0:0:0:0:
182,192,50055,1,0,0:0:0:0:
329,192,50055,1,0,0:0:0:0:
36,192,50404,1,0,0:0:0:0:
475,192,50404,1,0,0:0:0:0:
109,192,50752,1,0,0:0:0:0:
402,192,50752,1,0,0:0:0:0:
36,192,51101,1,0,0:0:0:0:
475,192,51101,1,0,0:0:0:0:
182,192,51450,1,0,0:0:0:0:
329,192,51450,1,0,0:0:0:0:
36,192,51973,1,0,0:0:0:0:
475,192,51973,1,0,0:0:0:0:
182,192,52322,1,2,0:0:0:0:
256,192,52497,1,2,0:0:0:0:
256,192,52846,1,2,0:0:0:0:
182,192,53020,1,2,0:0:0:0:
36,192,53369,1,0,0:0:0:0:
475,192,53369,1,0,0:0:0:0:
329,192,53718,1,2,0:0:0:0:
256,192,53892,1,2,0:0:0:0:
256,192,54241,1,2,0:0:0:0:
329,192,54415,1,2,0:0:0:0:
36,192,54764,1,4,0:0:0:0:
475,192,54764,1,0,0:0:0:0:
109,192,55287,1,0,0:0:0:0:
402,192,55287,1,0,0:0:0:0:
36,192,55636,1,0,0:0:0:0:
475,192,55636,1,0,0:0:0:0:
329,192,55985,1,0,0:0:0:0:
182,192,55985,1,0,0:0:0:0:
256,192,56334,1,0,0:0:0:0:
109,192,56683,1,0,0:0:0:0:
402,192,56683,1,0,0:0:0:0:
182,192,57206,1,0,0:0:0:0:
329,192,57206,1,0,0:0:0:0:
36,192,57555,1,0,0:0:0:0:
475,192,57555,1,0,0:0:0:0:
402,192,57904,1,2,2:2:0:0:
329,192,58078,1,0,2:2:0:0:
256,192,58252,1,2,2:2:0:0:
182,192,58427,1,0,2:2:0:0:
109,192,58601,1,2,2:2:0:0:
36,192,58776,1,0,2:2:0:0:
475,192,58950,1,2,0:0:0:0:
109,192,59299,1,2,0:0:0:0:
256,192,59473,1,2,0:0:0:0:
402,192,59648,1,2,0:0:0:0:
256,192,59822,1,2,0:0:0:0:
109,192,59997,1,2,0:0:0:0:
36,192,60346,1,0,0:0:0:0:
475,192,60346,1,4,0:0:0:0:
402,192,60346,1,0,0:0:0:0:
109,192,60694,1,0,0:0:0:0:
256,192,61043,1,0,0:0:0:0:
182,192,61392,1,0,0:0:0:0:
475,192,61741,1,0,0:0:0:0:
402,192,62090,1,0,0:0:0:0:
256,192,62439,1,0,0:0:0:0:
329,192,62787,1,0,0:0:0:0:
36,192,63136,1,0,0:0:0:0:
329,192,63485,1,2,0:0:0:0:
402,192,63601,1,2,0:0:0:0:
182,192,63834,1,2,0:0:0:0:
109,192,63950,1,2,0:0:0:0:
256,192,64183,1,0,0:0:0:0:
475,192,64532,1,0,0:0:0:0:
109,192,64880,1,2,0:0:0:0:
182,192,64997,1,2,0:0:0:0:
402,192,65229,1,2,0:0:0:0:
329,192,65346,1,2,0:0:0:0:
256,192,65578,1,0,0:0:0:0:
36,192,65927,1,0,0:0:0:0:
182,192,66276,1,0,0:0:0:0:
256,192,66625,1,0,0:0:0:0:
109,192,66973,1,0,0:0:0:0:
475,192,67322,1,0,0:0:0:0:
329,192,67671,1,0,0:0:0:0:
256,192,68020,1,0,0:0:0:0:
402,192,68369,1,0,0:0:0:0:
475,192,68718,1,2,0:0:0:0:
329,192,69066,1,2,0:0:0:0:
182,192,69415,1,2,0:0:0:0:
36,192,69764,1,2,0:0:0:0:
109,192,70113,1,0,0:0:0:0:
182,192,70636,1,0,0:0:0:0:
256,192,70985,1,0,0:0:0:0:
329,192,71334,1,0,0:0:0:0:
402,192,72206,1,0,0:0:0:0:
36,192,72904,1,0,0:0:0:0:
402,192,73078,1,0,0:0:0:0:
182,192,73252,1,2,0:0:0:0:
402,192,73427,1,0,0:0:0:0:
182,192,73950,1,2,0:0:0:0:
36,192,74299,1,0,0:0:0:0:
329,192,74473,1,0,0:0:0:0:
475,192,74648,1,2,0:0:0:0:
109,192,74822,1,0,0:0:0:0:
182,192,74822,1,0,0:0:0:0:
329,192,75346,1,2,0:0:0:0:
475,192,75694,1,0,0:0:0:0:
109,192,75869,1,0,0:0:0:0:
329,192,76043,1,2,0:0:0:0:
109,192,76218,1,0,0:0:0:0:
182,192,76741,1,2,0:0:0:0:
36,192,77090,1,0,0:0:0:0:
329,192,77264,1,0,0:0:0:0:
475,192,77439,1,2,0:0:0:0:
182,192,77613,1,0,0:0:0:0:
109,192,77613,1,0,0:0:0:0:
256,192,78136,1,2,0:0:0:0:
329,192,78311,1,0,0:0:0:0:
402,192,78485,1,0,0:0:0:0:
36,192,78485,1,0,0:0:0:0:
475,192,78834,1,0,0:0:0:0:
329,192,79183,1,0,0:0:0:0:
402,192,79357,1,0,0:0:0:0:
329,192,79532,1,0,0:0:0:0:
182,192,79706,1,0,0:0:0:0:
109,192,79880,1,0,0:0:0:0:
402,192,80229,1,0,0:0:0:0:
36,192,80578,1,0,0:0:0:0:
109,192,80752,1,0,0:0:0:0:
182,192,80927,1,0,0:0:0:0:
329,192,81101,1,0,0:0:0:0:
182,192,81276,1,0,0:0:0:0:
329,192,82148,1,2,0:0:0:0:
256,192,82322,1,2,0:0:0:0:
109,192,82497,1,2,0:0:0:0:
36,192,82497,1,0,0:0:0:0:
402,192,82671,1,2,0:0:0:0:
329,192,82671,1,0,0:0:0:0:
109,192,82846,1,2,0:0:0:0:
182,192,82846,1,0,0:0:0:0:
329,192,83194,1,2,0:0:0:0:
256,192,83194,1,4,0:0:0:0:
475,192,83194,1,0,0:0:0:0:
256,192,84066,1,2,0:0:0:0:
256,192,84415,1,2,0:0:0:0:
109,192,84764,128,2,85462:0:0:0:0:
402,192,85113,128,2,85462:0:0:0:0:
182,192,85462,1,4,0:0:0:0:
329,192,85462,1,0,0:0:0:0:
256,192,85636,1,0,0:0:0:0:
109,192,86159,1,0,0:0:0:0:
182,192,86334,1,0,0:0:0:0:
402,192,86683,1,0,0:0:0:0:
329,192,86683,1,0,0:0:0:0:
402,192,87032,1,0,0:0:0:0:
329,192,87032,1,0,0:0:0:0:
182,192,87380,1,0,0:0:0:0:
109,192,87555,1,0,0:0:0:0:
256,192,87904,1,0,0:0:0:0:
36,192,88252,1,0,0:0:0:0:
475,192,88252,1,2,0:0:0:0:
329,192,88601,1,2,0:0:0:0:
402,192,88776,1,2,0:0:0:0:
256,192,89125,1,2,0:0:0:0:
329,192,89473,1,2,0:0:0:0:
109,192,89822,1,2,0:0:0:0:
182,192,90171,1,2,0:0:0:0:
256,192,90520,1,2,0:0:0:0:
36,192,91043,1,0,0:0:0:0:
329,192,91218,1,0,0:0:0:0:
402,192,91218,1,0,0:0:0:0:
109,192,91741,1,0,0:0:0:0:
182,192,91915,1,0,0:0:0:0:
402,192,92264,1,0,0:0:0:0:
329,192,92264,1,0,0:0:0:0:
402,192,92613,1,0,0:0:0:0:
329,192,92613,1,0,0:0:0:0:
182,192,92962,1,0,0:0:0:0:
109,192,93136,1,0,0:0:0:0:
256,192,93485,1,0,0:0:0:0:
36,192,93834,1,0,0:0:0:0:
109,192,94008,1,0,0:0:0:0:
256,192,94183,1,0,0:0:0:0:
402,192,94357,1,0,0:0:0:0:
475,192,94532,1,0,0:0:0:0:
256,192,94880,1,0,0:0:0:0:
475,192,95229,1,2,0:0:0:0:
329,192,95404,1,2,0:0:0:0:
182,192,95578,1,2,0:0:0:0:
36,192,95752,1,2,0:0:0:0:
402,192,95927,1,2,0:0:0:0:
329,192,96101,1,2,0:0:0:0:
182,192,96276,1,2,0:0:0:0:
109,192,96450,1,2,0:0:0:0:
475,192,96625,1,4,0:0:0:0:
36,192,96625,1,0,0:0:0:0:
329,192,96799,1,0,0:0:0:0:
402,192,96799,1,0,0:0:0:0:
109,192,97322,1,0,0:0:0:0:
182,192,97497,1,0,0:0:0:0:
329,192,97846,1,0,0:0:0:0:
402,192,97846,1,0,0:0:0:0:
329,192,98194,1,0,0:0:0:0:
402,192,98194,1,0,0:0:0:0:
182,192,98543,1,0,0:0:0:0:
109,192,98718,1,0,0:0:0:0:
475,192,99415,1,2,0:0:0:0:
256,192,99415,1,0,0:0:0:0:
36,192,99415,1,0,0:0:0:0:
402,192,99764,1,2,0:0:0:0:
182,192,99764,1,0,0:0:0:0:
329,192,100113,1,2,0:0:0:0:
109,192,100113,1,0,0:0:0:0:
256,192,100462,1,2,0:0:0:0:
36,192,100462,1,0,0:0:0:0:
109,192,100811,128,0,101508:0:0:0:0:
329,192,100811,128,2,101508:0:0:0:0:
182,192,101508,128,0,102206:0:0:0:0:
402,192,101508,128,2,102206:0:0:0:0:
36,192,102206,1,4,0:0:0:0:
475,192,102206,1,0,0:0:0:0:
182,192,102555,1,0,0:0:0:0:
329,192,103252,1,0,0:0:0:0:
182,192,103601,1,0,0:0:0:0:
109,192,103776,1,0,0:0:0:0:
329,192,104212,1,0,0:0:0:0:
182,192,104648,1,0,0:0:0:0:
475,192,104997,1,0,0:0:0:0:
329,192,105346,1,0,0:0:0:0:
182,192,105694,1,0,0:0:0:0:
36,192,106043,1,0,0:0:0:0:
475,192,107787,1,0,0:0:0:0:
182,192,108136,1,0,0:0:0:0:
329,192,108136,1,2,0:0:0:0:
182,192,108834,1,0,0:0:0:0:
329,192,108834,1,2,0:0:0:0:
36,192,109183,1,0,0:0:0:0:
329,192,109532,1,2,0:0:0:0:
182,192,109532,1,0,0:0:0:0:
182,192,110229,1,0,0:0:0:0:
329,192,110229,1,2,0:0:0:0:
475,192,110578,1,2,0:0:0:0:
36,192,110578,1,0,0:0:0:0:
329,192,110927,1,2,0:0:0:0:
182,192,111276,1,2,0:0:0:0:
109,192,111625,1,2,0:0:0:0:
36,192,111973,1,0,0:0:0:0:
475,192,111973,1,2,0:0:0:0:
329,192,112322,1,2,0:0:0:0:
182,192,112671,1,2,0:0:0:0:
402,192,113020,1,2,0:0:0:0:
36,192,113369,1,0,0:0:0:0:
182,192,113718,1,2,0:0:0:0:
329,192,113718,1,0,0:0:0:0:
182,192,114415,1,2,0:0:0:0:
329,192,114415,1,0,0:0:0:0:
475,192,114764,1,0,0:0:0:0:
329,192,115113,1,0,0:0:0:0:
182,192,115113,1,2,0:0:0:0:
182,192,115811,1,2,0:0:0:0:
329,192,115811,1,0,0:0:0:0:
36,192,116159,1,2,0:0:0:0:
182,192,116508,1,2,0:0:0:0:
256,192,116857,1,2,0:0:0:0:
402,192,117206,1,2,0:0:0:0:
475,192,117555,1,2,0:0:0:0:
36,192,117555,1,0,0:0:0:0:
329,192,117904,1,2,0:0:0:0:
109,192,118252,1,2,0:0:0:0:
256,192,118601,1,2,0:0:0:0:
475,192,118950,1,0,0:0:0:0:
36,192,118950,1,4,0:0:0:0:
182,192,119125,1,0,0:0:0:0:
329,192,119299,1,8,0:0:0:0:
182,192,119822,1,0,0:0:0:0:
329,192,119997,1,8,0:0:0:0:
36,192,120346,1,0,0:0:0:0:
475,192,120346,1,0,0:0:0:0:
109,192,120520,1,0,0:0:0:0:
402,192,120694,1,8,0:0:0:0:
109,192,121218,1,0,0:0:0:0:
402,192,121392,1,8,0:0:0:0:
256,192,121741,1,2,0:0:0:0:
475,192,121741,1,0,0:0:0:0:
36,192,122090,1,10,0:0:0:0:
182,192,122439,1,2,0:0:0:0:
329,192,122787,1,10,0:0:0:0:
36,192,123136,1,0,0:0:0:0:
402,192,123136,1,2,0:0:0:0:
256,192,123485,1,10,0:0:0:0:
109,192,123834,1,2,0:0:0:0:
256,192,124183,1,10,0:0:0:0:
36,192,124532,1,0,0:0:0:0:
475,192,124532,1,0,0:0:0:0:
329,192,124706,1,0,0:0:0:0:
182,192,124880,1,8,0:0:0:0:
329,192,125404,1,0,0:0:0:0:
182,192,125578,1,8,0:0:0:0:
475,192,125927,1,0,0:0:0:0:
36,192,125927,1,0,0:0:0:0:
402,192,126101,1,0,0:0:0:0:
109,192,126276,1,8,0:0:0:0:
402,192,126799,1,0,0:0:0:0:
109,192,126973,1,8,0:0:0:0:
256,192,127322,1,2,0:0:0:0:
36,192,127322,1,0,0:0:0:0:
402,192,127671,1,10,0:0:0:0:
182,192,128020,1,2,0:0:0:0:
329,192,128369,1,10,0:0:0:0:
475,192,128718,1,0,0:0:0:0:
109,192,128718,1,2,0:0:0:0:
256,192,129066,1,10,0:0:0:0:
402,192,129415,1,2,0:0:0:0:
256,192,129764,1,10,0:0:0:0:
36,192,130113,1,0,0:0:0:0:
475,192,130113,1,2,0:0:0:0:
402,192,130287,1,2,0:0:0:0:
329,192,130462,1,10,0:0:0:0:
256,192,130636,1,2,0:0:0:0:
109,192,130985,1,0,0:0:0:0:
402,192,131159,1,8,0:0:0:0:
36,192,131508,1,2,0:0:0:0:
475,192,131508,1,0,0:0:0:0:
109,192,131683,1,2,0:0:0:0:
182,192,131857,1,10,0:0:0:0:
256,192,132032,1,2,0:0:0:0:
402,192,132380,1,0,0:0:0:0:
109,192,132555,1,8,0:0:0:0:
36,192,132904,1,0,0:0:0:0:
475,192,132904,1,2,0:0:0:0:
329,192,133252,1,10,0:0:0:0:
256,192,133601,1,2,0:0:0:0:
182,192,133950,1,10,0:0:0:0:
36,192,134299,1,0,0:0:0:0:
402,192,134299,1,2,0:0:0:0:
329,192,134648,1,10,0:0:0:0:
109,192,134997,1,2,0:0:0:0:
256,192,135346,1,10,0:0:0:0:
36,192,135694,1,0,0:0:0:0:
475,192,135694,1,0,0:0:0:0:
182,192,135869,1,0,0:0:0:0:
329,192,136043,1,8,0:0:0:0:
182,192,136566,1,0,0:0:0:0:
329,192,136741,1,8,0:0:0:0:
36,192,137090,1,0,0:0:0:0:
475,192,137090,1,0,0:0:0:0:
109,192,137264,1,0,0:0:0:0:
402,192,137439,1,8,0:0:0:0:
109,192,137962,1,0,0:0:0:0:
402,192,138136,1,8,0:0:0:0:
182,192,138485,1,0,0:0:0:0:
256,192,139008,1,0,0:0:0:0:
329,192,139532,1,0,0:0:0:0:
182,192,139880,1,0,0:0:0:0:
329,192,140578,1,0,0:0:0:0:
109,192,141101,1,0,0:0:0:0:
36,192,141276,5,4,0:0:0:0:
402,192,141276,1,0,0:0:0:0:
475,192,141625,1,0,0:0:0:0:
256,192,141973,1,0,0:0:0:0:
329,192,142148,1,0,0:0:0:0:
256,192,142322,1,0,0:0:0:0:
182,192,142497,1,0,0:0:0:0:
109,192,142671,1,0,0:0:0:0:
402,192,143020,1,0,0:0:0:0:
36,192,143369,1,0,0:0:0:0:
109,192,143543,1,0,0:0:0:0:
182,192,143718,1,0,0:0:0:0:
256,192,143892,1,0,0:0:0:0:
475,192,144066,1,0,0:0:0:0:
109,192,144241,1,0,0:0:0:0:
329,192,144415,1,8,0:0:0:0:
109,192,144590,1,0,0:0:0:0:
329,192,145113,1,8,0:0:0:0:
36,192,145462,1,0,0:0:0:0:
402,192,145636,1,0,0:0:0:0:
182,192,145811,1,8,0:0:0:0:
402,192,145985,1,0,0:0:0:0:
182,192,146508,1,8,0:0:0:0:
36,192,146857,1,0,0:0:0:0:
475,192,147206,1,0,0:0:0:0:
329,192,147555,1,0,0:0:0:0:
402,192,147729,1,0,0:0:0:0:
329,192,147904,1,0,0:0:0:0:
182,192,148078,1,0,0:0:0:0:
109,192,148252,1,0,0:0:0:0:
402,192,148601,1,0,0:0:0:0:
36,192,148950,1,0,0:0:0:0:
109,192,149125,1,0,0:0:0:0:
182,192,149299,1,0,0:0:0:0:
256,192,149473,1,0,0:0:0:0:
475,192,149648,1,0,0:0:0:0:
109,192,149822,1,0,0:0:0:0:
329,192,149997,1,8,0:0:0:0:
109,192,150171,1,0,0:0:0:0:
329,192,150694,1,8,0:0:0:0:
36,192,151043,1,0,0:0:0:0:
475,192,151043,1,0,0:0:0:0:
182,192,151566,1,0,0:0:0:0:
256,192,151741,1,0,0:0:0:0:
329,192,151915,1,0,0:0:0:0:
182,192,152090,1,0,0:0:0:0:
36,192,152439,1,0,0:0:0:0:
475,192,152439,1,0,0:0:0:0:
256,192,152787,1,8,0:0:0:0:
402,192,153136,1,0,0:0:0:0:
329,192,153311,1,0,0:0:0:0:
256,192,153485,1,8,0:0:0:0:
182,192,153659,1,0,0:0:0:0:
109,192,153834,1,0,0:0:0:0:
475,192,153834,1,0,0:0:0:0:
256,192,154183,1,8,0:0:0:0:
402,192,154532,1,0,0:0:0:0:
182,192,154880,1,8,0:0:0:0:
109,192,155055,1,0,0:0:0:0:
36,192,155229,1,0,0:0:0:0:
475,192,155229,1,0,0:0:0:0:
256,192,155578,1,8,0:0:0:0:
109,192,155927,1,0,0:0:0:0:
182,192,156101,1,0,0:0:0:0:
256,192,156276,1,8,0:0:0:0:
329,192,156450,1,0,0:0:0:0:
402,192,156625,1,0,0:0:0:0:
36,192,156625,1,0,0:0:0:0:
256,192,156973,1,8,0:0:0:0:
109,192,157322,1,0,0:0:0:0:
329,192,157671,1,12,0:0:0:0:
402,192,157846,1,0,0:0:0:0:
36,192,158020,1,0,0:0:0:0:
475,192,158020,1,0,0:0:0:0:
109,192,158718,1,0,0:0:0:0:
182,192,159415,1,0,0:0:0:0:
329,192,159415,1,0,0:0:0:0:
402,192,160113,1,0,0:0:0:0:
329,192,160113,1,0,0:0:0:0:
109,192,160636,1,2,0:0:0:0:
36,192,160636,1,0,0:0:0:0:
475,192,160811,1,4,0:0:0:0:
256,192,160811,1,2,0:0:0:0:
329,192,160811,1,0,0:0:0:0:
36,192,163601,1,0,0:0:0:0:
