osu file format v14

[General]
AudioFilename: audio.mp3
AudioLeadIn: 0
PreviewTime: 34426
Countdown: 0
SampleSet: Soft
StackLeniency: 0.7
Mode: 0
LetterboxInBreaks: 0
WidescreenStoryboard: 0

[Editor]
Bookmarks: 1641,5069,8498,11926,15355,35926,39355,42783,46212,49641,53069,56498,59926,61641,65069,68498,71926,73641,92498,94212,97641,101069,104498,107926,111355,114783,119926
DistanceSpacing: 0.5
BeatDivisor: 4
GridSize: 8
TimelineZoom: 3.099999

[Metadata]
Title:Devchonka ryjaya
TitleUnicode:Девчонка рыжая
Artist:Vorovaiki
ArtistUnicode:Воровайки
Creator:Marmowka
Version:Nattu's RIZHAYA DEVCHEENKA
Source:
Tags:russian русский шансон chanson cut nattu bakari -bakari- namki
BeatmapID:994568
BeatmapSetID:464507

[Difficulty]
HPDrainRate:7
CircleSize:4
OverallDifficulty:7.5
ApproachRate:8
SliderMultiplier:1.8
SliderTickRate:1

[Events]
//Background and Video events
0,0,"64.jpg",0,0
//Break Periods
//Storyboard Layer 0 (Background)
//Storyboard Layer 1 (Fail)
//Storyboard Layer 2 (Pass)
//Storyboard Layer 3 (Foreground)
//Storyboard Sound Samples

[TimingPoints]
1641,428.571428571429,4,2,0,65,1,0
1641,-80,4,2,0,65,0,0
13426,-80,4,3,0,55,0,0
15355,-100,4,2,0,50,0,0
34426,-100,4,2,0,40,0,0
35926,-80,4,2,0,65,0,1
49426,-80,4,2,0,65,0,0
49641,-80,4,2,0,65,0,1
60141,-80,4,2,0,50,0,1
61426,-80,4,2,0,65,0,0
61641,-80,4,2,0,65,0,1
73641,-100,4,2,0,50,0,0
92712,-100,4,2,0,40,0,0
94212,-80,4,2,0,65,0,1
106212,-80,4,2,0,50,0,1
107712,-80,4,2,0,50,0,0
107926,-80,4,2,0,65,0,1
118212,-80,4,2,0,50,0,1
119926,-100,4,2,0,70,0,0

[Colours]
Combo1 : 179,180,175
Combo2 : 255,255,149
Combo3 : 125,0,0
Combo4 : 255,70,70
Combo5 : 255,158,62

[HitObjects]
108,246,1641,5,6,1:2:0:0:
225,309,1855,1,0,0:0:0:0:
108,246,2069,2,0,P|100:190|117:137,1,112.5,10|0,0:0|0:0,0:0:0:0:
236,201,2498,2,0,P|243:256|226:309,2,112.5,2|0|10,1:2|0:0|0:0,0:0:0:0:
296,79,3141,2,0,P|341:48|396:54,1,112.5,2|0,0:0|1:0,0:0:0:0:
431,183,3569,6,0,P|385:215|330:209,1,112.5,2|8,0:0|0:0,0:0:0:0:
224,112,3998,2,0,P|216:80|224:40,1,56.25
296,79,4212,1,0,1:0:0:0:
146,156,4426,2,0,P|124:185|123:238,1,56.25,2|0,0:0|0:0,0:0:0:0:
194,220,4641,2,0,P|186:255|208:304,1,56.25,10|0,0:0|0:0,0:0:0:0:
266,252,4855,1,2,0:0:0:0:
61,273,5069,6,0,P|28:228|31:173,1,112.5,6|0,1:2|0:0,0:0:0:0:
220,179,5498,2,0,P|164:211|95:187,1,112.5,10|0,0:0|0:0,0:0:0:0:
0,88,5926,2,8,P|55:81|101:112,1,112.5,2|0,1:2|0:0,0:0:0:0:
220,179,6355,1,10,0:0:0:0:
30,173,6569,2,0,P|28:228|61:273,1,112.5,2|0,0:2|1:0,0:0:0:0:
220,227,6998,6,0,P|173:197|118:203,1,112.5,2|8,0:2|0:0,0:0:0:0:
135,331,7426,2,0,P|152:300|152:254,1,56.25,2|0,0:0|0:0,0:0:0:0:
232,280,7641,2,0,P|228:244|201:207,1,56.25,2|0,1:2|0:0,0:0:0:0:
174,153,7855,1,2,0:0:0:0:
155,279,8069,1,10,0:0:0:0:
181,131,8283,1,2,0:0:0:0:
302,261,8498,6,0,P|379:308|440:296,1,112.5,6|0,1:2|0:0,0:0:0:0:
392,192,8926,2,0,P|394:101|353:54,1,112.5,10|0,0:0|0:3,0:3:0:0:
288,144,9355,2,0,P|208:187|188:246,1,112.5,2|0,1:2|0:3,0:3:0:0:
302,261,9783,1,10,0:0:0:0:
151,281,9998,2,0,P|115:239|112:184,1,112.5,2|0,0:0|1:0,0:0:0:0:
302,261,10426,6,0,P|337:303|341:358,1,112.5,2|8,0:0|0:0,0:0:0:0:
223,265,10855,2,0,P|227:237|240:213,1,56.25,2|0,1:2|0:0,0:0:0:0:
168,184,11069,2,0,P|184:161|208:146,1,56.25,2|0,1:2|0:0,0:0:0:0:
296,144,11283,1,2,0:0:0:0:
392,62,11498,2,0,P|388:89|375:114,1,56.25,2|0,1:2|0:0,0:0:0:0:
447,143,11712,2,0,P|430:165|406:180,1,56.25,2|0,1:2|0:0,0:0:0:0:
312,64,11926,6,0,B|247:40|183:72|183:72|215:96|231:80,1,168.75,6|0,1:2|0:0,0:0:0:0:
296,144,12355,1,8,0:0:0:0:
392,62,12569,1,0,0:0:0:0:
214,86,12783,1,0,1:0:0:0:
293,172,12998,1,0,0:0:0:0:
127,62,13212,5,8,0:0:0:0:
290,200,13426,1,2,0:0:0:0:
288,228,13533,1,2,0:0:0:0:
285,256,13641,1,8,0:0:0:0:
186,155,13855,1,2,0:0:0:0:
283,284,14069,1,8,0:0:0:0:
117,202,14283,1,2,0:0:0:0:
108,185,14391,1,2,0:0:0:0:
103,167,14498,5,4,0:0:0:0:
102,148,14605,1,2,0:0:0:0:
105,130,14712,2,0,P|71:138|46:159,1,56.25,8|2,0:0|0:0,0:0:0:0:
191,178,14926,2,0,P|197:205|190:232,1,56.25,4|2,0:0|0:0,0:0:0:0:
102,286,15141,1,10,0:0:0:0:
92,292,15248,1,2,0:0:0:0:
85,298,15355,6,0,P|143:320|197:300,1,90,4|0,1:2|0:0,0:0:0:0:
228,195,15783,1,2,0:0:0:0:
299,319,15998,1,0,0:0:0:0:
312,176,16212,2,0,P|266:117|151:158,1,180,0|8,1:0|0:0,0:0:0:0:
176,265,16855,5,0,0:0:0:0:
176,265,16962,1,0,0:0:0:0:
176,265,17069,2,0,P|210:233|230:180,1,90,0|0,1:0|0:0,0:0:0:0:
253,65,17498,1,2,0:0:0:0:
170,131,17712,1,0,0:0:0:0:
312,176,17926,2,0,P|419:172|489:107,1,180,0|8,1:0|0:0,0:0:0:0:
402,260,18569,5,0,0:0:0:0:
402,260,18676,1,0,0:0:0:0:
402,260,18783,2,0,L|410:363,1,90,0|0,1:0|0:0,0:0:0:0:
283,228,19212,1,2,0:0:0:0:
314,332,19426,1,0,0:0:0:0:
206,309,19641,2,0,P|172:231|213:141,1,180,0|8,1:0|0:0,0:0:0:0:
68,78,20283,5,0,0:0:0:0:
68,78,20391,1,0,0:0:0:0:
68,78,20498,2,0,L|85:177,1,90,0|0,1:0|0:0,0:0:0:0:
205,147,20926,2,0,P|249:152|293:146,1,90,2|0,0:0|0:0,0:0:0:0:
384,259,21355,2,0,P|306:233|294:145,1,180,0|8,1:0|0:0,0:0:0:0:
438,131,21998,5,0,0:0:0:0:
438,131,22105,1,0,0:0:0:0:
438,131,22212,1,0,1:0:0:0:
366,179,22426,1,0,0:0:0:0:
341,64,22641,1,2,0:0:0:0:
274,109,22854,1,0,0:0:0:0:
197,28,23069,2,0,P|163:106|204:196,1,180,0|8,1:0|0:0,0:0:0:0:
251,322,23712,5,0,0:0:0:0:
251,322,23819,1,0,0:0:0:0:
251,322,23926,2,0,P|274:290|269:223,1,90,0|0,1:0|0:0,0:0:0:0:
242,121,24355,1,2,0:0:0:0:
363,173,24569,1,0,0:0:0:0:
276,240,24783,2,0,P|179:247|103:197,1,180,0|8,1:0|0:0,0:0:0:0:
157,91,25426,5,0,0:0:0:0:
157,91,25533,1,0,0:0:0:0:
157,91,25641,1,0,1:0:0:0:
38,154,25855,1,0,0:0:0:0:
87,37,26069,1,2,0:0:0:0:
110,205,26283,1,0,0:0:0:0:
157,91,26498,2,0,P|254:84|330:134,1,180,0|8,1:0|0:0,0:0:0:0:
183,211,27141,5,0,0:0:0:0:
183,211,27248,1,0,0:0:0:0:
183,211,27355,2,0,L|191:331,1,90,0|0,1:0|0:0,0:0:0:0:
328,215,27783,2,0,L|321:115,1,90,2|0,0:0|0:0,0:0:0:0:
175,83,28212,2,0,P|263:147|338:106,1,180,0|8,1:0|0:0,0:0:0:0:
96,213,28855,5,0,0:0:0:0:
96,213,28962,1,0,0:0:0:0:
96,213,29069,2,0,L|91:124,1,90,0|0,1:0|0:0,0:0:0:0:
107,33,29498,1,2,0:0:0:0:
16,150,29712,1,0,0:0:0:0:
169,169,29926,2,0,B|221:191|266:167|266:167|311:144|371:167,1,180,0|8,1:0|0:0,0:0:0:0:
220,100,30569,5,0,0:0:0:0:
220,100,30676,1,0,0:0:0:0:
220,100,30783,1,0,1:0:0:0:
310,240,30998,1,0,0:0:0:0:
301,64,31212,1,2,0:0:0:0:
228,219,31426,1,0,0:0:0:0:
363,168,31641,2,0,B|403:158|456:170|456:170|427:135|384:112,1,180,0|8,1:0|0:0,0:0:0:0:
212,89,32283,5,0,0:0:0:0:
212,89,32391,1,0,0:0:0:0:
212,89,32498,2,0,B|252:142|202:205|202:205|229:235|221:284,1,180,0|2,1:0|0:0,0:0:0:0:
129,268,33141,1,0,0:0:0:0:
297,293,33355,2,0,P|305:245|277:185,1,90,0|0,1:0|0:0,0:0:0:0:
129,268,33783,2,0,P|121:316|149:376,1,90,2|0,0:0|0:0,0:0:0:0:
174,112,34212,1,4,1:2:0:0:
294,207,34426,5,0,0:0:0:0:
294,207,34533,1,0,0:0:0:0:
294,207,34641,2,0,P|311:179|325:141,3,45,4|0|0|0,0:0|0:0|0:0|0:0,0:0:0:0:
211,157,35069,2,0,P|194:185|180:223,3,45,4|0|0|0,1:2|0:0|0:0|0:0,0:0:0:0:
196,241,35498,1,0,0:0:0:0:
219,279,35605,1,0,0:0:0:0:
257,303,35712,1,0,0:0:0:0:
301,307,35819,1,0,0:0:0:0:
342,289,35926,6,0,P|380:247|346:129,1,168.75,4|0,1:2|0:0,0:0:0:0:
304,96,36355,1,8,0:0:0:0:
294,207,36569,1,0,0:0:0:0:
149,143,36783,1,0,1:0:0:0:
363,143,36998,1,0,0:0:0:0:
116,237,37212,1,8,0:0:0:0:
396,237,37426,1,0,0:0:0:0:
218,207,37641,1,0,1:0:0:0:
342,36,37855,5,0,0:0:0:0:
342,36,37962,1,0,0:0:0:0:
342,36,38069,2,0,P|365:92|357:158,1,112.5,8|0,0:0|0:0,0:0:0:0:
238,313,38498,2,0,P|215:257|223:191,1,112.5,0|0,1:0|0:0,0:0:0:0:
273,106,38926,5,8,0:0:0:0:
217,206,39141,1,0,0:0:0:0:
333,255,39355,1,4,1:2:0:0:
186,121,39569,1,0,0:0:0:0:
186,121,39676,1,0,0:0:0:0:
186,121,39783,1,8,0:0:0:0:
297,186,39998,1,0,0:0:0:0:
103,281,40212,5,0,1:0:0:0:
294,235,40426,1,0,0:0:0:0:
79,205,40641,1,8,0:0:0:0:
269,278,40855,1,0,0:0:0:0:
87,124,41069,5,0,1:0:0:0:
228,305,41283,1,0,0:0:0:0:
228,305,41391,1,0,0:0:0:0:
228,305,41498,2,0,P|244:236|228:180,1,112.5,8|0,0:0|0:0,0:0:0:0:
96,137,41926,2,0,P|80:206|96:262,1,112.5,0|0,1:0|0:0,0:0:0:0:
235,196,42355,1,8,0:0:0:0:
322,298,42569,1,0,0:0:0:0:
272,101,42783,5,4,1:2:0:0:
230,299,42998,1,0,0:0:0:0:
185,79,43212,1,8,0:0:0:0:
279,234,43426,1,0,0:0:0:0:
183,67,43641,1,0,1:0:0:0:
162,258,43855,1,0,0:0:0:0:
290,116,44069,1,8,0:0:0:0:
103,156,44283,1,0,0:0:0:0:
348,188,44498,2,0,P|364:167|369:69,1,112.5,0|0,1:0|0:0,0:0:0:0:
374,83,44819,5,0,0:0:0:0:
374,83,44926,1,8,0:0:0:0:
272,131,45141,1,0,0:0:0:0:
286,243,45355,1,0,1:0:0:0:
397,265,45569,1,0,0:0:0:0:
452,166,45783,1,8,0:0:0:0:
374,83,45998,1,0,0:0:0:0:
266,46,46212,6,0,B|223:48|200:76|200:76|180:63|152:59|152:59|161:143|57:195|-8:108|-8:108|32:72|80:72,1,450,4|2,1:2|1:3,0:0:0:0:
72,72,47176,1,2,3:0:0:0:
72,72,47283,1,2,3:0:0:0:
260,165,47498,1,8,0:0:0:0:
260,165,47605,1,2,0:3:0:0:
260,165,47712,1,2,0:3:0:0:
201,232,47926,6,0,P|175:199|177:155,3,56.25,2|2|2|2,1:3|0:3|0:3|0:3,0:0:0:0:
266,294,48355,2,0,P|282:272|288:235,3,56.25,8|2|2|2,0:2|0:3|0:3|0:3,0:0:0:0:
386,303,48783,5,0,1:0:0:0:
404,293,48891,1,2,0:3:0:0:
420,279,48998,1,2,0:3:0:0:
433,262,49105,1,2,0:3:0:0:
442,243,49212,1,8,0:0:0:0:
446,223,49319,1,2,0:3:0:0:
446,202,49426,1,2,0:3:0:0:
441,181,49533,1,2,0:3:0:0:
432,162,49641,6,0,B|395:115|329:131|329:131|349:99|389:73,1,168.75,4|0,1:2|0:0,0:0:0:0:
442,69,50069,1,8,0:0:0:0:
361,209,50283,1,0,0:0:0:0:
469,86,50498,1,0,1:0:0:0:
280,206,50712,1,0,0:0:0:0:
291,42,50926,1,8,0:0:0:0:
371,229,51141,1,0,0:0:0:0:
199,115,51355,5,0,1:0:0:0:
371,229,51569,1,0,0:0:0:0:
371,229,51676,1,0,0:0:0:0:
371,229,51783,2,0,P|387:173|347:109,1,112.5,8|0,0:0|0:0,0:0:0:0:
199,115,52212,2,0,P|183:171|223:235,1,112.5,0|0,1:0|0:0,0:0:0:0:
311,293,52641,1,8,0:0:0:0:
270,161,52855,1,0,0:0:0:0:
178,261,53069,5,4,1:2:0:0:
91,112,53283,1,0,0:0:0:0:
91,112,53391,1,0,0:0:0:0:
91,112,53498,2,0,P|153:99|228:144,1,112.5,8|0,0:0|0:0,0:0:0:0:
233,317,53926,1,0,1:0:0:0:
225,125,54141,1,0,0:0:0:0:
109,243,54355,1,8,0:0:0:0:
324,144,54569,1,0,0:0:0:0:
217,242,54783,6,0,P|163:255|74:219,1,112.5,0|0,1:0|0:0,0:0:0:0:
78,216,55105,1,0,0:0:0:0:
78,216,55212,1,8,0:0:0:0:
120,111,55426,1,0,0:0:0:0:
284,178,55641,2,0,P|304:233|272:327,1,112.5,0|0,1:0|0:0,0:0:0:0:
387,203,56069,1,8,0:0:0:0:
161,166,56283,1,0,0:0:0:0:
351,103,56498,5,4,1:2:0:0:
217,242,56712,1,0,0:0:0:0:
254,66,56926,1,8,0:0:0:0:
212,238,57141,5,0,0:0:0:0:
387,194,57355,1,0,1:0:0:0:
264,66,57569,1,0,0:0:0:0:
307,276,57783,1,8,0:0:0:0:
351,103,57998,1,0,0:0:0:0:
209,234,58212,6,0,P|161:210|134:139,1,112.5,0|0,1:0|0:0,0:0:0:0:
146,121,58533,1,0,0:0:0:0:
146,121,58641,1,8,0:0:0:0:
244,46,58855,1,0,0:0:0:0:
221,149,59069,1,0,1:0:0:0:
349,45,59283,1,0,0:0:0:0:
317,200,59498,1,8,0:0:0:0:
302,116,59712,1,0,0:0:0:0:
333,285,59926,5,4,1:2:0:0:
389,123,60141,1,2,0:0:0:0:
389,123,60248,1,0,0:0:0:0:
389,123,60355,1,0,0:0:0:0:
229,206,60569,1,2,0:0:0:0:
138,244,60783,2,0,P|131:210|148:162,1,56.25,2|0,0:0|0:0,0:0:0:0:
68,149,60998,2,0,P|93:125|144:116,1,56.25,2|0,0:0|0:0,0:0:0:0:
213,117,61212,1,2,0:0:0:0:
134,189,61426,1,2,0:0:0:0:
168,37,61641,5,6,1:2:0:0:
229,206,61855,1,0,0:0:0:0:
229,206,61962,1,0,0:0:0:0:
229,206,62069,1,10,0:0:0:0:
113,118,62283,1,0,0:0:0:0:
286,138,62498,2,0,P|317:195|280:274,2,112.5,2|0|10,1:2|0:0|0:0,0:0:0:0:
172,300,63141,6,0,B|212:308|234:335|234:335|271:306|271:306|332:339|396:264,1,225,2|2,0:0|0:0,0:0:0:0:
368,291,63676,1,0,0:0:0:0:
368,291,63783,1,8,0:0:0:0:
229,206,63998,1,2,0:0:0:0:
393,195,64212,1,2,1:2:0:0:
294,95,64426,2,0,L|334:183,1,56.25,2|0,0:0|0:0,0:0:0:0:
414,39,64641,2,0,L|389:113,1,56.25,10|0,0:0|0:0,0:0:0:0:
396,182,64855,1,2,0:0:0:0:
294,95,65069,6,0,B|234:63|234:63|189:102|152:88,1,112.5,6|0,1:2|0:0,0:0:0:0:
80,36,65498,2,0,P|71:102|98:161,1,112.5,10|0,0:0|0:0,0:0:0:0:
213,227,65926,2,0,P|222:161|195:102,1,112.5,2|0,1:2|0:0,0:0:0:0:
43,202,66355,1,10,0:0:0:0:
167,295,66569,6,0,B|223:327|279:279|279:279|343:231|423:295,1,225,2|2,0:0|0:0,0:0:0:0:
376,266,67105,1,0,0:0:0:0:
376,266,67212,1,8,0:0:0:0:
333,345,67426,1,2,0:0:0:0:
313,177,67641,2,0,P|327:155|362:137,1,56.25,2|0,1:2|0:0,0:0:0:0:
459,92,67855,2,0,P|471:115|469:154,1,56.25,2|0,0:0|0:3,0:3:0:0:
459,260,68069,1,10,0:0:0:0:
398,136,68283,1,2,0:0:0:0:
263,244,68498,6,0,P|214:275|141:273,1,112.5,6|0,1:2|0:0,0:0:0:0:
78,153,68926,2,0,P|137:153|186:193,1,112.5,10|0,0:2|0:0,0:0:0:0:
352,114,69355,2,0,P|293:114|244:154,1,112.5,2|0,1:2|0:0,0:0:0:0:
240,224,69783,1,10,0:0:0:0:
399,183,69998,6,0,B|455:137|426:68|426:68|453:111|496:144,1,225,2|2,0:0|0:0,0:0:0:0:
490,139,70533,1,0,0:0:0:0:
490,139,70641,1,8,0:0:0:0:
352,114,70855,1,2,0:0:0:0:
367,281,71069,1,2,1:2:0:0:
426,68,71283,1,2,0:0:0:0:
303,229,71498,1,10,0:0:0:0:
261,72,71712,1,2,0:0:0:0:
193,232,71926,6,0,P|158:278|80:308,1,112.5,6|0,1:2|0:0,0:0:0:0:
78,297,72248,1,0,0:0:0:0:
78,297,72355,1,8,0:0:0:0:
58,130,72569,1,0,0:0:0:0:
178,249,72783,1,0,1:0:0:0:
168,142,72998,1,0,0:0:0:0:
4,220,73212,1,8,0:0:0:0:
138,49,73426,5,0,0:0:0:0:
138,49,73533,1,0,0:0:0:0:
138,49,73641,2,0,P|189:43|242:64,1,90,4|0,1:2|0:0,0:0:0:0:
266,133,74069,1,2,0:0:0:0:
237,218,74283,1,0,0:0:0:0:
187,293,74498,2,0,B|231:313|271:298|271:298|306:317|306:317|376:300,1,180,0|8,1:0|0:0,0:0:0:0:
358,133,75141,5,0,0:0:0:0:
358,133,75248,1,0,0:0:0:0:
358,133,75355,2,0,P|333:181|330:249,1,90,0|0,1:0|0:0,0:0:0:0:
464,229,75783,2,0,P|489:181|492:113,1,90,2|0,0:0|0:0,0:0:0:0:
405,58,76212,2,0,B|361:38|321:53|321:53|286:34|286:34|216:51,1,180,0|8,1:0|0:0,0:0:0:0:
225,215,76855,5,0,0:0:0:0:
225,215,76962,1,0,0:0:0:0:
225,215,77069,2,0,P|250:167|253:99,1,90,0|0,1:0|0:0,0:0:0:0:
233,46,77498,1,2,0:0:0:0:
147,97,77712,1,0,0:0:0:0:
255,131,77926,2,0,P|310:204|277:287,1,180,0|8,1:0|0:0,0:0:0:0:
142,245,78569,5,0,0:0:0:0:
142,245,78676,1,0,0:0:0:0:
142,245,78783,2,0,P|190:218|251:220,1,90,0|0,1:0|0:0,0:0:0:0:
293,80,79212,2,0,P|245:107|184:105,1,90,2|0,0:0|0:0,0:0:0:0:
124,155,79641,2,0,B|76:86|93:33|93:33|126:62|121:92,1,180,0|8,1:0|0:0,0:0:0:0:
293,80,80283,5,0,0:0:0:0:
293,80,80391,1,0,0:0:0:0:
293,80,80498,1,0,1:0:0:0:
210,128,80712,1,0,0:0:0:0:
269,197,80926,1,2,0:0:0:0:
132,177,81141,1,0,0:0:0:0:
219,264,81355,2,0,P|283:278|352:179,1,180,0|8,1:0|0:0,0:0:0:0:
204,61,81998,5,0,0:0:0:0:
204,61,82105,1,0,0:0:0:0:
204,61,82212,2,0,P|159:63|115:57,1,90,0|0,1:0|0:0,0:0:0:0:
234,144,82641,2,0,P|279:142|324:149,1,90,2|0,0:0|0:0,0:0:0:0:
422,164,83069,2,0,P|369:233|282:234,1,180,0|8,1:0|0:0,0:0:0:0:
385,63,83712,5,0,0:0:0:0:
385,63,83819,1,0,0:0:0:0:
385,63,83926,1,0,1:0:0:0:
324,149,84141,1,0,0:0:0:0:
422,164,84355,2,0,P|445:209|444:263,1,90,2|0,0:0|0:0,0:0:0:0:
334,282,84783,2,0,P|361:220|276:247,1,180,0|8,1:0|0:0,0:0:0:0:
165,308,85426,5,0,0:0:0:0:
165,308,85533,1,0,0:0:0:0:
165,308,85641,2,0,P|142:263|143:209,1,90,0|0,1:0|0:0,0:0:0:0:
176,132,86069,1,2,0:0:0:0:
144,32,86283,1,0,0:0:0:0:
244,72,86498,2,0,B|280:133|243:188|243:188|261:217|261:252,1,180,0|8,1:0|0:0,0:0:0:0:
428,186,87141,5,0,0:0:0:0:
428,186,87248,1,0,0:0:0:0:
428,186,87355,2,0,P|379:192|325:179,1,90,0|0,1:0|0:0,0:0:0:0:
261,329,87783,2,0,P|267:280|254:226,1,90,2|0,0:0|0:0,0:0:0:0:
213,140,88212,2,0,B|201:82|257:61|257:61|291:80|339:71,1,180,0|8,1:0|0:0,0:0:0:0:
360,238,88855,5,0,0:0:0:0:
360,238,88962,1,0,0:0:0:0:
360,238,89069,1,0,1:0:0:0:
286,151,89283,1,0,0:0:0:0:
199,225,89498,1,2,0:0:0:0:
190,112,89712,1,0,0:0:0:0:
277,243,89926,2,0,B|289:301|233:322|233:322|199:303|151:312,1,180,0|8,1:0|0:0,0:0:0:0:
80,155,90569,5,0,0:0:0:0:
80,155,90676,1,0,0:0:0:0:
80,155,90783,2,0,B|81:205|81:205|90:253,1,90,0|0,1:0|0:0,0:0:0:0:
162,86,91212,2,0,B|154:135|154:135|154:184,1,90,2|0,0:2|0:0,0:0:0:0:
386,174,91641,2,0,B|385:124|385:124|376:76,1,90,0|0,1:0|0:0,0:0:0:0:
304,243,92070,2,0,B|311:193|311:193|311:144,1,90,2|0,0:2|0:0,0:0:0:0:
360,320,92498,1,4,1:2:0:0:
475,192,92712,5,0,0:0:0:0:
475,192,92819,1,0,0:0:0:0:
475,192,92926,2,0,P|475:152|459:120,3,45,4|0|0|0,0:2|0:0|0:0|0:0,0:0:0:0:
386,174,93355,2,0,P|386:214|402:246,3,45,4|0|0|0,1:2|0:0|0:0|0:0,0:0:0:0:
408,256,93783,1,0,0:0:0:0:
390,296,93891,1,0,0:0:0:0:
354,323,93998,1,0,0:0:0:0:
310,330,94105,1,0,0:0:0:0:
269,315,94212,6,0,B|256:280|240:264|240:264|256:232|256:232|232:200|240:136,1,168.75,4|0,1:2|0:0,0:0:0:0:
264,80,94641,1,8,0:0:0:0:
320,184,94855,1,0,0:0:0:0:
144,56,95069,1,0,1:0:0:0:
168,224,95283,1,0,0:0:0:0:
344,104,95498,1,8,0:0:0:0:
117,144,95712,1,0,0:0:0:0:
320,184,95926,6,0,P|384:180|424:136,1,112.5,0|0,1:0|0:0,0:0:0:0:
454,72,96248,1,0,0:0:0:0:
454,72,96355,2,0,L|466:213,1,112.5,8|0,0:0|0:0,0:0:0:0:
329,296,96783,2,0,L|317:155,1,112.5,0|0,1:0|0:0,0:0:0:0:
183,88,97212,2,0,L|195:229,1,112.5,8|0,0:0|0:0,0:0:0:0:
117,313,97641,5,4,1:2:0:0:
48,162,97855,1,0,0:0:0:0:
48,162,97962,1,0,0:0:0:0:
48,162,98069,1,8,0:0:0:0:
148,222,98283,1,0,0:0:0:0:
267,134,98498,1,0,1:0:0:0:
250,278,98712,1,0,0:0:0:0:
369,190,98926,1,8,0:0:0:0:
341,340,99141,1,0,0:0:0:0:
435,245,99355,6,0,P|454:189|430:126,1,112.5,0|0,1:0|0:0,0:0:0:0:
411,112,99676,1,0,0:0:0:0:
411,112,99783,1,8,0:0:0:0:
302,94,99998,1,0,0:0:0:0:
369,190,100212,1,0,1:0:0:0:
200,220,100426,1,0,0:0:0:0:
256,318,100641,1,8,0:0:0:0:
256,318,100855,1,0,0:0:0:0:
369,190,101069,5,4,1:2:0:0:
369,190,101283,1,0,0:0:0:0:
189,145,101498,1,8,0:0:0:0:
189,145,101712,1,0,0:0:0:0:
309,20,101926,1,0,1:0:0:0:
309,20,102141,1,0,0:0:0:0:
259,193,102355,2,0,P|218:225|151:220,1,112.5,8|0,0:0|0:0,0:0:0:0:
79,55,102783,6,0,B|86:97|79:126|79:126|91:143|111:157|111:157|85:178|78:217,1,168.75,0|0,1:0|0:0,0:0:0:0:
60,254,103212,2,0,P|101:222|168:227,1,112.5,8|0,0:0|0:0,0:0:0:0:
290,317,103641,1,0,1:0:0:0:
254,185,103855,1,0,0:0:0:0:
385,151,104069,1,8,0:0:0:0:
420,281,104283,1,0,0:0:0:0:
288,224,104498,6,8,B|263:160|270:125|335:92|352:17|213:-39|198:84|198:84|106:-12|23:119|103:174|151:189|211:191|289:180,1,675,4|8,1:2|0:0,0:0:0:0:
479,183,106212,5,0,1:0:0:0:
431,294,106426,1,0,0:0:0:0:
431,294,106533,1,0,0:0:0:0:
431,294,106641,1,8,0:0:0:0:
281,249,106855,1,0,0:0:0:0:
321,147,107069,2,0,L|292:31,1,112.5,0|0,1:0|0:0,0:0:0:0:
191,237,107498,2,0,L|220:353,1,112.5,8|0,0:0|0:0,0:0:0:0:
98,241,107926,6,0,B|97:198|123:171|123:171|90:108|132:49,1,168.75,4|0,1:2|0:0,0:0:0:0:
159,17,108355,2,0,P|193:72|170:140,1,112.5,8|0,0:0|0:0,0:0:0:0:
31,168,108783,1,0,1:0:0:0:
191,237,108998,1,0,0:0:0:0:
114,81,109212,1,8,0:0:0:0:
98,241,109426,1,0,0:0:0:0:
264,175,109641,6,0,P|346:185|369:253,1,112.5,0|0,1:0|0:0,0:0:0:0:
361,204,109962,1,0,0:0:0:0:
361,204,110069,1,8,0:0:0:0:
422,119,110283,1,0,0:0:0:0:
292,250,110498,2,0,P|285:311|300:367,1,112.5,0|0,1:0|0:0,0:0:0:0:
220,134,110926,2,0,P|227:73|212:17,1,112.5,8|0,0:0|0:0,0:0:0:0:
91,91,111355,5,4,1:2:0:0:
304,69,111569,1,0,0:0:0:0:
304,69,111676,1,0,0:0:0:0:
304,69,111783,1,8,0:0:0:0:
167,41,111998,5,0,0:0:0:0:
195,149,112212,1,0,1:0:0:0:
304,69,112426,1,0,0:0:0:0:
276,177,112641,1,8,0:0:0:0:
126,208,112855,1,0,0:0:0:0:
154,316,113069,1,0,1:0:0:0:
310,294,113283,5,0,0:0:0:0:
310,294,113391,1,0,0:0:0:0:
310,294,113498,2,0,P|373:290|436:320,1,112.5,8|0,0:0|0:0,0:0:0:0:
399,92,113926,2,0,P|380:144|385:200,1,112.5,0|0,1:0|0:0,0:0:0:0:
288,97,114355,1,8,0:0:0:0:
288,97,114569,1,0,0:0:0:0:
206,206,114783,6,0,P|154:214|86:209,1,112.5,4|0,1:2|0:0,0:0:0:0:
288,97,115212,2,0,P|340:89|408:94,1,112.5,8|0,0:0|0:0,0:0:0:0:
205,179,115641,2,0,P|156:160|100:121,1,112.5,0|0,1:0|0:0,0:0:0:0:
331,125,116069,2,0,P|380:144|436:183,1,112.5,8|0,0:0|0:0,0:0:0:0:
239,273,116498,2,0,B|248:247|235:221|235:221|243:191|243:191|212:149|228:75,1,168.75,0|0,1:0|0:0,0:0:0:0:
270,27,116926,5,8,0:0:0:0:
331,125,117141,1,0,0:0:0:0:
222,111,117355,1,0,1:0:0:0:
164,207,117569,1,0,0:0:0:0:
277,196,117783,1,8,0:0:0:0:
338,294,117998,1,0,0:0:0:0:
397,170,118212,6,0,P|410:145|408:104,3,56.25,0|2|2|2,1:0|0:3|0:3|0:3,0:0:0:0:
402,250,118641,2,0,P|415:275|413:316,3,56.25,0|2|2|2,1:0|0:3|0:3|0:3,0:0:0:0:
321,197,119069,5,0,1:0:0:0:
300,189,119176,1,2,0:3:0:0:
279,186,119283,1,2,0:3:0:0:
259,186,119391,1,2,0:3:0:0:
238,191,119498,1,0,1:0:0:0:
219,199,119605,1,2,0:3:0:0:
201,210,119712,1,2,0:3:0:0:
186,225,119819,1,2,0:3:0:0:
177,239,119926,5,4,1:2:0:0:
