osu file format v14

[General]
AudioFilename: audio.mp3
AudioLeadIn: 0
PreviewTime: 34426
Countdown: 0
SampleSet: Soft
StackLeniency: 0.7
Mode: 0
LetterboxInBreaks: 0
WidescreenStoryboard: 0

[Editor]
Bookmarks: 73651,119936
DistanceSpacing: 1.2
BeatDivisor: 4
GridSize: 4
TimelineZoom: 1.6

[Metadata]
Title:Devchonka ryjaya
TitleUnicode:Девчонка рыжая
Artist:Vorovaiki
ArtistUnicode:Воровайки
Creator:Marmowka
Version:Namki's Advanced
Source:
Tags:russian русский шансон chanson cut nattu bakari -bakari- namki
BeatmapID:997751
BeatmapSetID:464507

[Difficulty]
HPDrainRate:4
CircleSize:3.4
OverallDifficulty:5
ApproachRate:5.5
SliderMultiplier:1.4
SliderTickRate:1

[Events]
//Background and Video events
0,0,"64.jpg",0,0
0,0,"64.jpg",0,0
//Break Periods
//Storyboard Layer 0 (Background)
//Storyboard Layer 1 (Fail)
//Storyboard Layer 2 (Pass)
//Storyboard Layer 3 (Foreground)
//Storyboard Sound Samples

[TimingPoints]
1641,428.571428571429,4,2,0,65,1,0
35926,-100,4,2,0,65,0,1
49533,-100,4,2,0,65,0,0
49641,-100,4,2,0,65,0,1
61533,-100,4,2,0,65,0,0
61641,-100,4,2,0,65,0,1
73641,-100,4,2,0,65,0,0
94212,-100,4,2,0,65,0,1
107819,-100,4,2,0,65,0,0
107926,-100,4,2,0,65,0,1
118212,-100,4,2,0,65,0,0

[Colours]
Combo1 : 179,180,175
Combo2 : 255,255,149
Combo3 : 125,0,0
Combo4 : 255,70,70
Combo5 : 255,158,62

[HitObjects]
104,208,1641,6,0,P|152:200|180:192,1,70,6|0,1:2|0:0,0:0:0:0:
245,152,2069,2,0,P|284:156|336:177,1,70,10|0,0:0|0:0,0:0:0:0:
378,218,2498,1,2,1:2:0:0:
480,350,2926,1,10,0:0:0:0:
472,266,3141,2,0,L|486:168,1,70,2|0,0:0|1:0,0:0:0:0:
454,117,3569,6,0,P|481:96|496:65,2,70,2|8|0,0:0|0:0|0:0,0:0:0:0:
405,48,4212,1,2,1:2:0:0:
326,78,4426,1,2,0:0:0:0:
249,42,4641,2,0,P|209:43|172:31,1,70,10|2,0:0|0:0,0:0:0:0:
96,31,5069,6,0,P|113:74|90:169,1,140,6|10,1:2|0:0,0:0:0:0:
9,308,5926,2,0,P|62:300|94:308,1,70,2|0,0:0|0:0,0:0:0:0:
161,296,6355,2,0,P|202:306|245:298,2,70,10|2|0,0:0|0:0|1:0,0:0:0:0:
202,222,6998,6,0,P|208:185|206:144,1,70,2|8,0:0|0:0,0:0:0:0:
248,79,7426,1,2,0:0:0:0:
325,111,7641,2,0,P|383:108|458:51,1,140,2|10,1:2|0:0,0:0:0:0:
429,230,8498,6,0,P|423:272|490:357,1,140,6|10,1:2|0:0,0:0:0:0:
506,185,9355,2,0,P|475:154|419:145,1,70,2|0,1:2|0:3,0:0:0:0:
368,157,9783,2,0,P|320:173|278:167,2,70,10|2|0,0:0|0:0|1:0,0:0:0:0:
314,91,10426,6,0,P|271:81|224:87,1,70,2|8,0:0|0:0,0:0:0:0:
161,93,10855,1,2,0:0:0:0:
89,48,11069,2,0,B|109:95|109:95|90:208,1,140,2|10,1:2|0:0,0:0:0:0:
120,348,11926,5,6,1:2:0:0:
285,315,12355,2,0,L|378:320,1,70,8|0,0:0|0:0,0:0:0:0:
437,302,12783,2,0,P|447:246|441:211,1,70,0|0,1:0|0:0,0:0:0:0:
412,156,13212,1,8,0:0:0:0:
286,268,13641,6,0,P|223:233|217:149,1,140
298,44,14498,2,0,L|292:194,1,140
410,303,15355,6,0,P|370:285|328:282,1,70,4|0,1:2|0:0,0:0:0:0:
261,291,15783,1,2,0:0:0:0:
181,316,15998,1,0,0:0:0:0:
103,347,16212,2,0,P|133:285|125:188,1,140,0|8,1:0|0:0,0:0:0:0:
38,76,17069,6,0,P|76:96|113:92,1,70,0|0,1:0|0:0,0:0:0:0:
186,88,17498,2,0,P|233:77|266:78,1,70,2|0,0:0|0:0,0:0:0:0:
329,114,17926,1,0,1:0:0:0:
477,35,18355,1,8,0:0:0:0:
409,192,18783,6,0,P|424:235|459:263,2,70,0|0|2,1:0|0:0|0:0,0:0:0:0:
415,107,19426,1,0,0:0:0:0:
337,140,19641,2,0,L|167:135,1,140,0|8,1:0|0:0,0:0:0:0:
48,56,20498,6,0,L|57:137,1,70,0|0,1:0|0:0,0:0:0:0:
77,206,20926,2,0,L|53:298,1,70,2|0,0:0|0:0,0:0:0:0:
75,356,21355,1,0,1:0:0:0:
239,324,21783,1,8,0:0:0:0:
405,346,22212,6,0,P|454:353|496:350,2,70,0|0|2,1:0|0:0|0:0,0:0:0:0:
347,284,22855,1,0,0:0:0:0:
327,202,23069,1,0,1:0:0:0:
410,56,23498,1,8,0:0:0:0:
242,71,23926,6,0,P|190:59|169:45,2,70,0|0|2,1:0|0:0|0:0,0:0:0:0:
328,82,24569,1,0,0:0:0:0:
410,56,24783,1,0,1:0:0:0:
491,202,25212,1,8,0:0:0:0:
387,334,25641,6,0,L|237:329,1,140,0|2,1:0|0:0,0:0:0:0:
170,364,26283,1,0,0:0:0:0:
102,313,26498,2,0,P|93:274|102:223,1,70,0|0,1:0|0:0,0:0:0:0:
143,175,26926,1,8,0:0:0:0:
20,60,27355,6,0,P|72:70|172:52,1,140,0|2,1:0|0:0,0:0:0:0:
234,24,27998,1,0,0:0:0:0:
311,55,28212,1,0,1:0:0:0:
476,26,28641,1,8,0:0:0:0:
431,187,29069,6,0,P|426:238|434:263,1,70,0|0,1:0|0:0,0:0:0:0:
497,306,29498,2,0,L|330:309,1,140,2|0,0:0|1:0,0:0:0:0:
199,367,30355,1,8,0:0:0:0:
86,242,30783,6,0,P|87:189|76:153,1,70,0|0,1:0|0:0,0:0:0:0:
12,127,31212,2,0,B|77:132|77:132|172:107,1,140,2|0,0:0|1:0,0:0:0:0:
304,49,32069,1,8,0:0:0:0:
437,151,32498,6,0,P|432:194|440:223,1,70,0|0,1:0|0:0,0:0:0:0:
427,302,32926,2,0,P|382:287|357:286,1,70,2|0,0:2|0:0,0:0:0:0:
285,246,33355,2,0,P|306:208|315:170,1,70,0|0,1:0|0:0,0:0:0:0:
276,106,33783,2,0,P|236:102|205:114,1,70,0|0,1:0|0:0,0:0:0:0:
151,173,34212,5,4,1:2:0:0:
57,300,35926,6,0,B|102:305|102:305|149:297|149:297|209:306,1,140,4|8,1:2|0:0,0:0:0:0:
268,344,36569,1,0,0:0:0:0:
334,293,36783,2,0,P|341:247|327:196,1,70,0|0,1:0|0:0,0:0:0:0:
309,149,37212,2,0,P|330:105|357:79,1,70,8|0,0:0|0:0,0:0:0:0:
423,60,37641,1,0,1:0:0:0:
257,31,38069,5,8,0:0:0:0:
103,99,38498,2,0,P|67:93|36:73,2,70,0|0|8,1:0|0:0|0:0,0:0:0:0:
187,103,39141,1,0,0:0:0:0:
150,178,39355,6,0,P|155:245|177:333,1,140,4|8,1:2|0:0,0:0:0:0:
242,360,39998,1,0,0:0:0:0:
315,318,40212,2,0,P|349:317|391:319,1,70,0|0,1:0|0:0,0:0:0:0:
465,343,40641,2,0,P|458:301|470:251,1,70,8|0,0:0|0:0,0:0:0:0:
454,190,41069,1,0,1:0:0:0:
448,21,41498,6,0,P|412:20|361:28,1,70,8|0,0:0|0:0,0:0:0:0:
327,91,41926,2,0,B|256:103|256:103|173:85,1,140,0|8,1:0|0:0,0:0:0:0:
113,51,42569,1,0,0:0:0:0:
43,98,42783,6,0,L|51:171,1,70,4|0,1:2|0:0,0:0:0:0:
56,251,43212,1,8,0:0:0:0:
45,334,43426,1,0,0:0:0:0:
126,312,43641,2,0,P|191:308|278:321,1,140,0|8,1:0|0:0,0:0:0:0:
341,351,44283,2,0,P|385:356|431:343,1,70,0|0,0:0|1:0,0:0:0:0:
471,195,44926,6,0,L|464:104,2,70,8|0|0,0:0|0:0|1:0,0:0:0:0:
426,266,45569,1,0,0:0:0:0:
359,215,45783,2,0,P|321:197|281:195,1,70,8|0,0:0|0:0,0:0:0:0:
210,207,46212,5,4,1:2:0:0:
104,337,46641,1,8,0:0:0:0:
50,178,47069,2,0,L|-9:170,2,35,2|0|0,1:3|0:3|1:0,0:0:0:0:
59,94,47498,2,0,L|52:44,2,35,8|2|2,0:0|0:3|0:3,0:0:0:0:
137,65,47926,2,0,L|183:36,2,35,0|0|0,0:3|0:0|0:0,0:0:0:0:
151,148,48355,6,0,P|174:181|220:201,1,70,8|0,0:0|0:0,0:0:0:0:
276,163,48783,2,0,L|352:158,1,70
425,187,49212,2,0,P|425:224|411:259,1,70,8|0,0:0|0:0,0:0:0:0:
347,305,49641,6,0,L|177:301,1,140,4|8,1:2|0:0,0:0:0:0:
127,327,50283,1,0,0:0:0:0:
55,282,50498,2,0,P|54:247|60:212,1,70,0|0,1:0|0:0,0:0:0:0:
111,145,50926,2,0,P|147:137|195:143,1,70,8|0,0:0|0:0,0:0:0:0:
245,192,51355,1,0,1:0:0:0:
392,272,51783,6,0,P|352:223|342:128,1,140,8|0,0:0|1:0,0:0:0:0:
422,140,52426,1,0,0:0:0:0:
456,63,52641,1,8,0:0:0:0:
289,39,53069,6,0,B|252:50|252:50|216:37|216:37|176:50|125:42,1,140,4|8,1:2|0:0,0:0:0:0:
69,37,53712,1,0,0:0:0:0:
28,110,53926,2,0,L|33:193,1,70,0|0,1:0|0:0,0:0:0:0:
70,254,54355,2,0,L|65:337,1,70,8|0,0:0|0:0,0:0:0:0:
134,372,54783,1,0,1:0:0:0:
276,282,55212,6,0,B|344:262|344:262|440:291,1,140,8|0,0:0|1:0,0:0:0:0:
479,329,55855,1,0,0:0:0:0:
505,249,56069,1,8,0:0:0:0:
453,88,56498,6,0,P|416:91|374:84,1,70,4|0,1:2|0:0,0:0:0:0:
307,50,56926,2,0,P|265:50|227:67,1,70,8|0,0:0|0:0,0:0:0:0:
165,18,57355,2,0,B|189:65|189:65|152:164,1,140,0|8,1:0|0:0,0:0:0:0:
50,275,58212,1,0,1:0:0:0:
256,192,58641,12,4,59926,1:2:0:0:
57,312,61641,6,0,P|102:327|148:322,1,70,6|0,1:2|0:0,0:0:0:0:
182,266,62069,2,0,L|183:184,1,70,10|0,0:0|0:0,0:0:0:0:
118,142,62498,2,0,P|83:144|50:157,2,70,2|0|10,1:2|0:0|0:0,0:0:0:0:
195,110,63141,2,0,B|264:95|264:95|352:113,1,140,0|8,0:0|0:0,0:0:0:0:
496,71,63998,5,2,0:0:0:0:
504,154,64212,2,0,P|507:191|502:243,1,70,2|2,1:2|0:0,0:0:0:0:
478,303,64641,1,10,0:0:0:0:
310,304,65069,6,0,L|225:313,1,70,6|0,1:2|0:0,0:0:0:0:
158,332,65498,2,0,L|73:324,1,70,10|0,0:0|0:0,0:0:0:0:
22,273,65926,2,0,P|15:233|22:187,2,70,2|0|10,1:2|0:0|0:0,0:0:0:0:
96,236,66569,2,0,B|105:195|88:157|88:157|106:125|96:95,1,140,0|8,0:0|0:0,0:0:0:0:
260,52,67426,5,2,0:0:0:0:
340,80,67640,2,0,P|380:84|424:72,1,70,2|2,1:2|0:0,0:0:0:0:
488,48,68069,1,10,0:0:0:0:
480,216,68498,6,0,B|476:296|476:296|412:364,2,140,6|10|2,1:2|0:2|1:2,0:0:0:0:
324,156,69783,2,0,P|292:148|240:156,1,70,10|2,0:0|0:0,0:0:0:0:
256,192,70212,12,6,71926,1:2:0:0:
41,118,73641,6,0,P|79:119|116:107,1,70,4|0,1:2|0:0,0:0:0:0:
183,70,74069,2,0,P|225:70|273:80,1,70,2|0,0:0|0:0,0:0:0:0:
319,22,74498,2,0,P|291:75|326:158,1,140,0|8,1:0|0:0,0:0:0:0:
426,272,75355,6,0,P|388:268|291:328,1,140,0|2,1:0|0:0,0:0:0:0:
242,374,75998,1,0,0:0:0:0:
171,329,76212,2,0,P|119:332|89:328,2,70,0|0|8,1:0|0:0|0:0,0:0:0:0:
127,166,77069,6,0,P|113:124|171:53,1,140,0|2,1:0|0:0,0:0:0:0:
246,27,77712,1,0,0:0:0:0:
311,79,77926,2,0,P|351:79|401:72,1,70,0|0,1:0|0:0,0:0:0:0:
453,33,78355,1,8,0:0:0:0:
491,196,78783,6,0,P|505:239|496:283,2,70,0|0|2,1:0|0:0|0:0,0:0:0:0:
413,163,79426,1,0,0:0:0:0:
351,220,79641,2,0,L|191:222,1,140,0|8,1:0|0:0,0:0:0:0:
70,313,80498,6,0,P|81:270|69:234,1,70,0|0,1:0|0:0,0:0:0:0:
38,170,80926,2,0,P|39:130|54:97,1,70,2|0,0:0|0:0,0:0:0:0:
120,55,81355,2,0,B|161:60|161:60|191:49|191:49|232:61|265:55,1,140,0|8,1:0|0:0,0:0:0:0:
423,29,82212,6,0,P|401:97|446:178,1,140,0|2,1:0|0:0,0:0:0:0:
480,221,82855,1,0,0:0:0:0:
449,298,83069,2,0,P|469:335|472:382,2,70,0|0|8,1:0|0:0|0:0,0:0:0:0:
286,339,83926,6,0,P|212:345|127:340,1,140,0|2,1:0|0:0,0:0:0:0:
55,200,84783,2,0,P|129:194|214:199,1,140,0|8,1:0|0:0,0:0:0:0:
345,274,85641,6,0,P|325:232|322:192,1,70,0|0,1:0|0:0,0:0:0:0:
380,155,86069,2,0,P|385:108|378:64,1,70,2|0,0:0|0:0,0:0:0:0:
448,32,86498,2,0,P|412:48|301:26,1,140,0|8,1:0|0:0,0:0:0:0:
146,41,87355,6,0,P|169:83|141:189,1,140,0|2,1:0|0:0,0:0:0:0:
94,228,87998,1,0,0:0:0:0:
142,296,88212,2,0,B|181:303|181:303|219:288|219:288|258:308|303:294,1,140,0|8,1:0|0:0,0:0:0:0:
432,362,89069,6,0,P|417:331|411:282,1,70,0|0,1:0|0:0,0:0:0:0:
466,233,89498,2,0,P|467:198|460:146,1,70,2|0,0:0|0:0,0:0:0:0:
512,96,89926,2,0,P|468:113|364:86,1,140,0|8,1:0|0:0,0:0:0:0:
213,68,90783,6,0,P|176:60|134:66,1,70,0|0,1:0|0:0,0:0:0:0:
107,139,91212,2,0,P|143:146|186:141,1,70,2|0,0:2|0:0,0:0:0:0:
243,193,91641,2,0,L|236:284,1,70,0|0,1:0|0:0,0:0:0:0:
318,285,92069,2,0,L|323:215,1,70,0|0,1:0|0:0,0:0:0:0:
377,150,92498,1,4,1:2:0:0:
81,93,94212,6,0,B|151:112|151:112|229:91,1,140,4|8,1:2|0:0,0:0:0:0:
288,51,94855,1,0,0:0:0:0:
334,120,95069,2,0,P|335:155|330:200,1,70,0|0,1:0|0:0,0:0:0:0:
279,255,95498,2,0,P|282:295|305:328,1,70,8|0,0:0|0:0,0:0:0:0:
369,362,95926,1,0,1:0:0:0:
200,364,96355,6,0,B|155:374|155:374|120:356|120:356|86:377|51:368,1,140,8|0,0:0|1:0,0:0:0:0:
18,302,96998,1,0,0:0:0:0:
58,228,97212,2,0,P|64:182|49:133,1,70,8|0,0:0|0:0,0:0:0:0:
0,100,97641,6,0,P|37:113|137:87,1,140,4|8,1:2|0:0,0:0:0:0:
198,39,98283,1,0,0:0:0:0:
254,101,98498,2,0,P|294:103|323:94,1,70,0|0,1:0|0:0,0:0:0:0:
402,123,98926,2,0,P|436:114|488:123,1,70,8|0,0:0|0:0,0:0:0:0:
512,43,99355,1,0,1:0:0:0:
468,205,99783,6,0,L|475:349,1,140,8|0,0:0|1:0,0:0:0:0:
398,381,100426,1,0,0:0:0:0:
328,333,100641,2,0,P|287:341|249:335,1,70,8|0,0:0|0:0,0:0:0:0:
203,275,101069,6,0,P|132:257|68:308,1,140,4|8,1:2|0:0,0:0:0:0:
23,353,101712,1,0,0:0:0:0:
1,273,101926,2,0,L|-2:177,1,70,0|0,1:0|0:0,0:0:0:0:
39,128,102355,2,0,L|46:30,1,70,8|0,0:0|0:0,0:0:0:0:
115,14,102783,1,0,1:0:0:0:
231,134,103212,6,0,P|270:134|317:124,1,70,8|0,0:0|0:0,0:0:0:0:
372,85,103641,2,0,P|409:85|450:105,1,70,0|0,1:0|0:0,0:0:0:0:
498,156,104069,2,0,B|489:193|489:193|499:227,1,70,8|0,0:0|0:0,0:0:0:0:
256,192,104498,12,0,106212,1:0:0:0:
155,83,107926,6,0,P|111:82|68:68,2,70,4|0|8,1:2|0:0|0:0,0:0:0:0:
228,42,108569,1,0,0:0:0:0:
301,82,108783,2,0,B|306:123|306:123|286:154|286:154|299:190|279:231,1,140,0|8,1:0|0:0,0:0:0:0:
228,276,109426,1,0,0:0:0:0:
270,348,109641,1,0,1:0:0:0:
436,368,110069,6,0,P|464:332|452:225,1,140,8|0,0:0|1:0,0:0:0:0:
409,175,110712,1,0,0:0:0:0:
450,102,110926,1,8,0:0:0:0:
291,46,111355,6,0,B|227:70|227:70|156:44,1,140,4|8,1:2|0:0,0:0:0:0:
80,17,111998,1,0,0:0:0:0:
20,76,112212,2,0,P|16:117|29:154,1,70,0|0,1:0|0:0,0:0:0:0:
82,204,112641,2,0,P|81:251|67:295,1,70,8|0,0:0|0:0,0:0:0:0:
12,328,113069,6,0,P|74:311|163:349,1,140,0|8,1:0|0:0,0:0:0:0:
215,379,113712,1,0,0:0:0:0:
273,319,113926,2,0,P|313:314|356:324,1,70,0|0,1:0|0:0,0:0:0:0:
427,326,114355,2,0,P|435:287|429:245,1,70,8|0,0:0|0:0,0:0:0:0:
484,191,114783,6,0,P|456:139|463:46,1,140,4|8,1:2|0:0,0:0:0:0:
393,5,115426,1,0,0:0:0:0:
328,59,115641,2,0,L|163:54,1,140,0|8,1:0|0:0,0:0:0:0:
105,41,116283,1,0,0:0:0:0:
38,92,116498,1,0,1:0:0:0:
32,259,116926,6,0,P|84:260|114:253,1,70,8|0,0:0|0:0,0:0:0:0:
178,221,117355,2,0,P|218:219|258:227,1,70,0|0,1:0|0:0,0:0:0:0:
305,284,117783,2,0,P|340:285|390:274,1,70,8|0,0:0|0:0,0:0:0:0:
256,192,118212,12,4,119926,1:2:0:0:
