osu file format v14

[General]
AudioFilename: audio.mp3
AudioLeadIn: 0
PreviewTime: 34426
Countdown: 0
SampleSet: Soft
StackLeniency: 0.7
Mode: 0
LetterboxInBreaks: 0
WidescreenStoryboard: 0

[Editor]
DistanceSpacing: 1.2
BeatDivisor: 4
GridSize: 8
TimelineZoom: 2.1

[Metadata]
Title:Devchonka ryjaya
TitleUnicode:Девчонка рыжая
Artist:Vorovaiki
ArtistUnicode:Воровайки
Creator:Marmowka
Version:Challenging
Source:
Tags:russian русский шансон chanson cut nattu bakari -bakari- namki
BeatmapID:997750
BeatmapSetID:464507

[Difficulty]
HPDrainRate:5
CircleSize:4
OverallDifficulty:6
ApproachRate:7.5
SliderMultiplier:1.5
SliderTickRate:1

[Events]
//Background and Video events
0,0,"64.jpg",0,0
//Break Periods
//Storyboard Layer 0 (Background)
//Storyboard Layer 1 (Fail)
//Storyboard Layer 2 (Pass)
//Storyboard Layer 3 (Foreground)
//Storyboard Sound Samples

[TimingPoints]
1641,428.571428571429,4,2,0,65,1,0
1641,-80,4,2,0,65,0,0
15355,-100,4,2,0,50,0,0
35926,-80,4,2,0,65,0,1
49426,-80,4,2,0,65,0,0
49641,-80,4,2,0,65,0,1
61426,-100,4,2,0,65,0,0
61641,-80,4,2,0,65,0,1
73641,-100,4,2,0,50,0,0
94212,-80,4,2,0,65,0,1
107712,-80,4,2,0,50,0,0
107926,-80,4,2,0,65,0,1
119926,-100,4,2,0,70,0,0

[Colours]
Combo1 : 179,180,175
Combo2 : 255,255,149
Combo3 : 125,0,0
Combo4 : 255,70,70
Combo5 : 255,158,62

[HitObjects]
424,233,1641,6,0,P|376:223|327:236,1,93.75,6|0,1:2|0:0,0:0:0:0:
246,273,2069,2,0,P|200:282|151:270,1,93.75,10|0,0:0|0:0,0:0:0:0:
108,191,2498,2,0,L|113:88,1,93.75,2|0,1:2|0:0,0:0:0:0:
173,27,2926,1,10,0:0:0:0:
229,102,3141,1,2,0:0:0:0:
229,102,3355,6,0,P|274:114|336:97,1,93.75,0|2,1:0|0:0,0:0:0:0:
406,69,3783,1,8,0:0:0:0:
476,131,3998,1,2,0:0:0:0:
476,131,4212,2,0,B|475:204|475:204|465:230,1,93.75,2|2,1:2|0:0,0:0:0:0:
453,316,4641,1,10,0:0:0:0:
376,261,4855,1,2,0:0:0:0:
289,297,5069,6,0,L|178:304,1,93.75,6|0,1:2|0:0,0:0:0:0:
163,214,5498,2,0,L|271:206,1,93.75,10|0,0:0|0:0,0:0:0:0:
238,115,5926,2,0,L|128:123,1,93.75,2|0,0:0|0:0,0:0:0:0:
84,193,6354,1,10,0:0:0:0:
84,193,6569,1,2,0:0:0:0:
111,283,6783,6,0,B|178:290|178:290|216:277,1,93.75,0|2,1:0|0:0,0:0:0:0:
286,239,7211,1,8,0:0:0:0:
349,169,7426,1,2,0:0:0:0:
349,169,7640,2,0,P|359:124|338:68,1,93.75,2|2,1:2|0:0,0:0:0:0:
258,48,8069,1,10,0:0:0:0:
258,48,8283,1,2,0:0:0:0:
172,106,8498,6,0,P|121:117|73:100,1,93.75,6|0,1:2|0:0,0:0:0:0:
258,169,8926,2,0,P|304:179|354:167,1,93.75,10|0,0:0|0:3,0:0:0:0:
171,243,9355,2,0,P|123:253|75:239,1,93.75,2|0,1:2|0:3,0:0:0:0:
126,161,9783,1,10,0:0:0:0:
195,97,9998,1,2,0:0:0:0:
258,169,10212,6,0,P|272:218|248:268,1,93.75,0|2,1:0|0:0,0:0:0:0:
180,310,10640,1,8,0:0:0:0:
85,310,10855,1,2,0:0:0:0:
9,254,11069,2,0,P|-3:205|17:155,1,93.75,2|2,1:2|0:0,0:0:0:0:
69,91,11498,2,0,P|109:75|179:81,1,93.75,10|2,0:0|0:0,0:0:0:0:
216,148,11926,6,0,P|237:189|285:210,1,93.75,6|0,1:2|0:0,0:0:0:0:
307,112,12355,2,0,P|285:71|236:51,1,93.75,8|0,0:0|0:0,0:0:0:0:
216,148,12783,2,0,L|212:259,1,93.75,0|0,1:0|0:0,0:0:0:0:
282,303,13211,1,8,0:0:0:0:
367,263,13426,1,0,3:0:0:0:
256,192,13642,12,10,14927,0:0:0:0:
224,327,15355,6,0,L|301:324,1,75,4|0,1:2|0:0,0:0:0:0:
390,317,15783,1,2,0:0:0:0:
462,263,15998,1,0,0:0:0:0:
470,173,16212,2,0,B|471:135|471:135|457:97,1,75,0|0,1:0|0:0,0:0:0:0:
385,47,16641,2,0,L|307:48,1,75,8|0,0:0|0:0,0:0:0:0:
244,97,17069,5,0,1:0:0:0:
166,52,17283,1,0,0:0:0:0:
166,142,17498,1,2,0:0:0:0:
89,95,17712,1,0,0:0:0:0:
86,184,17926,2,0,L|84:271,1,75,0|0,1:0|0:0,0:0:0:0:
122,340,18355,2,0,P|161:333|199:342,1,75,8|0,0:0|0:0,0:0:0:0:
240,262,18783,6,0,L|239:173,1,75,0|0,1:0|0:0,0:0:0:0:
240,97,19211,1,2,0:0:0:0:
314,148,19426,1,0,0:0:0:0:
373,79,19640,2,0,B|429:70|429:70|456:78,1,75,0|0,1:0|0:0,0:0:0:0:
510,133,20069,2,2,P|518:177|504:221,1,75,8|0,0:0|0:0,0:0:0:0:
441,263,20498,6,0,L|449:355,2,75,0|0|2,1:0|0:0|0:0,0:0:0:0:
428,173,21141,1,0,0:0:0:0:
403,86,21355,2,0,P|350:122|352:218,1,150,0|8,1:0|0:0,0:0:0:0:
361,290,21998,1,0,0:0:0:0:
276,259,22212,6,0,P|238:250|201:260,1,75,0|0,1:0|0:0,0:0:0:0:
123,298,22640,1,2,0:0:0:0:
123,298,22855,1,0,0:0:0:0:
56,237,23069,2,0,P|49:197|59:148,1,75,0|0,1:0|0:0,0:0:0:0:
127,111,23498,2,0,P|135:151|126:203,1,75,8|0,0:0|0:0,0:0:0:0:
56,237,23926,5,0,1:0:0:0:
131,184,24140,1,0,0:0:0:0:
205,234,24355,1,2,0:0:0:0:
283,189,24569,1,0,0:0:0:0:
320,107,24783,2,0,P|311:70|329:16,1,75,0|0,1:0|0:0,0:0:0:0:
237,74,25212,2,0,P|203:81|162:72,1,75,8|0,0:0|0:0,0:0:0:0:
80,37,25641,5,0,1:0:0:0:
99,124,25855,1,0,0:0:0:0:
163,185,26068,1,2,0:0:0:0:
248,213,26283,1,0,0:0:0:0:
337,204,26497,2,0,P|372:194|413:205,1,75,0|0,1:0|0:0,0:0:0:0:
454,280,26926,2,0,P|418:290|381:283,1,75,8|0,0:0|0:0,0:0:0:0:
337,204,27355,6,0,L|333:122,2,75,0|0|2,1:0|0:0|0:0,0:0:0:0:
293,282,27998,1,0,0:0:0:0:
204,297,28212,2,0,P|140:265|140:188,1,150,0|8,1:0|0:0,0:0:0:0:
186,116,28855,1,0,0:0:0:0:
267,74,29069,6,0,L|341:72,1,75,0|0,1:0|0:0,0:0:0:0:
424,107,29497,1,2,0:0:0:0:
424,107,29712,1,0,0:0:0:0:
478,178,29926,2,0,P|489:214|480:253,1,75,0|0,1:0|0:0,0:0:0:0:
408,302,30355,2,0,L|333:302,1,75,8|0,0:0|0:0,0:0:0:0:
251,264,30783,5,0,1:0:0:0:
180,208,30997,1,0,0:0:0:0:
180,117,31212,1,2,0:0:0:0:
244,53,31426,1,0,0:0:0:0:
333,43,31640,2,0,L|416:45,1,75,0|0,1:0|0:0,0:0:0:0:
472,108,32069,2,0,B|481:146|481:146|465:198,1,75,8|0,0:0|0:0,0:0:0:0:
401,243,32498,6,0,B|363:237|363:237|326:245,1,75,0|0,1:0|0:0,0:0:0:0:
267,312,32926,1,2,0:0:0:0:
181,281,33141,1,0,0:0:0:0:
224,202,33355,2,0,L|222:118,1,75,0|0,1:0|0:0,0:0:0:0:
141,85,33784,2,0,L|143:171,1,75,2|0,0:0|0:0,0:0:0:0:
96,237,34212,5,4,1:2:0:0:
256,192,34426,12,0,35498,0:0:0:0:
154,244,35926,6,0,P|200:233|245:245,1,93.75,4|0,1:2|0:0,0:0:0:0:
370,308,36355,1,8,0:0:0:0:
368,193,36569,1,0,0:0:0:0:
469,260,36783,1,0,1:0:0:0:
315,252,36998,1,0,0:0:0:0:
447,186,37212,1,8,0:0:0:0:
443,336,37426,1,0,0:0:0:0:
315,252,37641,5,0,1:0:0:0:
315,252,37855,2,0,B|266:261|266:261|214:248,1,93.75,0|8,0:0|0:0,0:0:0:0:
138,210,38283,1,0,0:0:0:0:
89,129,38498,2,0,B|78:82|78:82|86:30,2,93.75,0|0|8,1:0|0:0|0:0,0:0:0:0:
138,210,39141,1,0,0:0:0:0:
219,164,39355,6,0,P|263:153|317:169,1,93.75,4|0,1:2|0:0,0:0:0:0:
383,250,39783,1,8,0:0:0:0:
501,223,39998,1,0,0:0:0:0:
383,179,40212,1,0,1:0:0:0:
501,153,40427,1,0,0:0:0:0:
384,110,40641,1,8,0:0:0:0:
501,83,40855,1,0,0:0:0:0:
384,41,41070,5,0,1:0:0:0:
310,147,41284,2,0,L|300:263,1,93.75,0|8,0:0|0:0,0:0:0:0:
262,325,41712,1,0,0:0:0:0:
168,329,41926,2,0,P|119:329|77:353,2,93.75,0|0|8,1:0|0:0|0:0,0:0:0:0:
262,325,42570,1,0,0:0:0:0:
353,302,42783,6,0,P|391:269|453:261,1,93.75,4|0,1:2|0:0,0:0:0:0:
444,159,43213,2,0,P|413:119|403:77,1,93.75,8|0,0:0|0:0,0:0:0:0:
297,60,43641,2,0,P|263:93|209:103,1,93.75,0|0,1:0|0:0,0:0:0:0:
189,207,44069,2,0,P|222:241|232:306,1,93.75,8|0,0:0|0:0,0:0:0:0:
94,249,44498,6,0,P|85:199|101:152,1,93.75,0|0,1:0|0:0,0:0:0:0:
143,52,44926,1,8,0:0:0:0:
240,86,45140,1,0,0:0:0:0:
182,160,45355,2,0,L|185:261,1,93.75,0|0,1:0|0:0,0:0:0:0:
266,300,45783,1,8,0:0:0:0:
345,249,45998,1,0,0:0:0:0:
379,159,46213,6,0,P|322:52|176:69,1,281.25,4|0,1:2|0:0,0:0:0:0:
102,141,47069,2,0,L|95:93,2,46.875,2|2|2,1:3|3:0|3:0,0:0:0:0:
133,252,47498,1,8,0:0:0:0:
133,252,47605,1,2,0:3:0:0:
133,252,47712,1,2,0:3:0:0:
224,315,47926,5,2,1:3:0:0:
247,317,48033,1,2,0:3:0:0:
274,317,48140,1,2,0:3:0:0:
295,316,48248,1,2,0:3:0:0:
320,312,48355,2,0,P|338:253|332:194,1,93.75,8|2,0:2|0:3,0:0:0:0:
272,140,48783,2,0,P|262:88|273:42,2,93.75,0|2|8,1:0|0:3|0:0,0:0:0:0:
337,221,49426,1,2,0:3:0:0:
242,253,49641,6,0,L|148:259,1,93.75,4|0,1:2|0:0,0:0:0:0:
78,200,50070,1,8,0:0:0:0:
68,70,50284,1,0,0:0:0:0:
187,127,50498,1,0,1:0:0:0:
271,29,50713,1,0,0:0:0:0:
327,145,50927,1,8,0:0:0:0:
427,60,51141,1,0,0:0:0:0:
466,190,51356,5,0,1:0:0:0:
466,190,51570,2,0,L|454:291,1,93.75,0|8,0:0|0:0,0:0:0:0:
376,333,51998,1,0,0:0:0:0:
282,345,52213,2,0,L|171:350,2,93.75,0|0|8,1:0|0:0|0:0,0:0:0:0:
321,259,52856,1,0,0:0:0:0:
240,210,53070,6,0,L|144:215,1,93.75,4|0,1:2|0:0,0:0:0:0:
82,275,53499,1,8,0:0:0:0:
0,187,53713,1,0,0:0:0:0:
42,64,53926,1,0,1:0:0:0:
143,148,54141,1,0,0:0:0:0:
0,187,54356,1,8,0:0:0:0:
42,64,54570,1,0,0:0:0:0:
143,148,54783,5,0,0:0:0:0:
143,148,54999,2,0,B|207:137|207:137|260:145,1,93.75,0|8,0:0|0:0,0:0:0:0:
325,167,55427,1,0,0:0:0:0:
416,143,55642,2,0,B|453:137|453:137|521:152,2,93.75,0|0|8,1:0|0:0|0:0,0:0:0:0:
325,167,56283,1,0,0:0:0:0:
265,238,56498,6,0,P|216:228|173:239,1,93.75,4|0,1:2|0:0,0:0:0:0:
345,296,56926,2,0,P|390:308|438:297,1,93.75,8|0,0:0|0:0,0:0:0:0:
467,172,57355,2,0,L|469:75,1,93.75,8|0,0:0|0:0,0:0:0:0:
339,101,57783,2,0,P|299:113|233:93,1,93.75,8|0,0:0|0:0,0:0:0:0:
127,51,58212,5,0,1:0:0:0:
63,166,58426,1,0,0:0:0:0:
63,166,58641,2,0,P|51:214|61:261,2,93.75,8|0|0,0:0|0:0|1:0,0:0:0:0:
142,116,59283,1,0,0:0:0:0:
221,166,59498,2,0,P|233:214|210:284,1,93.75,8|0,0:0|0:0,0:0:0:0:
290,323,59926,6,0,L|383:324,1,93.75,4|2,1:2|0:0,0:0:0:0:
475,258,60355,1,0,0:0:0:0:
494,147,60569,1,2,0:0:0:0:
398,69,60784,1,2,0:0:0:0:
378,189,60998,1,2,0:0:0:0:
494,147,61212,1,2,0:0:0:0:
331,114,61426,1,2,0:0:0:0:
331,114,61641,6,0,P|282:136|251:195,1,93.75,6|0,1:2|0:0,0:0:0:0:
217,272,62069,2,0,P|268:286|323:258,1,93.75,10|0,0:0|0:0,0:0:0:0:
258,167,62498,2,0,P|209:155|159:173,1,93.75,2|0,1:2|0:0,0:0:0:0:
136,274,62926,1,10,0:0:0:0:
34,214,63141,1,2,0:0:0:0:
33,214,63355,6,0,P|21:165|31:119,1,93.75,0|2,0:0|0:0,0:0:0:0:
116,60,63783,1,8,0:0:0:0:
228,57,63998,1,2,0:0:0:0:
228,57,64212,2,0,L|335:55,1,93.75,2|2,1:2|0:0,0:0:0:0:
393,112,64641,2,0,P|384:161|407:219,1,93.75,10|2,0:0|0:0,0:0:0:0:
478,246,65069,6,0,P|487:200|475:156,1,93.75,6|0,1:2|0:0,0:0:0:0:
393,112,65498,2,0,P|347:123|317:169,1,93.75,10|0,0:0|0:0,0:0:0:0:
262,232,65926,2,0,P|229:275|165:281,1,93.75,2|0,1:2|0:0,0:0:0:0:
99,284,66354,1,10,0:0:0:0:
99,284,66569,1,2,0:0:0:0:
31,219,66783,6,0,P|17:168|40:119,1,93.75,0|2,0:0|0:0,0:0:0:0:
98,67,67211,1,8,0:0:0:0:
164,133,67426,1,2,0:0:0:0:
164,133,67640,2,0,P|177:177|165:221,1,93.75,2|2,1:2|0:0,0:0:0:0:
255,196,68069,2,0,P|304:186|348:199,1,93.75,10|2,0:0|0:0,0:0:0:0:
430,246,68498,6,0,P|440:296|425:340,1,93.75,6|0,1:2|0:0,0:0:0:0:
481,172,68926,2,0,P|475:125|487:80,1,93.75,10|0,0:2|0:0,0:0:0:0:
380,56,69355,2,0,L|266:57,1,93.75,2|0,1:2|0:0,0:0:0:0:
199,92,69783,1,10,0:0:0:0:
114,51,69998,1,2,0:0:0:0:
54,123,70212,6,0,P|42:168|55:214,1,93.75,0|2,0:0|0:0,0:0:0:0:
93,297,70640,1,8,0:0:0:0:
179,259,70855,1,2,0:0:0:0:
179,259,71069,2,0,L|272:262,1,93.75,2|2,1:2|0:0,0:0:0:0:
296,171,71498,2,0,L|196:167,1,93.75,10|2,0:0|0:0,0:0:0:0:
232,78,71926,6,0,L|339:83,1,93.75,6|0,1:2|0:0,0:0:0:0:
410,122,72355,2,0,P|423:174|405:213,1,93.75,8|0,0:0|0:0,0:0:0:0:
348,282,72783,1,0,1:0:0:0:
280,216,72998,1,0,0:0:0:0:
198,170,73212,2,0,P|153:157|99:177,1,93.75,8|0,0:0|0:0,0:0:0:0:
38,226,73641,6,0,P|31:271|58:319,1,75,4|0,1:2|0:0,0:0:0:0:
117,259,74069,1,2,0:0:0:0:
197,300,74284,1,0,0:0:0:0:
272,251,74498,2,0,B|357:250,1,75,0|0,1:0|0:0,0:0:0:0:
415,191,74926,2,0,P|424:153|409:104,1,75,8|0,0:0|0:0,0:0:0:0:
343,66,75355,5,0,1:0:0:0:
338,155,75569,1,0,0:0:0:0:
279,223,75784,1,2,0:0:0:0:
198,182,75998,1,0,0:0:0:0:
146,255,76212,2,0,P|105:262|70:253,1,75,0|0,1:0|0:0,0:0:0:0:
34,174,76641,2,0,L|30:78,1,75,8|0,0:0|0:0,0:0:0:0:
105,50,77069,6,0,L|107:126,1,75,0|0,1:0|0:0,0:0:0:0:
137,210,77497,1,2,0:0:0:0:
198,143,77712,1,0,0:0:0:0:
178,54,77926,2,0,B|122:45|122:45|104:50,1,75,0|0,1:0|0:0,0:0:0:0:
270,78,78355,2,0,B|324:80|324:80|355:70,1,75,8|0,0:0|0:0,0:0:0:0:
430,48,78784,6,0,P|465:41|522:51,2,75,0|0|2,1:0|0:0|0:0,0:0:0:0:
343,73,79426,1,0,0:0:0:0:
379,155,79641,2,0,P|382:232|328:295,1,150,0|8,1:0|0:0,0:0:0:0:
249,287,80283,1,0,0:0:0:0:
213,203,80498,6,0,P|249:194|285:203,1,75,0|0,1:0|0:0,0:0:0:0:
249,287,80926,1,2,0:0:0:0:
167,324,81141,1,0,0:0:0:0:
129,242,81355,2,0,P|120:206|133:161,1,75,0|0,1:0|0:0,0:0:0:0:
210,128,81784,2,0,P|244:136|285:127,1,75,8|0,0:0|0:0,0:0:0:0:
349,67,82212,5,0,1:0:0:0:
263,40,82426,1,0,0:0:0:0:
282,128,82641,1,2,0:0:0:0:
312,212,82855,1,0,0:0:0:0:
312,212,83069,2,0,L|315:308,1,75,0|0,1:0|0:0,0:0:0:0:
235,331,83498,2,0,P|201:323|159:336,1,75,8|0,0:0|0:0,0:0:0:0:
91,278,83927,5,0,1:0:0:0:
146,207,84141,1,0,0:0:0:0:
85,141,84354,1,2,0:0:0:0:
143,72,84569,1,0,0:0:0:0:
203,138,84783,2,0,B|240:148|240:148|280:138,1,75,0|0,1:0|0:0,0:0:0:0:
362,162,85212,2,0,P|359:204|368:251,1,75,8|0,0:0|0:0,0:0:0:0:
442,280,85641,6,0,P|446:316|439:355,2,75,0|0|2,1:0|0:0|0:0,0:0:0:0:
447,189,86284,1,0,0:0:0:0:
362,162,86498,2,0,P|298:190|280:262,1,150,0|8,1:0|0:0,0:0:0:0:
340,329,87141,1,0,0:0:0:0:
280,262,87355,6,0,P|242:254|208:263,1,75,0|0,1:0|0:0,0:0:0:0:
133,314,87783,1,2,0:0:0:0:
133,314,87998,1,0,0:0:0:0:
66,253,88212,2,0,P|57:218|69:175,1,75,0|0,1:0|0:0,0:0:0:0:
125,113,88641,2,0,L|200:113,1,75,8|0,0:0|0:0,0:0:0:0:
243,34,89069,5,0,1:0:0:0:
200,113,89283,1,0,0:0:0:0:
211,202,89498,1,2,0:0:0:0:
277,262,89712,1,0,0:0:0:0:
366,259,89926,2,0,L|441:258,1,75,0|0,1:0|0:0,0:0:0:0:
506,195,90355,2,0,P|514:162|503:120,1,75,8|0,0:0|0:0,0:0:0:0:
437,61,90783,6,0,B|403:54|403:54|364:60,1,75,0|0,1:0|0:0,0:0:0:0:
315,136,91212,1,2,0:2:0:0:
343,221,91427,1,0,0:0:0:0:
297,299,91641,2,0,P|257:292|215:303,1,75,0|0,1:0|0:0,0:0:0:0:
180,219,92070,2,0,P|188:180|179:145,1,75,0|0,1:0|0:0,0:0:0:0:
235,75,92498,5,4,1:2:0:0:
256,192,92712,12,0,93783,0:0:0:0:
292,92,94212,6,0,P|247:80|201:91,1,93.75,4|0,1:2|0:0,0:0:0:0:
140,207,94641,1,8,0:0:0:0:
241,290,94855,1,0,0:0:0:0:
242,158,95069,1,0,1:0:0:0:
345,239,95284,1,0,0:0:0:0:
352,110,95498,1,8,0:0:0:0:
452,194,95712,1,0,0:0:0:0:
458,63,95926,5,0,1:0:0:0:
458,63,96141,2,0,B|416:42|416:42|364:41,1,93.75,0|8,0:0|0:0,0:0:0:0:
280,71,96569,1,0,0:0:0:0:
190,43,96784,2,0,L|90:40,2,93.75,0|0|8,1:0|0:0|0:0,0:0:0:0:
280,71,97427,1,0,0:0:0:0:
295,163,97641,6,0,L|300:265,1,93.75,4|0,1:2|0:0,0:0:0:0:
344,338,98069,1,8,0:0:0:0:
227,276,98284,1,0,0:0:0:0:
111,336,98498,1,0,1:0:0:0:
100,204,98713,1,0,0:0:0:0:
227,276,98927,1,8,0:0:0:0:
220,144,99141,1,0,0:0:0:0:
336,208,99355,6,0,B|373:223|373:223|431:206,1,93.75,0|0,1:0|0:0,0:0:0:0:
462,122,99783,2,0,L|470:28,2,93.75,8|0|0,0:0|0:0|1:0,0:0:0:0:
424,207,100426,1,0,0:0:0:0:
365,133,100641,2,0,P|315:119|264:136,1,93.75,8|0,0:0|0:0,0:0:0:0:
232,212,101069,6,0,L|217:336,1,93.75,4|0,1:2|0:0,0:0:0:0:
97,352,101498,2,0,L|108:258,1,93.75,8|0,0:0|0:0,0:0:0:0:
14,166,101927,2,0,L|-1:264,1,93.75,0|0,1:0|0:0,0:0:0:0:
97,352,102355,1,8,0:0:0:0:
97,352,102569,1,0,0:0:0:0:
107,258,102784,6,0,L|122:159,1,93.75,0|0,1:0|0:0,0:0:0:0:
140,73,103212,1,8,0:0:0:0:
224,33,103426,1,0,0:0:0:0:
307,75,103641,2,0,L|400:76,2,93.75,0|0|8,1:0|0:0|0:0,0:0:0:0:
305,169,104284,1,0,0:0:0:0:
268,255,104499,6,0,P|145:245|224:161,1,281.25,4|0,1:2|0:0,0:0:0:0:
305,169,105355,2,0,L|407:169,1,93.75,0|0,0:0|0:0,0:0:0:0:
460,98,105783,1,8,0:0:0:0:
505,180,105998,1,0,0:0:0:0:
472,268,106212,5,0,1:0:0:0:
387,308,106426,2,0,L|281:307,1,93.75,0|8,0:0|0:0,0:0:0:0:
204,275,106855,1,0,0:0:0:0:
158,193,107069,2,0,P|146:140|161:95,2,93.75,0|0|8,1:0|0:0|0:0,0:0:0:0:
239,146,107712,1,0,0:0:0:0:
328,119,107926,6,0,L|429:119,1,93.75,4|0,1:2|0:0,0:0:0:0:
494,229,108355,1,8,0:0:0:0:
363,234,108569,1,0,0:0:0:0:
436,342,108783,1,0,1:0:0:0:
363,234,108998,1,0,0:0:0:0:
292,344,109212,1,8,0:0:0:0:
215,237,109426,1,0,0:0:0:0:
289,128,109641,5,0,1:0:0:0:
211,76,109855,2,0,P|165:65|121:77,1,93.75,0|8,0:0|0:0,0:0:0:0:
67,153,110283,1,0,0:0:0:0:
59,246,110498,2,0,L|66:342,2,93.75,0|0|8,1:0|0:0|0:0,0:0:0:0:
142,203,111141,1,0,0:0:0:0:
216,260,111355,6,0,L|311:260,1,93.75,4|0,1:2|0:0,0:0:0:0:
428,203,111784,1,8,0:0:0:0:
419,72,111998,1,0,0:0:0:0:
353,185,112211,1,0,1:0:0:0:
296,66,112426,1,0,0:0:0:0:
284,197,112641,1,8,0:0:0:0:
186,109,112855,1,0,0:0:0:0:
135,230,113070,5,0,1:0:0:0:
135,230,113284,2,0,B|132:348,1,93.75,0|8,0:0|0:0,0:0:0:0:
44,292,113712,1,0,0:0:0:0:
132,323,113927,2,0,B|169:317|169:317|237:332,2,93.75,0|0|8,1:0|0:0|0:0,0:0:0:0:
44,292,114570,1,0,0:0:0:0:
6,206,114783,6,0,P|-4:160|6:113,1,93.75,4|0,1:2|0:0,0:0:0:0:
97,134,115212,2,0,P|115:90|151:58,1,93.75,8|0,0:0|0:0,0:0:0:0:
218,124,115641,2,0,P|251:91|296:74,1,93.75,0|0,1:0|0:0,0:0:0:0:
355,146,116069,2,0,B|364:197|364:197|352:253,1,93.75,8|0,0:0|0:0,0:0:0:0:
305,317,116497,5,0,1:0:0:0:
305,317,116711,1,0,0:0:0:0:
247,242,116926,2,0,B|233:200|233:200|242:147,2,93.75,8|0|0,0:0|0:0|1:0,0:0:0:0:
209,327,117568,1,0,0:0:0:0:
128,277,117783,2,0,P|83:265|38:276,1,93.75,8|0,0:0|0:0,0:0:0:0:
256,192,118212,12,4,119926,1:2:0:0:
