osu file format v14

[General]
AudioFilename: audio.mp3
AudioLeadIn: 0
PreviewTime: 34426
Countdown: 0
SampleSet: Soft
StackLeniency: 0.7
Mode: 0
LetterboxInBreaks: 0
WidescreenStoryboard: 0

[Editor]
Bookmarks: 13748
DistanceSpacing: 1.2
BeatDivisor: 4
GridSize: 4
TimelineZoom: 2.4

[Metadata]
Title:Devchonka ryjaya
TitleUnicode:Девчонка рыжая
Artist:Vorovaiki
ArtistUnicode:Воровайки
Creator:Marmowka
Version:Bakari's Extreme
Source:
Tags:russian русский шансон chanson cut nattu bakari -bakari- namki
BeatmapID:999524
BeatmapSetID:464507

[Difficulty]
HPDrainRate:6
CircleSize:4
OverallDifficulty:7
ApproachRate:7.7
SliderMultiplier:1.6
SliderTickRate:2

[Events]
//Background and Video events
0,0,"64.jpg",0,0
//Break Periods
//Storyboard Layer 0 (Background)
//Storyboard Layer 1 (Fail)
//Storyboard Layer 2 (Pass)
//Storyboard Layer 3 (Foreground)
//Storyboard Sound Samples

[TimingPoints]
1641,428.571428571429,4,2,0,65,1,0
1641,-80,4,2,0,65,0,0
13426,-80,4,3,0,55,0,0
15355,-100,4,2,0,50,0,0
34426,-100,4,2,0,40,0,0
35926,-80,4,2,0,65,0,1
49212,-80,4,2,0,65,0,0
49641,-80,4,2,0,65,0,1
60141,-80,4,2,0,50,0,1
61426,-80,4,2,0,65,0,0
61641,-80,4,2,0,65,0,1
73641,-100,4,2,0,50,0,0
92712,-100,4,2,0,40,0,0
94212,-80,4,2,0,65,0,1
106212,-80,4,2,0,50,0,1
107498,-80,4,2,0,50,0,0
107926,-80,4,2,0,65,0,1
118212,-80,4,2,0,50,0,1
119926,-100,4,2,0,70,0,0

[Colours]
Combo1 : 179,180,175
Combo2 : 255,255,149
Combo3 : 125,0,0
Combo4 : 255,70,70
Combo5 : 255,158,62

[HitObjects]
72,328,1641,6,0,L|56:224,1,100,6|0,1:2|0:0,0:0:0:0:
172,260,2069,2,0,L|156:156,1,100,10|0,0:0|0:0,0:0:0:0:
272,192,2498,2,0,L|256:88,1,100,2|0,1:2|0:0,0:0:0:0:
392,24,2926,1,10,0:0:0:0:
352,152,3141,1,2,0:0:0:0:
245,53,3355,5,0,1:0:0:0:
272,192,3569,1,2,0:0:0:0:
391,24,3783,1,8,0:0:0:0:
394,154,3998,1,2,0:0:0:0:
289,244,4212,2,0,P|257:236|193:196,1,100,2|2,1:2|0:0,0:0:0:0:
104,328,4641,2,0,P|152:316|208:308,1,100,10|2,0:0|0:0,0:0:0:0:
84,216,5069,6,0,P|68:168|68:104,1,100,6|0,1:2|0:0,0:0:0:0:
216,136,5498,2,0,P|240:84|280:40,1,100,10|0,0:0|0:0,0:0:0:0:
382,149,5926,2,0,P|434:141|486:149,1,100,2|0,0:0|0:0,0:0:0:0:
360,248,6355,1,10,0:0:0:0:
300,144,6569,1,2,0:0:0:0:
248,300,6783,5,0,1:0:0:0:
360,248,6998,1,2,0:0:0:0:
336,364,7212,1,8,0:0:0:0:
284,216,7426,2,0,P|280:176|284:108,2,100,2|2|2,0:0|1:2|0:0,0:0:0:0:
396,264,8069,1,10,0:0:0:0:
336,364,8283,1,2,0:0:0:0:
240,312,8498,6,0,L|132:304,1,100,6|0,1:2|0:0,0:0:0:0:
220,216,8926,2,0,L|112:208,1,100,10|0,0:0|0:3,0:0:0:0:
204,120,9355,2,0,L|96:112,1,100,2|0,1:2|0:3,0:0:0:0:
256,36,9783,1,10,0:0:0:0:
280,216,9998,1,2,0:0:0:0:
204,120,10212,5,0,1:0:0:0:
320,96,10426,1,2,0:0:0:0:
280,216,10641,1,8,0:0:0:0:
284,336,10855,2,0,P|328:352|380:360,2,100,2|2|2,0:0|1:2|0:0,0:0:0:0:
184,252,11498,1,10,0:0:0:0:
208,368,11712,1,2,0:0:0:0:
304,248,11926,6,0,P|320:192|324:128,1,100,6|0,1:2|0:0,0:0:0:0:
300,32,12355,1,8,0:0:0:0:
412,72,12569,1,0,0:0:0:0:
252,104,12783,2,0,L|152:92,1,100,0|0,1:0|0:0,0:0:0:0:
76,188,13212,1,8,0:0:0:0:
168,264,13426,2,0,L|160:192,1,50,2|2,3:0|0:0,0:0:0:0:
200,168,13641,5,4,0:0:0:0:
260,272,13855,2,0,P|252:312|200:364,2,100,2|6|10,0:0|0:0|0:0,0:0:0:0:
140,268,14498,2,0,L|12:256,1,100,4|8,0:0|0:0,0:0:0:0:
36,140,14926,1,4,0:0:0:0:
144,192,15141,1,10,0:0:0:0:
264,132,15355,6,0,P|324:116|444:132,1,160,4|2,1:2|0:0,0:0:0:0:
472,224,15998,1,0,0:0:0:0:
472,224,16212,2,0,P|456:272|456:308,2,80,0|0|8,1:0|0:0|0:0,0:0:0:0:
324,344,17069,6,0,P|256:352|224:348,1,80,0|0,1:0|0:0,0:0:0:0:
176,284,17498,2,0,P|180:252|168:180,1,80,2|0,0:0|0:0,0:0:0:0:
100,148,17926,1,0,1:0:0:0:
340,224,18355,1,8,0:0:0:0:
264,12,18783,6,0,P|252:44|236:108,1,80,0|0,1:0|0:0,0:0:0:0:
240,184,19212,1,2,0:0:0:0:
328,144,19426,1,0,0:0:0:0:
316,240,19641,2,0,P|324:284|328:332,1,80,0|0,1:0|0:0,0:0:0:0:
244,368,20069,1,8,0:0:0:0:
164,316,20283,1,0,0:0:0:0:
24,356,20498,6,0,P|8:304|8:256,1,80,0|0,1:0|0:0,0:0:0:0:
116,184,20926,2,0,P|104:236|80:280,1,80,2|0,0:0|0:0,0:0:0:0:
28,188,21355,2,0,L|16:20,1,160,0|8,1:0|0:0,0:0:0:0:
96,72,21998,1,0,0:0:0:0:
180,120,22212,6,0,P|188:80|192:36,1,80,0|0,1:0|0:0,0:0:0:0:
117,174,22641,1,2,0:0:0:0:
202,273,22855,1,0,0:0:0:0:
320,236,23069,2,0,P|328:276|336:332,1,80,0|0,1:0|0:0,0:0:0:0:
260,376,23498,1,8,0:0:0:0:
104,268,23926,6,0,P|76:296|48:348,2,80,0|0|2,1:0|0:0|0:0,0:0:0:0:
200,260,24569,1,0,0:0:0:0:
84,172,24783,2,0,P|60:112|68:4,1,160,0|8,1:0|0:0,0:0:0:0:
144,72,25426,1,0,0:0:0:0:
240,80,25641,6,0,P|280:72|336:68,1,80,0|0,1:0|0:0,0:0:0:0:
380,140,26069,1,2,0:0:0:0:
416,52,26283,1,0,0:0:0:0:
476,176,26498,2,0,L|492:348,1,160,0|8,1:0|0:0,0:0:0:0:
264,368,27355,6,0,P|276:332|296:296,1,80,0|0,1:0|0:0,0:0:0:0:
188,216,27783,2,0,P|188:256|204:308,1,80,2|0,0:0|0:0,0:0:0:0:
140,368,28212,2,0,P|120:336|-4:300,1,160,0|8,1:0|0:0,0:0:0:0:
244,184,29069,6,0,P|252:160|264:96,1,80,0|0,1:0|0:0,0:0:0:0:
212,24,29498,1,2,0:0:0:0:
172,112,29712,1,0,0:0:0:0:
84,148,29926,2,0,P|36:120|12:92,2,80,0|0|8,1:0|0:0|0:0,0:0:0:0:
232,272,30783,6,0,P|224:328|108:376,1,160,0|2,1:0|0:0,0:0:0:0:
24,292,31426,1,0,0:0:0:0:
120,276,31641,2,0,P|120:232|116:180,1,80,0|0,1:0|0:0,0:0:0:0:
64,116,32069,1,8,0:0:0:0:
240,36,32498,6,0,P|284:28|332:24,1,80,0|0,1:0|0:0,0:0:0:0:
400,72,32926,1,2,0:0:0:0:
476,12,33141,1,0,0:0:0:0:
456,156,33355,1,0,1:0:0:0:
208,72,33783,1,2,0:0:0:0:
288,316,34212,5,4,1:2:0:0:
284,308,34426,5,0,0:0:0:0:
356,372,34641,1,4,0:0:0:0:
428,308,34855,1,0,0:0:0:0:
288,316,35069,2,0,L|196:308,1,80,4|0,1:2|0:0,0:0:0:0:
156,228,35498,1,0,0:0:0:0:
100,304,35712,2,0,L|112:356,1,40,0|0,0:0|0:0,0:0:0:0:
60,376,35926,5,4,1:2:0:0:
44,232,36141,1,0,0:0:0:0:
208,312,36355,2,0,P|236:296|284:248,1,100,8|0,0:0|0:0,0:0:0:0:
240,136,36783,1,0,1:0:0:0:
196,312,36998,1,0,0:0:0:0:
248,128,37212,1,8,0:0:0:0:
292,240,37426,1,0,0:0:0:0:
432,296,37641,6,0,P|460:256|488:192,2,100,0|0|8,1:0|0:0|0:0,0:0:0:0:
312,292,38283,1,0,0:0:0:0:
396,376,38498,1,0,1:0:0:0:
364,224,38712,1,0,0:0:0:0:
252,356,38926,2,0,P|236:360|148:360,1,100,8|0,0:0|0:0,0:0:0:0:
40,256,39355,5,4,1:2:0:0:
48,376,39569,1,0,0:0:0:0:
140,280,39783,2,0,P|124:216|120:176,1,100,8|0,0:0|0:0,0:0:0:0:
208,64,40212,1,0,1:0:0:0:
92,96,40426,1,0,0:0:0:0:
204,56,40641,1,8,0:0:0:0:
88,92,40855,1,0,0:0:0:0:
232,196,41069,6,0,P|244:252|248:296,1,100,0|0,1:0|0:0,0:0:0:0:
148,360,41498,1,8,0:0:0:0:
164,240,41712,1,0,0:0:0:0:
292,364,41926,2,0,P|340:360|408:344,1,100,0|0,1:0|0:0,0:0:0:0:
436,236,42355,1,8,0:0:0:0:
496,340,42569,1,0,0:0:0:0:
348,272,42783,6,0,P|336:224|336:164,1,100,4|0,1:2|0:0,0:0:0:0:
444,124,43212,1,8,0:0:0:0:
348,280,43426,1,0,0:0:0:0:
332,160,43641,1,0,1:0:0:0:
444,112,43855,1,0,0:0:0:0:
352,288,44069,2,0,P|328:236|316:176,1,100,8|0,0:0|0:0,0:0:0:0:
416,32,44498,5,0,1:0:0:0:
252,208,44926,1,8,0:0:0:0:
312,104,45141,1,0,0:0:0:0:
196,124,45355,2,0,B|156:144|160:212|160:212|164:280|112:304,1,200,0|8,1:0|0:0,0:0:0:0:
4,316,45998,1,0,0:0:0:0:
68,212,46212,6,0,B|103:184|162:216|162:216|222:248|266:211,1,200,4|0,1:2|0:0,0:0:0:0:
204,108,46855,1,0,0:0:0:0:
8,158,47069,1,0,0:0:0:0:
32,352,47283,2,0,P|56:348|88:332,1,50,2|0,3:0|0:0,0:0:0:0:
108,284,47498,1,8,0:0:0:0:
252,356,47712,1,2,0:3:0:0:
132,168,47926,5,2,1:3:0:0:
28,224,48141,1,2,0:3:0:0:
184,264,48355,2,0,P|216:224|240:160,1,100,8|2,0:2|0:3,0:0:0:0:
100,280,48783,2,0,P|100:328|112:380,1,100,0|2,1:0|0:3,0:0:0:0:
144,208,49212,2,0,L|132:152,2,50,8|2|2,0:0|0:3|0:3,0:0:0:0:
312,256,49641,6,0,P|328:296|312:360,1,100,4|0,1:2|0:0,0:0:0:0:
204,308,50069,1,8,0:0:0:0:
296,168,50283,1,0,0:0:0:0:
152,232,50498,2,0,L|44:224,1,100,0|0,1:0|0:0,0:0:0:0:
208,308,50926,1,8,0:0:0:0:
56,228,51141,1,0,0:0:0:0:
300,157,51355,6,0,P|304:205|292:273,1,100,0|0,1:0|0:0,0:0:0:0:
260,372,51783,1,8,0:0:0:0:
188,276,51998,1,0,0:0:0:0:
344,324,52212,2,0,P|388:324|448:308,1,100,0|0,1:0|0:0,0:0:0:0:
476,196,52641,1,8,0:0:0:0:
364,236,52855,1,0,0:0:0:0:
212,188,53069,6,0,P|196:156|180:72,1,100,4|0,1:2|0:0,0:0:0:0:
268,12,53498,1,8,0:0:0:0:
368,80,53712,1,0,0:0:0:0:
204,188,53926,2,0,P|224:144|264:92,1,100,0|0,1:0|0:0,0:0:0:0:
360,164,54355,1,8,0:0:0:0:
204,192,54569,1,0,0:0:0:0:
328,80,54783,6,0,L|440:92,1,100,0|0,1:0|0:0,0:0:0:0:
509,9,55212,1,8,0:0:0:0:
484,184,55426,1,0,0:0:0:0:
424,80,55641,1,0,1:0:0:0:
384,192,55855,1,0,0:0:0:0:
392,312,56069,2,0,P|432:332|496:340,1,100,8|0,0:0|0:0,0:0:0:0:
292,272,56498,6,0,L|188:280,1,100,4|0,1:2|0:0,0:0:0:0:
140,172,56926,1,8,0:0:0:0:
304,280,57141,1,0,0:0:0:0:
184,288,57355,1,0,1:0:0:0:
144,160,57569,1,0,0:0:0:0:
168,296,57783,1,8,0:0:0:0:
156,176,57998,1,0,0:0:0:0:
68,360,58212,6,0,P|32:320|16:244,1,100,0|0,1:0|0:0,0:0:0:0:
184,248,58641,2,0,P|252:260|400:192,1,200,8|0,0:0|1:0,0:0:0:0:
392,100,59283,1,0,0:0:0:0:
452,252,59498,1,8,0:0:0:0:
320,148,59712,1,0,0:0:0:0:
432,40,59926,5,4,1:2:0:0:
508,132,60141,1,2,0:0:0:0:
404,192,60355,2,0,P|384:224|368:296,1,100,0|2,0:0|0:0,0:0:0:0:
276,360,60783,2,0,P|244:336|176:320,2,100,2|2|2,0:0|0:0|0:0,0:0:0:0:
272,240,61426,1,2,0:0:0:0:
128,276,61641,6,0,L|20:252,1,100,6|0,1:2|0:0,0:0:0:0:
116,172,62069,2,0,L|4:148,1,100,10|0,0:0|0:0,0:0:0:0:
108,72,62498,2,0,L|-4:48,1,100,2|0,1:2|0:0,0:0:0:0:
184,16,62926,1,10,0:0:0:0:
184,168,63141,1,2,0:0:0:0:
108,72,63355,5,0,0:0:0:0:
136,240,63569,1,2,0:0:0:0:
248,200,63783,2,0,P|296:196|348:200,1,100,8|2,0:0|0:0,0:0:0:0:
460,248,64212,2,0,L|480:360,2,100,2|2|10,1:2|0:0|0:0,0:0:0:0:
500,136,64855,1,2,0:0:0:0:
380,136,65069,6,0,P|356:96|352:20,1,100,6|0,1:2|0:0,0:0:0:0:
276,192,65498,2,0,P|240:184|172:144,1,100,10|0,0:0|0:0,0:0:0:0:
240,308,65926,2,0,P|204:336|144:356,1,100,2|0,1:2|0:0,0:0:0:0:
48,232,66355,1,10,0:0:0:0:
160,268,66569,1,2,0:0:0:0:
48,312,66783,5,0,0:0:0:0:
128,184,66998,1,2,0:0:0:0:
40,100,67212,2,0,P|20:48|16:4,1,100,8|2,0:0|0:0,0:0:0:0:
140,92,67641,2,0,L|40:100,1,100,2|2,1:2|0:0,0:0:0:0:
216,151,68069,2,0,P|185:112|140:92,1,100,10|2,0:0|0:0,0:0:0:0:
112,244,68498,6,0,P|143:282|188:303,1,100,6|0,1:2|0:0,0:0:0:0:
308,296,68926,2,0,L|416:284,1,100,10|0,0:2|0:0,0:0:0:0:
328,196,69355,2,0,L|436:184,1,100,2|0,1:2|0:0,0:0:0:0:
288,120,69783,1,10,0:0:0:0:
244,232,69998,1,2,0:0:0:0:
268,348,70212,5,0,0:0:0:0:
164,288,70426,1,2,0:0:0:0:
60,352,70641,1,8,0:0:0:0:
180,364,70855,1,2,0:0:0:0:
72,240,71069,2,0,P|60:188|60:136,1,100,2|2,1:2|0:0,0:0:0:0:
184,48,71498,1,10,0:0:0:0:
148,164,71712,1,2,0:0:0:0:
96,56,71926,5,6,1:2:0:0:
104,300,72355,1,8,0:0:0:0:
24,204,72569,1,0,0:0:0:0:
176,236,72783,2,0,L|300:224,1,100,0|0,1:0|0:0,0:0:0:0:
104,300,73212,1,8,0:0:0:0:
96,180,73426,1,0,0:0:0:0:
16,320,73641,6,0,P|32:356|80:384,1,80,4|0,1:2|0:0,0:0:0:0:
180,328,74069,1,2,0:0:0:0:
160,236,74283,1,0,0:0:0:0:
264,296,74498,2,0,P|316:296|436:256,1,160,0|8,1:0|0:0,0:0:0:0:
344,208,75141,1,0,0:0:0:0:
204,244,75355,6,0,P|164:244|104:236,1,80,0|0,1:0|0:0,0:0:0:0:
36,200,75783,1,2,0:0:0:0:
52,296,75998,1,0,0:0:0:0:
132,240,76212,2,0,P|124:184|124:132,1,80,0|0,1:0|0:0,0:0:0:0:
156,72,76641,1,8,0:0:0:0:
296,288,77069,6,0,P|300:336|300:376,1,80,0|0,1:0|0:0,0:0:0:0:
212,324,77498,1,2,0:0:0:0:
216,332,77712,1,0,0:0:0:0:
268,216,77926,2,0,P|308:220|356:220,1,80,0|0,1:0|0:0,0:0:0:0:
412,148,78355,1,8,0:0:0:0:
172,232,78783,6,0,P|136:232|32:144,1,160,0|2,1:0|0:0,0:0:0:0:
120,108,79426,1,0,0:0:0:0:
268,140,79641,2,0,L|256:308,1,160,0|8,1:0|0:0,0:0:0:0:
420,356,80498,6,0,P|408:320|388:280,1,80,0|0,1:0|0:0,0:0:0:0:
260,360,80926,2,0,P|308:368|356:368,1,80,2|0,0:0|0:0,0:0:0:0:
296,268,81355,2,0,L|128:284,1,160,0|8,1:0|0:0,0:0:0:0:
68,216,81998,1,0,0:0:0:0:
200,156,82212,6,0,P|208:112|208:64,1,80,0|0,1:0|0:0,0:0:0:0:
140,12,82641,1,2,0:0:0:0:
116,104,82855,1,0,0:0:0:0:
188,224,83069,2,0,L|180:328,1,80,0|0,1:0|0:0,0:0:0:0:
120,376,83498,1,8,0:0:0:0:
344,280,83926,6,0,P|392:300|464:392,1,160,0|2,1:0|0:0,0:0:0:0:
364,376,84569,1,0,0:0:0:0:
272,352,84783,2,0,L|172:360,1,80,0|0,1:0|0:0,0:0:0:0:
132,284,85212,1,8,0:0:0:0:
368,184,85641,6,0,P|400:128|408:28,1,160,0|2,1:0|0:0,0:0:0:0:
316,16,86283,1,0,0:0:0:0:
216,120,86498,2,0,P|188:124|128:116,1,80,0|0,1:0|0:0,0:0:0:0:
88,36,86926,1,8,0:0:0:0:
32,272,87355,6,0,P|124:248|200:268,1,160,0|2,1:0|0:0,0:0:0:0:
252,332,87998,1,0,0:0:0:0:
160,352,88212,1,0,1:0:0:0:
324,252,88641,1,8,0:0:0:0:
192,116,89069,6,0,P|216:80|256:52,1,80,0|0,1:0|0:0,0:0:0:0:
328,104,89498,1,2,0:0:0:0:
269,190,89712,1,0,0:0:0:0:
172,216,89926,2,0,L|60:208,1,80,0|0,1:0|0:0,0:0:0:0:
16,152,90355,1,8,0:0:0:0:
184,304,90783,6,0,L|280:292,1,80,0|0,1:0|0:0,0:0:0:0:
324,220,91212,1,2,0:2:0:0:
324,220,91426,1,0,0:0:0:0:
243,317,91641,2,0,L|164:328,1,80,0|0,1:0|0:0,0:0:0:0:
101,281,92069,2,0,P|128:310|164:328,1,80,0|0,1:0|0:0,0:0:0:0:
132,176,92498,5,4,1:2:0:0:
128,184,92712,2,0,L|44:176,2,80,0|4|0,0:0|0:2|0:0,0:0:0:0:
208,50,93355,2,0,P|215:90|228:127,1,80,4|0,1:2|0:0,0:0:0:0:
385,4,93783,2,0,P|381:48|365:88,1,80
271,226,94212,6,0,P|335:214|455:302,1,200,4|8,1:2|0:0,0:0:0:0:
329,351,94855,1,0,0:0:0:0:
271,226,95069,1,0,1:0:0:0:
288,124,95283,1,0,0:0:0:0:
408,268,95497,1,8,0:0:0:0:
288,124,95712,1,0,0:0:0:0:
296,288,95926,6,0,P|260:312|176:328,1,100,0|0,1:0|0:0,0:0:0:0:
56,244,96355,1,8,0:0:0:0:
100,356,96569,1,0,0:0:0:0:
176,240,96783,2,0,P|180:192|176:128,1,100,0|0,1:0|0:0,0:0:0:0:
100,48,97212,1,8,0:0:0:0:
88,168,97426,1,0,0:0:0:0:
240,72,97641,6,0,P|300:60|352:60,1,100,4|0,1:2|0:0,0:0:0:0:
388,168,98069,1,8,0:0:0:0:
240,64,98283,1,0,0:0:0:0:
392,164,98498,1,0,1:0:0:0:
348,52,98712,1,0,0:0:0:0:
388,168,98926,1,8,0:0:0:0:
236,52,99141,1,0,0:0:0:0:
256,228,99355,6,0,P|248:292|248:336,1,100,0|0,1:0|0:0,0:0:0:0:
356,368,99783,1,8,0:0:0:0:
328,252,99998,1,0,0:0:0:0:
222,155,100212,2,0,P|182:163|118:163,1,100,0|0,1:0|0:0,0:0:0:0:
4,156,100641,1,8,0:0:0:0:
80,248,100855,1,0,0:0:0:0:
176,80,101069,6,0,P|216:72|288:72,1,100,4|0,1:2|0:0,0:0:0:0:
123,164,101498,2,0,P|144:118|176:80,1,100,8|0,0:0|0:0,0:0:0:0:
23,173,101926,2,0,P|73:173|123:164,1,100,0|0,1:0|0:0,0:0:0:0:
60,60,102355,1,8,0:0:0:0:
23,173,102569,1,0,0:0:0:0:
112,316,102783,6,0,P|176:296|228:292,1,100,0|0,1:0|0:0,0:0:0:0:
316,344,103212,1,8,0:0:0:0:
292,228,103426,1,0,0:0:0:0:
480,280,103641,2,0,P|464:288|368:296,1,100,0|0,1:0|0:0,0:0:0:0:
288,216,104069,1,8,0:0:0:0:
312,332,104283,1,0,0:0:0:0:
418,277,104498,6,0,B|404:236|431:177|502:178|515:133|517:85|487:33|456:6|419:-8|348:23|335:83|335:83|281:32|243:28|208:40|177:71|155:112|170:152|194:200|241:226|290:218,1,800,4|8,1:2|0:0,0:0:0:0:
413,104,106426,5,0,0:0:0:0:
260,122,106641,1,8,0:0:0:0:
347,260,106855,1,0,0:0:0:0:
172,279,107069,1,0,1:0:0:0:
264,356,107283,1,0,0:0:0:0:
410,322,107498,2,0,P|426:278|426:214,1,100,8|0,0:0|0:0,0:0:0:0:
227,156,107926,6,0,P|231:200|259:264,1,100,4|0,1:2|0:0,0:0:0:0:
328,156,108355,1,8,0:0:0:0:
248,56,108569,1,0,0:0:0:0:
148,124,108783,1,0,1:0:0:0:
312,144,108998,1,0,0:0:0:0:
244,44,109212,1,8,0:0:0:0:
316,136,109426,1,0,0:0:0:0:
192,240,109641,6,0,P|180:288|196:360,1,100,0|0,1:0|0:0,0:0:0:0:
300,372,110069,1,8,0:0:0:0:
192,324,110283,1,0,0:0:0:0:
284,244,110498,2,0,L|280:124,1,100,0|0,1:0|0:0,0:0:0:0:
376,68,110926,1,8,0:0:0:0:
352,188,111141,1,0,0:0:0:0:
200,124,111355,6,0,P|156:116|92:120,1,100,4|0,1:2|0:0,0:0:0:0:
24,212,111783,1,8,0:0:0:0:
108,124,111998,1,0,0:0:0:0:
24,40,112212,1,0,1:0:0:0:
28,208,112426,1,0,0:0:0:0:
104,116,112641,1,8,0:0:0:0:
24,28,112855,1,0,0:0:0:0:
176,60,113069,6,0,P|232:52|280:52,1,100,0|0,1:0|0:0,0:0:0:0:
376,120,113498,1,8,0:0:0:0:
368,0,113712,1,0,0:0:0:0:
284,140,113926,2,0,P|292:196|296:256,1,100,0|0,1:0|0:0,0:0:0:0:
240,344,114355,1,8,0:0:0:0:
196,232,114569,1,0,0:0:0:0:
120,140,114783,6,0,L|12:128,1,100,4|0,1:2|0:0,0:0:0:0:
204,92,115212,2,0,P|167:125|120:140,1,100,8|0,0:0|0:0,0:0:0:0:
304,100,115641,2,0,L|204:92,1,100,0|0,1:0|0:0,0:0:0:0:
106,23,116069,1,8,0:0:0:0:
20,128,116283,1,0,0:0:0:0:
196,176,116498,6,0,P|220:236|228:296,1,100,0|0,1:0|0:0,0:0:0:0:
160,368,116926,1,8,0:0:0:0:
108,260,117141,1,0,0:0:0:0:
224,284,117355,2,0,L|336:280,1,100,0|0,1:0|0:0,0:0:0:0:
416,204,117783,1,8,0:0:0:0:
300,176,117998,1,0,0:0:0:0:
256,192,118212,12,4,119926,1:2:0:0:
