osu file format v13

[General]
AudioFilename: Vocaloid - Mr. Music.mp3
AudioLeadIn: 0
PreviewTime: -1
Countdown: 1
SampleSet: None
StackLeniency: 0.7
Mode: 3
LetterboxInBreaks: 1
SpecialStyle: 0
WidescreenStoryboard: 0

[Editor]
DistanceSpacing: 1.1
BeatDivisor: 4
GridSize: 8
TimelineZoom: 1

[Metadata]
Title:Mr.Music
TitleUnicode:Mr.Music
Artist:Vocaloids
ArtistUnicode:Vocaloids
Creator:DoYouSeeMeNow
Version:Easy
Source:
Tags:
BeatmapID:491302
BeatmapSetID:208680

[Difficulty]
HPDrainRate:5
CircleSize:4
OverallDifficulty:5
ApproachRate:5
SliderMultiplier:1.4
SliderTickRate:1

[Events]
//Background and Video events
0,0,"32554688.jpg",0,0
//Break Periods
2,146200,170100
//Storyboard Layer 0 (Background)
//Storyboard Layer 1 (Fail)
//Storyboard Layer 2 (Pass)
//Storyboard Layer 3 (Foreground)
//Storyboard Sound Samples
//Background Colour Transformations
3,100,163,162,255

[TimingPoints]
0,400,4,1,0,100,1,0

[HitObjects]
64,192,2000,5,0,0:0:0:0:
448,192,3000,1,0,0:0:0:0:
64,192,4100,1,0,0:0:0:0:
448,192,5000,1,0,0:0:0:0:
192,192,6000,1,0,0:0:0:0:
320,192,6900,1,0,0:0:0:0:
192,192,7800,1,0,0:0:0:0:
320,192,7800,1,0,0:0:0:0:
64,192,8400,1,0,0:0:0:0:
448,192,8400,1,0,0:0:0:0:
64,192,10000,1,0,0:0:0:0:
448,192,10500,1,0,0:0:0:0:
192,192,11000,1,0,0:0:0:0:
320,192,11200,1,0,0:0:0:0:
64,192,11800,1,0,0:0:0:0:
448,192,12300,1,0,0:0:0:0:
64,192,12900,1,0,0:0:0:0:
320,192,13100,1,0,0:0:0:0:
64,192,14000,1,0,0:0:0:0:
448,192,14500,1,0,0:0:0:0:
64,192,14900,1,0,0:0:0:0:
448,192,15200,1,0,0:0:0:0:
192,192,15900,1,0,0:0:0:0:
320,192,16300,1,0,0:0:0:0:
192,192,16800,1,0,0:0:0:0:
320,192,17300,1,0,0:0:0:0:
192,192,17800,1,0,0:0:0:0:
320,192,18300,1,0,0:0:0:0:
64,192,18700,1,0,0:0:0:0:
448,192,19000,1,0,0:0:0:0:
64,192,19800,1,0,0:0:0:0:
448,192,20300,1,0,0:0:0:0:
64,192,20800,1,0,0:0:0:0:
448,192,21000,1,0,0:0:0:0:
64,192,21800,1,0,0:0:0:0:
448,192,22300,1,0,0:0:0:0:
64,192,22800,1,0,0:0:0:0:
448,192,23300,1,0,0:0:0:0:
64,192,23800,128,0,25200:0:0:0:0:
448,192,23800,128,0,25200:0:0:0:0:
64,192,25400,1,0,0:0:0:0:
448,192,25400,1,0,0:0:0:0:
64,192,27700,1,0,0:0:0:0:
448,192,28100,1,0,0:0:0:0:
64,192,28600,1,0,0:0:0:0:
448,192,29100,1,0,0:0:0:0:
448,192,31500,1,0,0:0:0:0:
64,192,32100,1,0,0:0:0:0:
448,192,32600,1,0,0:0:0:0:
64,192,33100,1,0,0:0:0:0:
64,192,35500,128,0,36000:0:0:0:0:
448,192,35500,128,0,36000:0:0:0:0:
64,192,36500,128,0,37000:0:0:0:0:
448,192,36500,128,0,37000:0:0:0:0:
64,192,37400,128,0,38100:0:0:0:0:
448,192,37400,128,0,38100:0:0:0:0:
64,192,38400,128,0,39000:0:0:0:0:
448,192,38400,128,0,39000:0:0:0:0:
64,192,39200,1,0,0:0:0:0:
448,192,39200,1,0,0:0:0:0:
64,192,39400,1,0,0:0:0:0:
448,192,39400,1,0,0:0:0:0:
64,192,40000,1,0,0:0:0:0:
192,192,40200,1,0,0:0:0:0:
320,192,40400,1,0,0:0:0:0:
448,192,40700,1,0,0:0:0:0:
320,192,41000,1,0,0:0:0:0:
64,192,41300,128,0,42200:0:0:0:0:
64,192,43300,1,0,0:0:0:0:
448,192,44400,1,0,0:0:0:0:
64,192,45400,1,0,0:0:0:0:
448,192,46300,1,0,0:0:0:0:
192,192,47300,1,0,0:0:0:0:
320,192,48300,1,0,0:0:0:0:
192,192,49300,1,0,0:0:0:0:
320,192,50300,1,0,0:0:0:0:
64,192,51200,1,0,0:0:0:0:
448,192,51800,1,0,0:0:0:0:
448,192,52200,1,0,0:0:0:0:
64,192,52800,1,0,0:0:0:0:
64,192,53200,1,0,0:0:0:0:
448,192,53800,1,0,0:0:0:0:
448,192,54100,1,0,0:0:0:0:
64,192,55200,1,0,0:0:0:0:
448,192,56100,1,0,0:0:0:0:
64,192,57200,1,0,0:0:0:0:
448,192,58100,1,0,0:0:0:0:
192,192,59100,1,0,0:0:0:0:
320,192,59600,128,0,59900:0:0:0:0:
320,192,60600,1,0,0:0:0:0:
192,192,61100,1,0,0:0:0:0:
320,192,61600,1,0,0:0:0:0:
192,192,62000,1,0,0:0:0:0:
320,192,62500,1,0,0:0:0:0:
64,192,63000,1,0,0:0:0:0:
448,192,63500,1,0,0:0:0:0:
64,192,64000,1,0,0:0:0:0:
448,192,64500,1,0,0:0:0:0:
192,192,65000,1,0,0:0:0:0:
320,192,65500,1,0,0:0:0:0:
192,192,66000,1,0,0:0:0:0:
448,192,66500,1,0,0:0:0:0:
64,192,66900,1,0,0:0:0:0:
448,192,67400,1,0,0:0:0:0:
192,192,68000,1,0,0:0:0:0:
320,192,68400,1,0,0:0:0:0:
64,192,68900,1,0,0:0:0:0:
448,192,69400,1,0,0:0:0:0:
192,192,69900,1,0,0:0:0:0:
320,192,70400,1,0,0:0:0:0:
64,192,70900,1,0,0:0:0:0:
448,192,71400,1,0,0:0:0:0:
64,192,71900,1,0,0:0:0:0:
448,192,72400,1,0,0:0:0:0:
64,192,72900,1,0,0:0:0:0:
320,192,73400,128,0,73600:0:0:0:0:
64,192,74800,128,0,75800:0:0:0:0:
448,192,74800,128,0,75800:0:0:0:0:
64,192,76200,1,0,0:0:0:0:
192,192,76400,1,0,0:0:0:0:
320,192,76600,1,0,0:0:0:0:
64,192,76900,1,0,0:0:0:0:
192,192,77300,1,0,0:0:0:0:
320,192,77600,1,0,0:0:0:0:
448,192,78700,128,0,79800:0:0:0:0:
448,192,80300,1,0,0:0:0:0:
320,192,80800,1,0,0:0:0:0:
64,192,81300,1,0,0:0:0:0:
64,192,81700,1,0,0:0:0:0:
448,192,81700,1,0,0:0:0:0:
64,192,82200,1,0,0:0:0:0:
192,192,82500,1,0,0:0:0:0:
320,192,82700,1,0,0:0:0:0:
448,192,83200,1,0,0:0:0:0:
192,192,83700,1,0,0:0:0:0:
320,192,84200,1,0,0:0:0:0:
64,192,84700,1,0,0:0:0:0:
448,192,84700,1,0,0:0:0:0:
64,192,85600,1,0,0:0:0:0:
448,192,85600,1,0,0:0:0:0:
64,192,86800,1,0,0:0:0:0:
192,192,87300,1,0,0:0:0:0:
320,192,87700,1,0,0:0:0:0:
64,192,88200,1,0,0:0:0:0:
192,192,88200,1,0,0:0:0:0:
320,192,88200,1,0,0:0:0:0:
448,192,88200,1,0,0:0:0:0:
448,192,88700,1,0,0:0:0:0:
320,192,88900,1,0,0:0:0:0:
64,192,89400,1,0,0:0:0:0:
192,192,89600,1,0,0:0:0:0:
64,192,90600,128,0,91600:0:0:0:0:
64,192,92600,1,0,0:0:0:0:
320,192,93600,1,0,0:0:0:0:
192,192,94500,1,0,0:0:0:0:
448,192,95500,1,0,0:0:0:0:
64,192,96500,1,0,0:0:0:0:
448,192,97500,1,0,0:0:0:0:
64,192,98400,1,0,0:0:0:0:
192,192,99400,1,0,0:0:0:0:
448,192,100400,1,0,0:0:0:0:
192,192,101400,1,0,0:0:0:0:
320,192,102300,1,0,0:0:0:0:
192,192,102900,1,0,0:0:0:0:
320,192,103400,1,0,0:0:0:0:
64,192,104200,1,0,0:0:0:0:
448,192,104200,1,0,0:0:0:0:
192,192,104500,1,0,0:0:0:0:
320,192,104700,1,0,0:0:0:0:
448,192,104900,1,0,0:0:0:0:
320,192,105100,1,0,0:0:0:0:
64,192,105400,128,0,106200:0:0:0:0:
448,192,106200,1,0,0:0:0:0:
64,192,108300,1,0,0:0:0:0:
448,192,109200,1,0,0:0:0:0:
192,192,110200,1,0,0:0:0:0:
320,192,110700,1,0,0:0:0:0:
192,192,111200,1,0,0:0:0:0:
320,192,111700,1,0,0:0:0:0:
64,192,112200,1,0,0:0:0:0:
448,192,112200,1,0,0:0:0:0:
192,192,112600,1,0,0:0:0:0:
320,192,112900,1,0,0:0:0:0:
448,192,113200,1,0,0:0:0:0:
448,192,113600,1,0,0:0:0:0:
320,192,113900,1,0,0:0:0:0:
192,192,114200,1,0,0:0:0:0:
64,192,114800,1,0,0:0:0:0:
448,192,115000,1,0,0:0:0:0:
448,192,115300,1,0,0:0:0:0:
320,192,115500,1,0,0:0:0:0:
192,192,115700,1,0,0:0:0:0:
64,192,115900,1,0,0:0:0:0:
64,192,116400,1,0,0:0:0:0:
192,192,116700,1,0,0:0:0:0:
320,192,117000,1,0,0:0:0:0:
448,192,117500,1,0,0:0:0:0:
320,192,117700,1,0,0:0:0:0:
192,192,117900,1,0,0:0:0:0:
64,192,118400,1,0,0:0:0:0:
448,192,118700,1,0,0:0:0:0:
64,192,118900,1,0,0:0:0:0:
64,192,119300,1,0,0:0:0:0:
192,192,119500,1,0,0:0:0:0:
320,192,119700,1,0,0:0:0:0:
448,192,120000,128,0,122100:0:0:0:0:
320,192,122100,1,0,0:0:0:0:
192,192,122500,1,0,0:0:0:0:
64,192,122700,1,0,0:0:0:0:
64,192,124100,128,0,124700:0:0:0:0:
448,192,124700,1,0,0:0:0:0:
192,192,125200,1,0,0:0:0:0:
320,192,125500,1,0,0:0:0:0:
192,192,125700,1,0,0:0:0:0:
64,192,126000,1,0,0:0:0:0:
448,192,126000,1,0,0:0:0:0:
192,192,126300,1,0,0:0:0:0:
320,192,126300,1,0,0:0:0:0:
64,192,126700,1,0,0:0:0:0:
448,192,126700,1,0,0:0:0:0:
64,192,127900,1,0,0:0:0:0:
448,192,128700,1,0,0:0:0:0:
448,192,129400,1,0,0:0:0:0:
64,192,130000,128,0,130700:0:0:0:0:
448,192,131900,1,0,0:0:0:0:
64,192,132400,1,0,0:0:0:0:
448,192,132900,1,0,0:0:0:0:
64,192,133500,1,0,0:0:0:0:
448,192,133900,128,0,134700:0:0:0:0:
64,192,135400,128,0,135700:0:0:0:0:
448,192,135900,1,0,0:0:0:0:
192,192,136400,1,0,0:0:0:0:
320,192,136900,1,0,0:0:0:0:
192,192,137400,1,0,0:0:0:0:
320,192,137800,1,0,0:0:0:0:
192,192,138100,1,0,0:0:0:0:
448,192,138500,1,0,0:0:0:0:
192,192,138700,1,0,0:0:0:0:
64,192,139600,1,0,0:0:0:0:
192,192,139700,1,0,0:0:0:0:
320,192,139800,1,0,0:0:0:0:
448,192,141700,1,0,0:0:0:0:
320,192,141800,1,0,0:0:0:0:
192,192,141900,1,0,0:0:0:0:
64,192,143600,1,0,0:0:0:0:
192,192,143700,1,0,0:0:0:0:
320,192,143800,1,0,0:0:0:0:
448,192,145600,1,0,0:0:0:0:
320,192,145700,1,0,0:0:0:0:
448,192,145800,1,0,0:0:0:0:
320,192,145900,1,0,0:0:0:0:
448,192,146000,1,0,0:0:0:0:
64,192,171300,132,0,175100:0:0:0:0:
320,192,175100,1,0,0:0:0:0:
448,192,175100,128,0,178200:0:0:0:0:
64,192,179200,128,0,182200:0:0:0:0:
448,192,183000,128,0,185300:0:0:0:0:
64,192,187100,128,0,189900:0:0:0:0:
192,192,188200,1,0,0:0:0:0:
320,192,188400,1,0,0:0:0:0:
448,192,188600,1,0,0:0:0:0:
448,192,189300,1,0,0:0:0:0:
320,192,189500,1,0,0:0:0:0:
192,192,189700,1,0,0:0:0:0:
64,192,192500,1,0,0:0:0:0:
192,192,192800,1,0,0:0:0:0:
64,192,193100,1,0,0:0:0:0:
64,192,193300,1,0,0:0:0:0:
448,192,193600,1,0,0:0:0:0:
192,192,193900,1,0,0:0:0:0:
64,192,194100,1,0,0:0:0:0:
192,192,194400,1,0,0:0:0:0:
192,192,194700,1,0,0:0:0:0:
448,192,194900,1,0,0:0:0:0:
64,192,196800,1,0,0:0:0:0:
192,192,197100,1,0,0:0:0:0:
320,192,197300,1,0,0:0:0:0:
448,192,197500,1,0,0:0:0:0:
320,192,197800,1,0,0:0:0:0:
192,192,198000,1,0,0:0:0:0:
64,192,198200,1,0,0:0:0:0:
448,192,198500,128,0,200800:0:0:0:0:
64,192,200800,1,0,0:0:0:0:
320,192,200800,1,0,0:0:0:0:
64,192,201200,1,0,0:0:0:0:
448,192,201200,1,0,0:0:0:0:
64,192,202100,1,0,0:0:0:0:
192,192,202300,1,0,0:0:0:0:
320,192,202500,1,0,0:0:0:0:
448,192,202900,128,0,203500:0:0:0:0:
320,192,203500,1,0,0:0:0:0:
64,192,203900,1,0,0:0:0:0:
192,192,204200,1,0,0:0:0:0:
320,192,204500,1,0,0:0:0:0:
448,192,204800,128,0,205500:0:0:0:0:
320,192,205500,1,0,0:0:0:0:
64,192,205900,1,0,0:0:0:0:
192,192,206200,1,0,0:0:0:0:
320,192,206400,1,0,0:0:0:0:
320,192,206600,128,0,207500:0:0:0:0:
448,192,207500,1,0,0:0:0:0:
64,192,208100,128,0,208500:0:0:0:0:
192,192,208700,128,0,209500:0:0:0:0:
448,192,210100,128,0,210400:0:0:0:0:
64,192,210700,1,0,0:0:0:0:
448,192,210700,1,0,0:0:0:0:
192,192,211200,1,0,0:0:0:0:
320,192,211200,1,0,0:0:0:0:
448,192,211700,1,0,0:0:0:0:
64,192,211700,1,0,0:0:0:0:
192,192,212200,1,0,0:0:0:0:
320,192,212200,1,0,0:0:0:0:
64,192,212500,1,0,0:0:0:0:
192,192,212800,1,0,0:0:0:0:
320,192,213000,1,0,0:0:0:0:
448,192,213300,1,0,0:0:0:0:
320,192,213600,1,0,0:0:0:0:
64,192,214100,1,0,0:0:0:0:
192,192,214300,1,0,0:0:0:0:
320,192,214500,1,0,0:0:0:0:
448,192,215100,128,0,215300:0:0:0:0:
64,192,215500,128,0,215700:0:0:0:0:
448,192,215900,128,0,216100:0:0:0:0:
64,192,216400,128,0,216700:0:0:0:0:
448,192,217100,128,0,217400:0:0:0:0:
64,192,218400,1,0,0:0:0:0:
192,192,218900,1,0,0:0:0:0:
320,192,219400,1,0,0:0:0:0:
448,192,219900,1,0,0:0:0:0:
64,192,220300,1,0,0:0:0:0:
192,192,220800,1,0,0:0:0:0:
320,192,221200,1,0,0:0:0:0:
448,192,221700,1,0,0:0:0:0:
64,192,221700,128,0,222100:0:0:0:0:
320,192,221900,1,0,0:0:0:0:
192,192,222100,1,0,0:0:0:0:
64,192,222400,128,0,223100:0:0:0:0:
448,192,223100,1,0,0:0:0:0:
64,192,223700,1,0,0:0:0:0:
192,192,223900,1,0,0:0:0:0:
64,192,224100,1,0,0:0:0:0:
448,192,224400,1,0,0:0:0:0:
320,192,224600,1,0,0:0:0:0:
448,192,224800,1,0,0:0:0:0:
64,192,225200,1,0,0:0:0:0:
192,192,225200,1,0,0:0:0:0:
320,192,225200,1,0,0:0:0:0:
448,192,225200,1,0,0:0:0:0:
64,192,226000,1,0,0:0:0:0:
192,192,226200,1,0,0:0:0:0:
320,192,226400,1,0,0:0:0:0:
448,192,226800,1,0,0:0:0:0:
448,192,227200,128,0,227800:0:0:0:0:
64,192,227200,128,0,227800:0:0:0:0:
64,192,228200,1,0,0:0:0:0:
192,192,228500,1,0,0:0:0:0:
320,192,228700,1,0,0:0:0:0:
448,192,229000,1,0,0:0:0:0:
320,192,229300,1,0,0:0:0:0:
192,192,229700,1,0,0:0:0:0:
320,192,230000,1,0,0:0:0:0:
192,192,230300,1,0,0:0:0:0:
448,192,230700,1,0,0:0:0:0:
64,192,231200,1,0,0:0:0:0:
448,192,231700,1,0,0:0:0:0:
64,192,232100,128,0,232400:0:0:0:0:
448,192,232800,128,0,233100:0:0:0:0:
64,192,233800,1,0,0:0:0:0:
192,192,234000,1,0,0:0:0:0:
320,192,234200,1,0,0:0:0:0:
448,192,234600,1,0,0:0:0:0:
320,192,235100,1,0,0:0:0:0:
64,192,235700,1,0,0:0:0:0:
64,192,236200,1,0,0:0:0:0:
192,192,236500,1,0,0:0:0:0:
64,192,236700,1,0,0:0:0:0:
192,192,236900,1,0,0:0:0:0:
64,192,237100,1,0,0:0:0:0:
64,192,237700,1,0,0:0:0:0:
192,192,238000,1,0,0:0:0:0:
320,192,238300,1,0,0:0:0:0:
448,192,238700,1,0,0:0:0:0:
320,192,239200,1,0,0:0:0:0:
192,192,239700,1,0,0:0:0:0:
192,192,240000,1,0,0:0:0:0:
320,192,240300,1,0,0:0:0:0:
448,192,240800,1,0,0:0:0:0:
320,192,241100,1,0,0:0:0:0:
64,192,242200,1,0,0:0:0:0:
448,192,242200,1,0,0:0:0:0:
192,192,242500,1,0,0:0:0:0:
320,192,242500,1,0,0:0:0:0:
448,192,242800,1,0,0:0:0:0:
64,192,242800,1,0,0:0:0:0:
