osu file format v14

[General]
AudioFilename: Vocaloid_Negative ThinkingDubstep.mp3
AudioLeadIn: 0
PreviewTime: 85230
Countdown: 0
SampleSet: Normal
StackLeniency: 0.7
Mode: 0
LetterboxInBreaks: 0
EpilepsyWarning: 1
WidescreenStoryboard: 1

[Editor]
DistanceSpacing: 1
BeatDivisor: 4
GridSize: 4
TimelineZoom: 1.2

[Metadata]
Title:Negative Thinking (Dubstep)
TitleUnicode:Negative Thinking (Dubstep)
Artist:Vocaloid_Hatsune Miku
ArtistUnicode:Vocaloid_Hatsune Miku
Creator:phongdai
Version:Normal
Source:Ocelot
Tags:Dubstep
BeatmapID:544986
BeatmapSetID:235088

[Difficulty]
HPDrainRate:5
CircleSize:3.5
OverallDifficulty:6
ApproachRate:6
SliderMultiplier:0.99999990463257
SliderTickRate:1

[Events]
//Background and Video events
0,0,"26174_vocaloid_hatsune_miku.jpg",0,0
//Break Periods
2,25430,30180
2,109430,120180
2,133430,138180
//Storyboard Layer 0 (Background)
//Storyboard Layer 1 (Fail)
//Storyboard Layer 2 (Pass)
//Storyboard Layer 3 (Foreground)
//Storyboard Sound Samples

[TimingPoints]
1230,375,4,1,1,55,1,0
1230,-200,4,1,1,55,0,0
7230,-133.333333333333,4,1,1,55,0,0
13230,-100,4,1,1,55,0,0
25230,-200,4,1,1,55,0,0
31230,-100,4,1,0,55,0,0
37230,-200,4,1,1,55,0,0
38730,-100,4,1,1,55,0,0
40230,-200,4,1,1,55,0,0
40605,-100,4,1,1,55,0,0
40980,-200,4,1,1,55,0,0
41730,-100,4,1,1,55,0,0
43230,-83.3333333333333,4,1,1,55,0,0
44730,-100,4,1,1,55,0,0
46230,-200,4,1,1,55,0,0
47730,-83.3333333333333,4,1,1,55,0,0
49230,-133.333333333333,4,1,1,55,0,0
49980,-200,4,1,1,55,0,0
50730,-100,4,1,1,55,0,0
52230,-83.3333333333333,4,1,1,55,0,0
52980,-200,4,1,1,55,0,0
53730,-100,4,1,1,55,0,0
55230,-83.3333333333333,4,1,1,55,0,0
56730,-100,4,1,1,55,0,0
58230,-200,4,1,1,55,0,0
59730,-83.3333333333333,4,1,1,55,0,0
61230,-200,4,1,1,55,0,0
61980,-100,4,1,1,55,0,0
63480,-133.333333333333,4,1,1,55,0,0
64230,-200,4,1,1,55,0,0
65167,-100,4,1,1,55,0,0
67230,-83.3333333333333,4,1,1,55,0,0
68730,-200,4,1,1,55,0,0
69480,-100,4,1,1,55,0,0
70230,-200,4,1,1,55,0,0
71730,-83.3333333333333,4,1,1,55,0,0
73230,-133.333333333333,4,1,1,55,0,0
73980,-200,4,1,1,55,0,0
76230,-100,4,1,1,55,0,0
79230,-83.3333333333333,4,1,1,55,0,0
80730,-200,4,1,1,55,0,0
81480,-100,4,1,1,55,0,0
82230,-200,4,1,1,55,0,0
83730,-83.3333333333333,4,1,1,55,0,0
85230,-100,4,2,1,55,0,0
103230,-133.333333333333,4,2,0,55,0,0
109230,-200,4,1,1,55,0,0
121230,-100,4,2,0,55,0,0
133230,-200,4,1,1,55,0,0
139230,-133.333333333333,4,1,1,55,0,0
145230,-200,4,1,1,55,0,1
146730,-100,4,1,1,55,0,1
148230,-200,4,1,1,55,0,1
149730,-100,4,1,1,55,0,1
151230,-83.3333333333333,4,1,1,55,0,1
152730,-100,4,1,1,55,0,1
154230,-200,4,1,1,55,0,1
155730,-83.3333333333333,4,1,1,55,0,1
157230,-133.333333333333,4,1,1,55,0,1
157980,-200,4,1,1,55,0,1
158730,-100,4,1,1,55,0,1
160230,-83.3333333333333,4,1,1,55,0,1
160980,-200,4,1,1,55,0,1
161730,-100,4,1,1,55,0,1
163230,-83.3333333333333,4,1,1,55,0,1
164730,-100,4,1,1,55,0,1
166230,-200,4,1,1,55,0,1
167730,-83.3333333333333,4,1,1,55,0,1
169230,-200,4,1,1,55,0,1
169980,-100,4,1,1,55,0,1
171480,-133.333333333333,4,1,1,55,0,1
172230,-200,4,1,1,55,0,1
172980,-100,4,1,1,55,0,1
175230,-83.3333333333333,4,1,1,55,0,1
176730,-200,4,1,1,55,0,1
177480,-100,4,1,1,55,0,1
178230,-200,4,1,1,55,0,1
179730,-83.3333333333333,4,1,1,55,0,1
181230,-133.333333333333,4,1,1,55,0,1
181980,-200,4,1,1,55,0,1
184230,-100,4,1,1,55,0,1
187230,-83.3333333333333,4,1,1,55,0,1
188730,-200,4,1,1,55,0,1
189480,-100,4,1,1,55,0,1
190230,-200,4,1,1,55,0,1
191730,-83.3333333333333,4,1,1,55,0,1
193230,-100,4,2,1,55,0,0
211230,-133.333333333333,4,2,0,55,0,0
217230,-200,4,1,1,55,0,0

[Colours]
Combo1 : 0,53,79
Combo2 : 255,149,79
Combo3 : 189,98,121
Combo4 : 255,255,174

[HitObjects]
60,320,13230,6,0,P|116:320|164:280,1,99.999990463257,2|0,0:0|0:0,0:0:0:0:
84,224,13980,1,4,0:0:0:0:
180,196,14355,1,0,0:0:0:0:
156,100,14730,2,0,P|212:100|260:140,1,99.999990463257,2|0,0:0|0:0,0:0:0:0:
344,148,15480,2,0,L|404:152,1,49.9999952316285,4|0,0:0|0:0,0:0:0:0:
444,232,15855,2,0,L|384:228,1,49.9999952316285
304,220,16230,6,0,P|280:252|216:268,1,99.999990463257,2|0,0:0|0:0,0:0:0:0:
220,168,16980,1,4,0:0:0:0:
136,220,17355,1,0,0:0:0:0:
52,168,17730,2,0,P|76:136|140:120,1,99.999990463257,2|0,0:0|0:0,0:0:0:0:
224,84,18480,2,0,L|288:80,1,49.9999952316285,4|0,0:0|0:0,0:0:0:0:
296,160,18855,2,0,L|345:156,1,49.9999952316285
436,156,19230,38,0,P|432:196|376:240,1,99.999990463257,2|0,0:0|0:0,0:0:0:0:
292,248,19980,1,4,0:0:0:0:
204,196,20355,1,0,0:0:0:0:
216,96,20730,2,0,P|252:64|308:60,1,99.999990463257,2|0,0:0|0:0,0:0:0:0:
292,160,21480,2,0,L|292:220,1,49.9999952316285,4|0,0:0|0:0,0:0:0:0:
368,168,21855,2,0,L|368:108,1,49.9999952316285
448,168,22230,6,0,P|440:208|388:248,1,99.999990463257,2|0,0:0|0:0,0:0:0:0:
296,248,22980,1,4,0:0:0:0:
196,252,23355,1,0,0:0:0:0:
96,252,23730,2,0,P|112:192|140:168,1,99.999990463257,2|0,0:0|0:0,0:0:0:0:
224,116,24480,2,0,L|280:104,1,49.9999952316285,4|0,0:0|0:0,0:0:0:0:
324,176,24855,2,0,L|268:188,1,49.9999952316285
192,204,25230,1,0,0:0:0:0:
256,192,31230,12,0,35730,0:0:0:0:
360,144,37230,6,0,B|332:172|380:224|352:244,1,99.999990463257,2|4,0:0|0:0,0:0:0:0:
280,216,38355,1,0,0:0:0:0:
280,216,38730,22,0,B|244:200|200:236|172:216,1,99.999990463257,2|0,0:0|0:0,0:0:0:0:
120,144,39480,2,0,B|156:160|200:124|228:144,1,99.999990463257,4|0,0:0|0:0,0:0:0:0:
320,92,40230,22,0,B|328:80|368:104|376:88,1,49.9999952316285,2|0,0:0|0:0,0:0:0:0:
320,92,40980,1,4,0:0:0:0:
344,168,41355,1,0,0:0:0:0:
344,168,41730,22,0,B|360:200|324:244|356:280,1,99.999990463257,2|0,0:0|0:0,0:0:0:0:
248,264,42480,2,0,B|224:241|260:197|244:165,1,99.999990463257,4|0,0:0|0:0,0:0:0:0:
128,140,43230,21,2,0:0:0:0:
208,52,43605,1,0,0:0:0:0:
244,168,43980,1,4,0:0:0:0:
328,84,44355,1,0,0:0:0:0:
328,84,44730,22,0,B|376:80|380:152|404:160,1,99.999990463257,2|0,0:0|0:0,0:0:0:0:
432,244,45480,2,0,P|376:256|332:232,1,99.999990463257,4|0,0:0|0:0,0:0:0:0:
248,208,46230,22,0,B|236:220|200:196|192:216,1,49.9999952316285,2|0,0:0|0:0,0:0:0:0:
199,208,46980,2,0,B|187:195|211:159|191:151,1,49.9999952316285,4|0,0:0|0:0,0:0:0:0:
240,80,47730,22,0,B|272:60|340:136|368:96,1,119.999984893799,2|0,0:0|0:0,0:0:0:0:
472,104,48480,2,0,P|504:168|476:232,1,119.999984893799,4|0,0:0|0:0,0:0:0:0:
372,256,49230,22,0,L|320:260,1,37.4999978542328,2|0,0:0|0:0,0:0:0:0:
300,188,49605,2,0,L|248:192,1,37.4999978542328,0|0,0:0|0:0,0:0:0:0:
232,104,49980,2,0,L|172:108,1,49.9999952316285,4|0,0:0|0:0,0:0:0:0:
84,112,50730,22,0,B|76:156|124:184|92:228,1,99.999990463257,2|0,0:0|0:0,0:0:0:0:
200,196,51480,2,0,B|208:240|160:268|192:312,1,99.999990463257,4|0,0:0|0:0,0:0:0:0:
280,272,52230,22,0,B|312:280|348:244|380:264,2,89.9999886703496,2|0|0,0:0|0:0|0:0,0:0:0:0:
300,188,52980,2,0,L|300:136,1,49.9999952316285,4|0,0:0|0:0,0:0:0:0:
300,40,53730,22,0,B|256:36|240:72|184:56,1,99.999990463257,2|0,0:0|0:0,0:0:0:0:
104,68,54480,2,0,P|76:128|88:168,1,99.999990463257,4|0,0:0|0:0,0:0:0:0:
160,252,55230,21,2,0:0:0:0:
204,140,55605,1,0,0:0:0:0:
272,240,55980,1,4,0:0:0:0:
324,132,56355,1,0,0:0:0:0:
324,132,56730,22,0,B|344:120|416:160|440:140,1,99.999990463257,2|0,0:0|0:0,0:0:0:0:
436,244,57480,2,0,B|416:256|344:216|320:236,1,99.999990463257,4|0,0:0|0:0,0:0:0:0:
236,208,58230,22,0,B|224:200|196:216|180:208,1,49.9999952316285,2|0,0:0|0:0,0:0:0:0:
186,210,58980,2,0,B|194:198|178:170|186:154,1,49.9999952316285,4|0,0:0|0:0,0:0:0:0:
168,44,59730,22,0,B|180:96|244:40|276:96,1,119.999984893799,2|0,0:0|0:0,0:0:0:0:
312,200,60480,2,0,P|372:216|428:176,1,119.999984893799,4|0,0:0|0:0,0:0:0:0:
364,136,61230,22,0,B|348:156|376:220|364:240,1,99.999990463257,2|4,0:0|0:0,0:0:0:0:
296,296,62355,5,0,0:0:0:0:
224,228,62730,1,2,0:0:0:0:
156,300,63105,1,0,0:0:0:0:
96,224,63480,2,0,L|112:144,1,74.9999957084655,4|0,0:0|0:0,0:0:0:0:
180,72,64230,38,0,B|200:64|224:84|240:76,1,49.9999952316285,2|0,0:0|0:0,0:0:0:0:
180,72,64980,1,4,0:0:0:0:
220,164,65355,5,0,0:0:0:0:
296,228,65730,2,0,P|340:236|396:212,1,99.999990463257,2|0,0:0|0:0,0:0:0:0:
328,136,66480,2,0,L|320:80,1,49.9999952316285,4|0,0:0|0:0,0:0:0:0:
232,116,66855,2,0,L|240:60,1,49.9999952316285
252,0,67230,37,2,0:0:0:0:
140,40,67605,1,0,0:0:0:0:
232,116,67980,1,4,0:0:0:0:
116,152,68355,1,0,0:0:0:0:
116,152,68730,2,0,B|88:180|136:224|112:256,1,99.999990463257,2|4,0:0|0:0,0:0:0:0:
188,176,69855,1,0,0:0:0:0:
280,232,70230,2,0,B|288:224|328:236|340:228,1,49.9999952316285,2|0,0:0|0:0,0:0:0:0:
329,230,70980,2,0,B|323:228|335:188|327:180,1,49.9999952316285,4|0,0:0|0:0,0:0:0:0:
332,60,71730,6,0,B|296:48|268:128|200:104,1,119.999984893799,2|0,0:0|0:0,0:0:0:0:
116,156,72480,2,0,B|152:144|180:224|248:200,1,119.999984893799,4|0,0:0|0:0,0:0:0:0:
324,272,73230,38,0,L|372:264,1,37.4999978542328,2|0,0:0|0:0,0:0:0:0:
336,192,73605,2,0,L|384:184,1,37.4999978542328
400,96,73980,2,0,L|344:108,1,49.9999952316285,4|0,0:0|0:0,0:0:0:0:
212,128,74730,2,0,B|184:112|140:160|112:144,2,99.999990463257,2|4|2,0:0|0:0|0:0,0:0:0:0:
256,240,76605,6,0,P|304:212|328:160,1,99.999990463257,0|4,0:0|0:0,0:0:0:0:
376,88,77355,1,0,0:0:0:0:
468,128,77730,1,2,0:0:0:0:
400,204,78105,1,0,0:0:0:0:
348,292,78480,2,0,L|300:304,1,49.9999952316285,4|0,0:0|0:0,0:0:0:0:
232,240,78855,2,0,L|280:228,1,49.9999952316285,0|0,0:0|0:0,0:0:0:0:
340,212,79230,37,2,0:0:0:0:
260,124,79605,1,0,0:0:0:0:
232,240,79980,1,4,0:0:0:0:
148,152,80355,1,2,0:0:0:0:
148,152,80730,2,0,B|124:136|72:168|40:152,1,99.999990463257,2|4,0:0|0:0,0:0:0:0:
76,60,81855,1,0,0:0:0:0:
200,36,82230,2,0,B|212:32|248:44|260:36,1,49.9999952316285,2|0,0:0|0:0,0:0:0:0:
249,38,82980,2,0,B|254:39|242:75|246:87,1,49.9999952316285,4|0,0:0|0:0,0:0:0:0:
268,204,83730,6,0,B|300:180|360:220|392:200,1,119.999984893799,2|0,0:0|0:0,0:0:0:0:
296,284,84480,2,0,B|264:308|204:268|172:288,1,119.999984893799,4|0,0:0|0:0,0:0:0:0:
120,204,85230,6,0,P|112:156|148:112,1,99.999990463257,2|0,0:0|0:0,0:0:0:0:
236,84,85980,2,0,L|336:80,1,99.999990463257,4|0,0:0|0:0,0:0:0:0:
420,184,86730,2,0,P|420:216|380:272,1,99.999990463257,2|0,0:0|0:0,0:0:0:0:
328,188,87480,2,0,L|428:184,1,99.999990463257,4|0,0:0|0:0,0:0:0:0:
368,92,88230,2,0,B|336:76|296:112|260:96,1,99.999990463257,2|0,0:0|0:0,0:0:0:0:
176,136,88980,2,0,L|152:236,1,99.999990463257,4|0,0:0|0:0,0:0:0:0:
228,300,89730,1,2,0:0:0:0:
328,300,90105,1,0,0:0:0:0:
408,240,90480,2,0,L|384:142,1,99.999990463257,4|0,0:0|0:0,0:0:0:0:
288,116,91230,6,0,B|252:104|228:128|176:120,1,99.999990463257,2|0,0:0|0:0,0:0:0:0:
288,116,91980,2,0,L|311:213,1,99.999990463257,4|0,0:0|0:0,0:0:0:0:
332,312,92730,2,0,P|276:344|224:340,1,99.999990463257,2|0,0:0|0:0,0:0:0:0:
176,272,93480,2,0,L|152:174,1,99.999990463257,4|0,0:0|0:0,0:0:0:0:
252,180,94230,2,0,P|320:180|356:152,1,99.999990463257,2|0,0:0|0:0,0:0:0:0:
248,180,94980,2,0,L|271:277,1,99.999990463257,4|0,0:0|0:0,0:0:0:0:
400,268,95730,2,0,B|384:240|432:204|412:152,1,99.999990463257,2|0,0:0|0:0,0:0:0:0:
336,68,96480,1,4,0:0:0:0:
336,68,96667,1,4,0:0:0:0:
336,68,96855,1,4,0:0:0:0:
196,60,97230,38,4,P|148:68|112:108,1,99.999990463257,2|0,0:0|0:0,0:0:0:0:
113,103,97980,2,0,L|136:208,1,99.999990463257,4|0,0:0|0:0,0:0:0:0:
220,252,98730,2,0,B|248:236|304:256|328:248,1,99.999990463257,2|0,0:0|0:0,0:0:0:0:
318,249,99480,2,0,L|339:151,1,99.999990463257,4|0,0:0|0:0,0:0:0:0:
392,68,100230,2,0,P|448:64|496:92,1,99.999990463257,2|0,0:0|0:0,0:0:0:0:
388,68,100980,2,0,L|366:165,1,99.999990463257,4|0,0:0|0:0,0:0:0:0:
240,184,101730,2,0,B|212:164|156:188|132:180,1,99.999990463257,2|0,0:0|0:0,0:0:0:0:
240,184,102480,2,0,L|272:292,1,99.999990463257,4|0,0:0|0:0,0:0:0:0:
256,192,103230,12,0,109230,0:0:0:0:
452,64,121230,6,0,P|396:64|348:104,1,99.999990463257,2|0,0:0|0:0,0:0:0:0:
428,160,121980,1,4,0:0:0:0:
332,188,122355,1,0,0:0:0:0:
356,284,122730,2,0,P|300:284|252:244,1,99.999990463257,2|0,0:0|0:0,0:0:0:0:
168,236,123480,2,0,L|108:232,1,49.9999952316285,4|0,0:0|0:0,0:0:0:0:
68,152,123855,2,0,L|128:156,1,49.9999952316285
208,164,124230,6,0,P|232:132|296:116,1,99.999990463257,2|0,0:0|0:0,0:0:0:0:
292,216,124980,1,4,0:0:0:0:
376,164,125355,1,0,0:0:0:0:
460,216,125730,2,0,P|436:248|372:264,1,99.999990463257,2|0,0:0|0:0,0:0:0:0:
288,300,126480,2,0,L|224:304,1,49.9999952316285,4|0,0:0|0:0,0:0:0:0:
216,224,126855,2,0,L|167:228,1,49.9999952316285
76,228,127230,38,0,P|80:188|136:144,1,99.999990463257,2|0,0:0|0:0,0:0:0:0:
220,136,127980,1,4,0:0:0:0:
308,188,128355,1,0,0:0:0:0:
296,288,128730,2,0,P|260:320|204:324,1,99.999990463257,2|0,0:0|0:0,0:0:0:0:
220,224,129480,2,0,L|220:164,1,49.9999952316285,4|0,0:0|0:0,0:0:0:0:
144,216,129855,2,0,L|144:276,1,49.9999952316285
64,216,130230,6,0,P|72:176|124:136,1,99.999990463257,2|0,0:0|0:0,0:0:0:0:
216,136,130980,1,4,0:0:0:0:
316,132,131355,1,0,0:0:0:0:
416,132,131730,2,0,P|400:192|372:216,1,99.999990463257,2|0,0:0|0:0,0:0:0:0:
288,268,132480,2,0,L|232:280,1,49.9999952316285,4|0,0:0|0:0,0:0:0:0:
188,208,132855,2,0,L|244:196,1,49.9999952316285
320,180,133230,1,0,0:0:0:0:
256,192,139230,21,0,0:0:0:0:
256,192,140730,53,0,0:0:0:0:
256,192,142230,53,0,0:0:0:0:
256,192,143730,53,0,0:0:0:0:
152,240,144480,1,0,0:0:0:0:
152,240,145230,22,0,B|180:212|132:160|160:140,1,99.999990463257,2|4,0:0|0:0,0:0:0:0:
232,168,146355,1,0,0:0:0:0:
232,168,146730,22,0,B|268:184|312:148|340:168,1,99.999990463257,2|0,0:0|0:0,0:0:0:0:
392,240,147480,2,0,B|356:224|312:260|284:240,1,99.999990463257,4|0,0:0|0:0,0:0:0:0:
192,292,148230,22,0,B|184:304|144:280|136:296,1,49.9999952316285,2|0,0:0|0:0,0:0:0:0:
192,292,148980,1,4,0:0:0:0:
168,216,149355,1,0,0:0:0:0:
168,216,149730,22,0,B|152:184|188:140|156:104,1,99.999990463257,2|0,0:0|0:0,0:0:0:0:
264,120,150480,2,0,B|288:143|252:187|268:219,1,99.999990463257,4|0,0:0|0:0,0:0:0:0:
384,244,151230,21,2,0:0:0:0:
304,332,151605,1,0,0:0:0:0:
268,216,151980,1,4,0:0:0:0:
184,300,152355,1,0,0:0:0:0:
184,300,152730,22,0,B|136:304|132:232|108:224,1,99.999990463257,2|0,0:0|0:0,0:0:0:0:
80,140,153480,2,0,P|136:128|180:152,1,99.999990463257,4|0,0:0|0:0,0:0:0:0:
264,176,154230,22,0,B|276:164|312:188|320:168,1,49.9999952316285,2|0,0:0|0:0,0:0:0:0:
313,176,154980,2,0,B|325:189|301:225|321:233,1,49.9999952316285,4|0,0:0|0:0,0:0:0:0:
272,304,155730,22,0,B|240:324|172:248|144:288,1,119.999984893799,2|0,0:0|0:0,0:0:0:0:
40,280,156480,2,0,P|8:216|36:152,1,119.999984893799,4|0,0:0|0:0,0:0:0:0:
140,128,157230,22,0,L|192:124,1,37.4999978542328,2|0,0:0|0:0,0:0:0:0:
212,196,157605,2,0,L|264:192,1,37.4999978542328,0|0,0:0|0:0,0:0:0:0:
280,280,157980,2,0,L|340:276,1,49.9999952316285,4|0,0:0|0:0,0:0:0:0:
428,272,158730,22,0,B|436:228|388:200|420:156,1,99.999990463257,2|0,0:0|0:0,0:0:0:0:
312,188,159480,2,0,B|304:144|352:116|320:72,1,99.999990463257,4|0,0:0|0:0,0:0:0:0:
232,112,160230,22,0,B|200:104|164:140|132:120,2,89.9999886703496,2|0|0,0:0|0:0|0:0,0:0:0:0:
212,196,160980,2,0,L|212:248,1,49.9999952316285,4|0,0:0|0:0,0:0:0:0:
212,344,161730,22,0,B|256:348|272:312|328:328,1,99.999990463257,2|0,0:0|0:0,0:0:0:0:
408,316,162480,2,0,P|436:256|424:216,1,99.999990463257,4|0,0:0|0:0,0:0:0:0:
352,132,163230,21,2,0:0:0:0:
308,244,163605,1,0,0:0:0:0:
240,144,163980,1,4,0:0:0:0:
188,252,164355,1,0,0:0:0:0:
188,252,164730,22,0,B|168:264|96:224|72:244,1,99.999990463257,2|0,0:0|0:0,0:0:0:0:
76,140,165480,2,0,B|96:128|168:168|192:148,1,99.999990463257,4|0,0:0|0:0,0:0:0:0:
276,176,166230,22,0,B|288:184|316:168|332:176,1,49.9999952316285,2|0,0:0|0:0,0:0:0:0:
326,174,166980,2,0,B|318:186|334:214|326:230,1,49.9999952316285,4|0,0:0|0:0,0:0:0:0:
344,340,167730,22,0,B|332:288|268:344|236:288,1,119.999984893799,2|0,0:0|0:0,0:0:0:0:
200,184,168480,2,0,P|140:168|84:208,1,119.999984893799,4|0,0:0|0:0,0:0:0:0:
148,248,169230,22,0,B|164:228|136:164|148:144,1,99.999990463257,2|4,0:0|0:0,0:0:0:0:
216,88,170355,5,0,0:0:0:0:
288,156,170730,1,2,0:0:0:0:
356,84,171105,1,0,0:0:0:0:
416,160,171480,2,0,L|400:240,1,74.9999957084655,4|0,0:0|0:0,0:0:0:0:
332,312,172230,38,0,B|312:320|288:300|272:308,1,49.9999952316285,2|0,0:0|0:0,0:0:0:0:
332,312,172980,1,4,0:0:0:0:
292,220,173355,5,0,0:0:0:0:
216,156,173730,2,0,P|172:148|116:172,1,99.999990463257,2|0,0:0|0:0,0:0:0:0:
184,248,174480,2,0,L|192:304,1,49.9999952316285,4|0,0:0|0:0,0:0:0:0:
280,268,174855,2,0,L|272:324,1,49.9999952316285
260,384,175230,37,2,0:0:0:0:
372,344,175605,1,0,0:0:0:0:
280,268,175980,1,4,0:0:0:0:
396,232,176355,1,0,0:0:0:0:
396,232,176730,2,0,B|424:204|376:160|400:128,1,99.999990463257,2|4,0:0|0:0,0:0:0:0:
324,208,177855,1,0,0:0:0:0:
232,152,178230,2,0,B|224:160|184:148|172:156,1,49.9999952316285,2|0,0:0|0:0,0:0:0:0:
183,154,178980,2,0,B|189:156|177:196|185:204,1,49.9999952316285,4|0,0:0|0:0,0:0:0:0:
180,324,179730,6,0,B|216:336|244:256|312:280,1,119.999984893799,2|0,0:0|0:0,0:0:0:0:
396,228,180480,2,0,B|360:240|332:160|264:184,1,119.999984893799,4|0,0:0|0:0,0:0:0:0:
188,112,181230,38,0,L|140:120,1,37.4999978542328,2|0,0:0|0:0,0:0:0:0:
176,192,181605,2,0,L|128:200,1,37.4999978542328
112,288,181980,2,0,L|168:276,1,49.9999952316285,4|0,0:0|0:0,0:0:0:0:
300,256,182730,2,0,B|328:272|372:224|400:240,2,99.999990463257,2|4|2,0:0|0:0|0:0,0:0:0:0:
256,144,184605,6,0,P|208:172|184:224,1,99.999990463257,0|4,0:0|0:0,0:0:0:0:
136,296,185355,1,0,0:0:0:0:
44,256,185730,1,2,0:0:0:0:
112,180,186105,1,0,0:0:0:0:
164,92,186480,2,0,L|212:80,1,49.9999952316285,4|0,0:0|0:0,0:0:0:0:
280,144,186855,2,0,L|232:156,1,49.9999952316285,0|0,0:0|0:0,0:0:0:0:
172,172,187230,37,2,0:0:0:0:
252,260,187605,1,0,0:0:0:0:
280,144,187980,1,4,0:0:0:0:
364,232,188355,1,2,0:0:0:0:
364,232,188730,2,0,B|388:248|440:216|472:232,1,99.999990463257,2|4,0:0|0:0,0:0:0:0:
436,324,189855,1,0,0:0:0:0:
312,348,190230,2,0,B|300:352|264:340|252:348,1,49.9999952316285,2|0,0:0|0:0,0:0:0:0:
263,346,190980,2,0,B|257:344|269:308|265:296,1,49.9999952316285,4|0,0:0|0:0,0:0:0:0:
244,180,191730,6,0,B|212:204|152:164|120:184,1,119.999984893799,2|0,0:0|0:0,0:0:0:0:
216,100,192480,2,0,B|248:76|308:116|340:96,1,119.999984893799,4|0,0:0|0:0,0:0:0:0:
392,180,193230,6,0,P|400:228|364:272,1,99.999990463257,2|0,0:0|0:0,0:0:0:0:
276,300,193980,2,0,L|176:304,1,99.999990463257,4|0,0:0|0:0,0:0:0:0:
92,200,194730,2,0,P|92:168|132:112,1,99.999990463257,2|0,0:0|0:0,0:0:0:0:
184,196,195480,2,0,L|84:200,1,99.999990463257,4|0,0:0|0:0,0:0:0:0:
144,292,196230,2,0,B|176:308|216:272|252:288,1,99.999990463257,2|0,0:0|0:0,0:0:0:0:
336,248,196980,2,0,L|360:148,1,99.999990463257,4|0,0:0|0:0,0:0:0:0:
284,84,197730,1,2,0:0:0:0:
184,84,198105,1,0,0:0:0:0:
104,144,198480,2,0,L|127:241,1,99.999990463257,4|0,0:0|0:0,0:0:0:0:
224,268,199230,6,0,B|260:280|284:256|336:264,1,99.999990463257,2|0,0:0|0:0,0:0:0:0:
224,268,199980,2,0,L|200:170,1,99.999990463257,4|0,0:0|0:0,0:0:0:0:
180,72,200730,2,0,P|236:40|288:44,1,99.999990463257,2|0,0:0|0:0,0:0:0:0:
336,112,201480,2,0,L|359:209,1,99.999990463257,4|0,0:0|0:0,0:0:0:0:
260,204,202230,2,0,P|192:204|156:232,1,99.999990463257,2|0,0:0|0:0,0:0:0:0:
264,204,202980,2,0,L|240:106,1,99.999990463257,4|0,0:0|0:0,0:0:0:0:
112,116,203730,2,0,B|128:144|80:180|100:232,1,99.999990463257,2|0,0:0|0:0,0:0:0:0:
176,316,204480,1,4,0:0:0:0:
176,316,204667,1,4,0:0:0:0:
176,316,204855,1,4,0:0:0:0:
316,324,205230,38,0,P|364:316|400:276,1,99.999990463257,2|0,0:0|0:0,0:0:0:0:
399,281,205980,2,0,L|376:176,1,99.999990463257,4|0,0:0|0:0,0:0:0:0:
292,132,206730,2,0,B|264:148|208:128|184:136,1,99.999990463257,2|0,0:0|0:0,0:0:0:0:
194,135,207480,2,0,L|172:232,1,99.999990463257,4|0,0:0|0:0,0:0:0:0:
120,316,208230,2,0,P|64:320|16:292,1,99.999990463257,2|0,0:0|0:0,0:0:0:0:
124,316,208980,2,0,L|145:218,1,99.999990463257,4|0,0:0|0:0,0:0:0:0:
272,200,209730,2,0,B|300:220|356:196|380:204,1,99.999990463257,2|0,0:0|0:0,0:0:0:0:
272,200,210480,2,0,L|240:92,1,99.999990463257,4|0,0:0|0:0,0:0:0:0:
256,192,211230,12,0,217230,0:0:0:0:
