osu file format v13

[General]
AudioFilename: PartyxParty.mp3
AudioLeadIn: 0
PreviewTime: 72845
Countdown: 0
SampleSet: Normal
StackLeniency: 0.7
Mode: 0
LetterboxInBreaks: 1
WidescreenStoryboard: 1

[Editor]
DistanceSpacing: 1.7
BeatDivisor: 8
GridSize: 16
TimelineZoom: 1.6

[Metadata]
Title:Party x Party
TitleUnicode:Party x Party
Artist:Vocaloid Six
ArtistUnicode:Vocaloid Six
Creator:_vanity
Version:Insane
Source:
Tags:hatsune miku megurine luka rin len kagamine kaito meiko
BeatmapID:460754
BeatmapSetID:193977

[Difficulty]
HPDrainRate:7
CircleSize:4
OverallDifficulty:8
ApproachRate:9
SliderMultiplier:1.4
SliderTickRate:2

[Events]
//Background and Video events
0,0,"partyxparty.jpg",0,0
//Break Periods
2,9932,27245
2,100462,106490
2,145215,173142
2,209743,212056
//Storyboard Layer 0 (Background)
//Storyboard Layer 1 (Fail)
//Storyboard Layer 2 (Pass)
//Storyboard Layer 3 (Foreground)
//Storyboard Sound Samples
//Background Colour Transformations
3,100,163,162,255

[TimingPoints]
675.833910673844,283.018867924528,4,1,0,100,1,0
5204,-100,4,2,0,100,0,0
31100,-133.333333333333,4,2,0,40,0,0
32090,-100,4,2,0,100,0,0
40298,-133.333333333333,4,2,0,100,0,0
98034,-200,4,2,0,40,0,0
107090,-133.333333333333,4,2,0,100,0,0

[HitObjects]
144,192,5204,5,0,0:0:0:0:
256,192,5487,2,0,P|320:176|384:128,1,140
272,80,6053,1,0,0:0:0:0:
272,80,6336,2,0,B|303:137|303:137|352:144|368:192,2,140
256,192,7185,12,0,9732,0:0:0:0:
96,144,27845,6,0,P|157:135|224:112,1,122.5
336,96,28411,1,0,0:0:0:0:
448,176,28694,2,0,P|464:242|448:320,1,140
304,240,29260,1,0,0:0:0:0:
208,192,29543,6,0,P|173:125|112:80,1,140
96,208,30109,1,0,0:0:0:0:
96,208,30392,2,0,B|126:255|126:255|192:320,1,140
256,112,30958,1,0,0:0:0:0:
256,224,31100,2,0,L|256:288,5,52.5000020027161
128,256,32090,5,0,0:0:0:0:
256,304,32373,1,0,0:0:0:0:
400,240,32656,1,0,0:0:0:0:
400,240,32798,2,0,B|390:186|390:186|361:156|361:156|346:107,1,140
348,114,33223,2,0,P|309:117|272:96,2,70
128,192,34072,5,0,0:0:0:0:
256,224,34639,1,0,0:0:0:0:
384,192,35205,1,0,0:0:0:0:
448,80,35770,2,0,L|304:96,1,140
203,95,36336,2,0,B|137:69|137:69|64:80,1,140
128,192,36902,5,0,0:0:0:0:
256,240,37185,2,0,P|325:219|400:240,1,140
331,312,37751,1,0,0:0:0:0:
336,128,38034,2,0,B|379:135|401:142|401:142|420:137|480:128,2,140
268,54,38883,1,0,0:0:0:0:
268,54,39166,6,0,B|216:95|216:95|204:86|204:86|148:130,1,140
96,208,39732,2,0,P|84:272|112:352,1,140
203,249,40298,2,0,B|246:220|288:214|288:214|296:198|304:224|304:224|336:192|336:192|345:202|369:188|391:186,1,210.000008010865
288,80,41147,2,0,L|336:48,2,52.5000020027161
176,80,41713,1,0,0:0:0:0:
128,192,41996,5,0,0:0:0:0:
128,192,42137,2,0,L|80:160,2,52.5000020027161
128,192,42562,2,0,P|124:249|160:304,2,105.000004005432
352,192,43411,2,0,P|356:135|320:80,2,105.000004005432
336,304,44260,5,0,0:0:0:0:
256,192,44543,1,0,0:0:0:0:
176,304,44826,1,0,0:0:0:0:
80,224,45109,2,0,P|134:200|160:144,1,105.000004005432
355,162,45534,1,0,0:0:0:0:
355,162,45675,2,0,P|383:205|432:224,1,105.000004005432
383,47,46242,5,0,0:0:0:0:
384,48,46383,2,0,B|336:80|336:80|288:112,1,105.000004005432
296,107,46807,2,0,P|275:148|222:184,1,105.000004005432
96,48,47373,5,0,0:0:0:0:
96,49,47515,2,0,L|144:161,1,118.125004506111
80,176,47939,2,0,P|98:224|144:272,2,105.000004005432
320,80,48648,1,0,0:0:0:0:
320,80,48789,2,0,L|352:192,1,105.000004005432
304,288,49213,1,0,0:0:0:0:
304,288,49355,2,0,P|250:304|192:304,1,105.000004005432
240,208,49779,1,0,0:0:0:0:
240,208,49921,6,0,P|223:154|224:96,1,105.000004005432
352,160,50487,1,0,0:0:0:0:
128,160,50770,1,0,0:0:0:0:
160,112,50911,1,0,0:0:0:0:
208,80,51053,6,0,P|250:109|302:110,1,105.000004005432
432,64,51619,1,0,0:0:0:0:
416,192,51902,1,0,0:0:0:0:
304,256,52043,1,0,0:0:0:0:
304,256,52185,2,0,L|320:368,2,105.000004005432
176,176,52892,1,0,0:0:0:0:
176,176,53034,2,0,L|160:288,2,105.000004005432
96,64,53883,5,0,0:0:0:0:
400,64,54166,1,0,0:0:0:0:
257,186,54449,2,0,B|257:143|257:143|244:137|244:137|256:112|256:80,2,105.000004005432
336,304,55297,1,8,0:0:0:0:
336,304,55439,2,0,P|290:334|224:320,1,105.000004005432
192,304,55864,2,0,B|143:259|143:259|139:208,1,105.000004005432,8|0,0:0|0:0,0:0:0:0:
192,112,56430,5,8,0:0:0:0:
304,48,56571,1,0,0:0:0:0:
304,48,56713,2,0,L|400:112,1,105.000004005432,0|8,0:0|0:0,0:0:0:0:
400,224,57137,1,0,0:0:0:0:
400,224,57279,2,0,L|304:160,1,105.000004005432,0|8,0:0|0:0,0:0:0:0:
128,80,57704,1,0,0:0:0:0:
128,80,57846,2,0,P|176:100|224:144,1,105.000004005432,0|8,0:0|0:0,0:0:0:0:
144,272,58411,5,0,0:0:0:0:
336,160,58694,1,8,0:0:0:0:
128,80,58977,1,0,0:0:0:0:
128,80,59119,2,0,L|208:160,1,105.000004005432,8|0,0:0|0:0,0:0:0:0:
203,156,59543,2,0,P|188:205|200:256,1,105.000004005432,8|0,0:0|0:0,0:0:0:0:
96,208,60109,5,8,0:0:0:0:
304,224,60392,2,8,B|355:234|355:234|416:224,1,105.000004005432,8|0,0:0|0:0,0:0:0:0:
352,112,60958,2,8,L|240:112,2,105.000004005432
400,304,61807,5,8,0:0:0:0:
112,304,62090,1,0,0:0:0:0:
112,64,62373,1,8,0:0:0:0:
400,64,62656,1,0,0:0:0:0:
320,256,62939,5,8,0:0:0:0:
208,272,63223,1,0,0:0:0:0:
192,160,63506,1,8,0:0:0:0:
304,144,63789,2,0,P|345:178|400:192,1,105.000004005432,6|0,0:0|0:0,0:0:0:0:
392,296,64355,2,0,L|392:184,1,105.000004005432,8|0,0:0|0:0,0:0:0:0:
256,192,64921,5,8,0:0:0:0:
192,96,65204,2,0,P|153:54|96:48,1,105.000004005432,0|8,0:0|0:0,0:0:0:0:
96,160,65628,1,0,0:0:0:0:
96,160,65770,2,0,L|128:272,1,105.000004005432,0|8,0:0|0:0,0:0:0:0:
208,304,66194,5,0,0:0:0:0:
208,304,66336,2,0,P|261:309|320:304,1,105.000004005432,0|8,0:0|0:0,0:0:0:0:
256,192,66760,1,0,0:0:0:0:
256,192,66902,2,0,P|220:144|224:80,2,105.000004005432,0|8|0,0:0|0:0|0:0,0:0:0:0:
309,113,67751,2,0,P|344:160|341:225,2,105.000004005432,8|0|8,0:0|0:0|0:0,0:0:0:0:
432,144,68600,5,0,0:0:0:0:
256,288,68883,1,12,0:0:0:0:
96,144,69166,1,0,0:0:0:0:
272,86,69449,6,0,L|208:182,1,105.000004005432,8|8,0:0|0:0,0:0:0:0:
256,288,70015,1,0,0:0:0:0:
256,288,70156,1,8,0:0:0:0:
256,288,70298,2,0,L|320:192,1,105.000004005432,0|8,0:0|0:0,0:0:0:0:
432,64,70864,6,14,L|320:64,1,105.000004005432
64,144,71430,2,14,L|176:144,1,105.000004005432
240,176,71996,6,14,B|256:224|304:256|304:256|256:288|240:336,1,196.875007510186,0|8,0:0|0:0,0:0:0:0:
96,256,72845,1,8,0:0:0:0:
96,256,72987,2,0,L|96:144,1,105.000004005432
160,32,73411,1,8,0:0:0:0:
160,32,73553,2,0,P|177:75|240:112,1,105.000004005432
320,128,73977,1,8,0:0:0:0:
256,208,74260,2,0,P|268:253|336:288,3,105.000004005432,0|8|0|8,0:0|0:0|0:0|0:0,0:0:0:0:
368,192,75392,5,0,0:0:0:0:
304,80,75533,1,0,0:0:0:0:
304,80,75675,2,0,L|192:112,1,105.000004005432,8|0,0:0|0:0,0:0:0:0:
80,272,76100,5,0,0:0:0:0:
80,272,76242,2,0,P|132:274|192:240,1,105.000004005432,8|0,0:0|0:0,0:0:0:0:
176,128,76807,2,0,P|223:149|275:147,1,105.000004005432,8|0,0:0|0:0,0:0:0:0:
400,272,77373,1,8,0:0:0:0:
256,192,77656,1,0,0:0:0:0:
64,272,77939,1,8,0:0:0:0:
256,192,78223,6,0,L|272:80,1,105.000004005432,0|8,0:0|0:0,0:0:0:0:
384,160,78647,1,0,0:0:0:0:
384,160,78789,6,0,P|394:206|368:272,1,105.000004005432,0|8,0:0|0:0,0:0:0:0:
256,192,79355,2,0,B|208:208|208:208|144:208,1,105.000004005432,0|8,0:0|0:0,0:0:0:0:
80,64,79779,1,0,0:0:0:0:
80,64,79921,2,0,P|71:114|96:176,1,105.000004005432,0|8,0:0|0:0,0:0:0:0:
256,192,80487,1,0,0:0:0:0:
416,64,80770,1,8,0:0:0:0:
256,192,81053,6,0,P|220:157|160:144,3,105.000004005432,0|8|0|8,0:0|0:0|0:0|0:0,0:0:0:0:
128,288,82185,1,0,0:0:0:0:
256,80,82468,2,0,B|320:64|320:64|368:64,1,105.000004005432,8|0,0:0|0:0,0:0:0:0:
416,192,82892,5,0,0:0:0:0:
416,192,83034,2,0,L|304:192,1,105.000004005432,8|0,0:0|0:0,0:0:0:0:
96,64,83458,1,0,0:0:0:0:
96,64,83600,2,0,P|128:112|176:144,1,105.000004005432,8|0,0:0|0:0,0:0:0:0:
176,240,84166,2,0,B|168:292|168:292|186:356,1,105.000004005432,8|0,0:0|0:0,0:0:0:0:
176,144,84732,2,0,B|168:91|168:91|186:27,1,105.000004005432,8|0,0:0|0:0,0:0:0:0:
330,41,85156,1,0,0:0:0:0:
330,41,85298,6,0,B|344:91|344:91|336:144,1,105.000004005432,8|0,0:0|0:0,0:0:0:0:
256,256,85864,2,0,P|204:283|160:320,1,105.000004005432,8|0,0:0|0:0,0:0:0:0:
96,128,86430,5,8,0:0:0:0:
96,128,86713,2,0,P|142:153|208:160,1,105.000004005432,8|0,0:0|0:0,0:0:0:0:
336,96,87138,1,0,0:0:0:0:
336,96,87279,2,0,B|336:160|336:160|352:208,1,105.000004005432,8|0,0:0|0:0,0:0:0:0:
256,288,87704,5,0,0:0:0:0:
256,288,87845,2,0,P|194:288|144:272,2,105.000004005432,8|0|8,0:0|0:0|0:0,0:0:0:0:
256,96,88694,6,0,P|317:96|368:112,2,105.000004005432,0|8|0,0:0|0:0|0:0,0:0:0:0:
128,192,89543,2,0,B|128:240|128:240|160:288,1,105.000004005432,8|0,0:0|0:0,0:0:0:0:
384,192,90109,2,0,B|384:240|384:240|352:288,1,105.000004005432,8|0,0:0|0:0,0:0:0:0:
256,224,90534,1,0,0:0:0:0:
256,192,90958,12,0,95204,0:0:0:0:
256,192,95487,5,0,0:0:0:0:
148,108,95770,2,0,P|190:73|244:60,1,105.000004005432
368,128,96336,2,0,L|368:237,1,105.000004005432
256,192,96902,2,0,P|225:224|208:288,2,105.000004005432
96,64,98034,5,0,0:0:0:0:
176,176,98600,1,0,0:0:0:0:
256,64,99166,1,0,0:0:0:0:
320,176,99732,2,0,P|362:227|368:304,1,131.25
160,144,107090,5,8,0:0:0:0:
272,96,107279,2,8,L|338:65,2,70.0000026702882
270,197,107845,1,8,0:0:0:0:
208,288,108010,1,8,0:0:0:0:
208,288,108223,2,8,P|169:329|112:336,2,105.000004005432
256,96,109072,5,0,0:0:0:0:
256,96,109214,1,8,0:0:0:0:
256,96,109355,2,0,L|256:208,1,105.000004005432
336,304,109921,2,0,P|380:319|448:320,1,105.000004005432,8|0,0:0|0:0,0:0:0:0:
432,128,110487,5,8,0:0:0:0:
336,192,110770,2,8,L|240:256,1,105.000004005432,8|8,0:0|0:0,0:0:0:0:
192,240,111194,1,0,0:0:0:0:
162,197,111336,2,0,P|169:130|162:85,1,105.000004005432,0|8,0:0|0:0,0:0:0:0:
48,304,111902,2,0,L|160:288,1,105.000004005432,0|8,0:0|0:0,0:0:0:0:
162,198,112326,5,0,0:0:0:0:
162,199,112468,2,0,P|210:199|274:183,1,105.000004005432,0|8,0:0|0:0,0:0:0:0:
320,112,113034,2,0,B|368:96|368:96|376:113|424:97,2,105.000004005432,0|8|8,0:0|0:0|0:0,0:0:0:0:
96,96,113883,2,0,P|149:88|208:112,2,105.000004005432
144,192,114732,6,0,P|193:208|245:200,1,105.000004005432
214,303,115156,1,0,0:0:0:0:
214,303,115298,2,0,L|246:191,1,105.000004005432
416,64,115864,5,0,0:0:0:0:
96,64,116147,1,0,0:0:0:0:
256,320,116430,1,0,0:0:0:0:
256,192,116713,2,0,L|240:160,2,26.2500010013581
256,192,116925,2,0,P|273:220|368:240,1,131.25000500679
336,160,117562,6,0,L|336:48,1,105.000004005432
256,192,118128,2,0,P|203:199|144:224,1,105.000004005432
232,297,118694,1,0,0:0:0:0:
80,64,118977,6,0,L|192:96,1,105.000004005432
331,92,119402,1,0,0:0:0:0:
331,92,119543,2,0,L|432:64,1,105.000004005432
384,208,119968,1,0,0:0:0:0:
384,208,120109,2,0,P|330:218|272:208,1,105.000004005432
64,208,120675,2,0,P|118:218|176:208,1,105.000004005432
167,210,121100,1,0,0:0:0:0:
167,210,121241,2,0,P|143:159|143:105,3,105.000004005432
272,160,122373,6,0,L|352:240,1,105.000004005432
384,144,122798,1,0,0:0:0:0:
384,144,122939,2,0,L|304:64,1,105.000004005432
176,192,123364,1,0,0:0:0:0:
176,192,123505,2,0,L|144:224|96:272,1,105.000004005432
256,272,123931,1,0,0:0:0:0:
256,272,124072,2,0,P|289:314|336:352,1,105.000004005432
336,192,124496,1,0,0:0:0:0:
336,192,124637,2,0,P|378:158|416:112,1,105.000004005432
128,272,125204,5,0,0:0:0:0:
368,80,125487,1,0,0:0:0:0:
368,272,125770,1,0,0:0:0:0:
128,80,126053,1,0,0:0:0:0:
256,192,126336,5,0,0:0:0:0:
128,256,126619,2,0,L|112:224,3,26.2500010013581
128,256,126902,2,0,P|192:256|240:272,1,105.000004005432
160,64,127468,1,0,0:0:0:0:
160,64,127751,1,0,0:0:0:0:
256,192,128034,5,0,0:0:0:0:
256,192,128317,1,0,0:0:0:0:
416,192,128600,2,0,P|441:234|448:304,2,105.000004005432
416,96,129449,6,0,B|368:80|368:80|304:80,1,105.000004005432
344,176,129873,1,0,0:0:0:0:
342,176,130015,2,0,B|288:176|288:176|240:160,1,105.000004005432
128,272,130581,5,0,0:0:0:0:
384,160,130864,1,0,0:0:0:0:
256,48,131147,1,0,0:0:0:0:
256,48,131430,2,0,P|208:64|160:96,1,105.000004005432
128,272,131997,1,0,0:0:0:0:
128,272,132138,2,0,L|224:224,1,105.000004005432
256,224,132562,2,0,B|240:272|240:272|240:336,2,105.000004005432
352,96,133411,5,0,0:0:0:0:
224,128,133694,2,0,P|166:137|112:128,1,105.000004005432
172,55,134260,1,0,0:0:0:0:
176,224,134543,2,0,P|137:261|112:320,2,105.000004005432
256,64,135392,5,0,0:0:0:0:
256,320,135675,1,0,0:0:0:0:
144,208,135958,1,0,0:0:0:0:
432,64,136241,6,0,L|464:48,2,26.2500010013581
432,64,136454,2,0,B|416:128|416:128|356:174,1,131.25000500679
272,128,136949,1,0,0:0:0:0:
272,128,137090,2,0,P|221:110|160:112,1,105.000004005432
112,208,137656,2,0,L|224:240,1,105.000004005432
288,304,138081,1,0,0:0:0:0:
288,304,138223,2,0,P|338:311|400:304,1,105.000004005432
320,160,138789,6,0,L|320:48,1,105.000004005432
176,128,139355,2,0,L|176:240,1,105.000004005432
256,288,139921,2,0,L|352:240,1,105.000004005432
256,96,140345,1,0,0:0:0:0:
256,96,140487,2,0,P|208:128|160:144,2,105.000004005432
128,304,141336,5,0,0:0:0:0:
400,304,141619,1,0,0:0:0:0:
256,192,141902,1,0,0:0:0:0:
416,160,142185,2,0,B|384:128|384:128|352:64,1,105.000004005432
154,74,142751,2,0,B|128:128|128:128|96:160,1,105.000004005432
352,192,143317,6,0,L|384:176,7,26.2500010013581
272,176,143883,2,0,L|304:160,7,26.2500010013581
272,176,144449,2,0,P|220:196|160:192,1,105.000004005432
203,98,145015,1,0,0:0:0:0:
400,80,173742,6,0,L|336:176,1,105.000004005432
342,166,174166,2,0,P|293:145|230:150,1,105.000004005432
335,28,174732,1,0,0:0:0:0:
276,240,175015,2,0,P|290:287|324:336,2,105.000004005432
236,144,175864,2,0,P|221:96|188:48,2,105.000004005432
96,144,176713,5,0,0:0:0:0:
256,192,176996,1,0,0:0:0:0:
416,144,177137,1,0,0:0:0:0:
416,144,177279,2,0,P|368:144|304:128,1,105.000004005432
199,131,177704,1,0,0:0:0:0:
199,131,177846,2,0,P|148:143|96:144,1,105.000004005432
192,256,178411,6,0,B|160:256|160:256|160:272|160:272|96:272,2,105.000004005432
384,144,179260,2,0,P|354:95|304:64,1,105.000004005432
64,272,179826,2,0,P|93:320|144:352,1,105.000004005432
160,208,180392,2,0,P|130:159|80:128,1,105.000004005432
272,224,180958,2,0,P|301:272|352:304,2,105.000004005432
352,144,181666,5,0,0:0:0:0:
352,144,181807,2,0,L|464:144,2,105.000004005432
144,144,182515,5,0,0:0:0:0:
144,144,182656,2,0,P|142:77|112:48,1,105.000004005432
256,208,183223,5,0,0:0:0:0:
80,64,183506,1,0,0:0:0:0:
432,64,183789,1,0,0:0:0:0:
432,192,184072,2,0,B|432:240|432:240|384:288,1,105.000004005432
304,288,184496,5,0,0:0:0:0:
304,288,184638,2,0,B|256:288|256:288|208:240,1,105.000004005432
336,160,185204,2,0,P|344:112|330:51,1,105.000004005432
256,112,185628,1,0,0:0:0:0:
179,57,185770,2,0,P|168:108|176:160,1,105.000004005432
48,320,186336,2,0,B|72:318|102:324|102:324|129:306|160:304,3,105.000004005432
144,80,187468,6,0,L|160:192,1,105.000004005432
256,240,187892,1,0,0:0:0:0:
256,240,188034,2,0,P|308:244|368:224,1,105.000004005432
368,80,188458,1,0,0:0:0:0:
368,80,188600,6,0,L|352:192,1,105.000004005432
224,64,189024,5,0,0:0:0:0:
224,64,189166,2,0,P|171:80|128:128,1,105.000004005432
336,272,189732,2,0,P|389:284|448:272,1,105.000004005432
336,176,190156,1,0,0:0:0:0:
336,176,190298,2,0,P|285:164|233:172,1,105.000004005432
48,336,190864,5,0,0:0:0:0:
256,32,191147,1,0,0:0:0:0:
464,336,191430,1,0,0:0:0:0:
400,272,191713,2,0,B|352:240|352:240|320:192,1,105.000004005432
186,200,192138,5,0,0:0:0:0:
186,200,192279,2,0,B|160:240|160:240|112:272,1,105.000004005432
247,122,192704,5,0,0:0:0:0:
247,122,192845,2,0,B|208:96|208:96|176:48,1,105.000004005432
264,261,193270,5,0,0:0:0:0:
264,261,193411,2,0,B|304:288|304:288|336:336,1,105.000004005432
325,183,193836,5,0,0:0:0:0:
325,183,193977,2,0,B|352:144|352:144|400:112,2,105.000004005432
325,183,194685,2,0,P|297:133|240:112,1,105.000004005432
256,112,195109,5,0,0:0:0:0:
112,192,195392,1,0,0:0:0:0:
400,192,195675,1,0,0:0:0:0:
320,288,195958,2,0,B|272:272|272:272|208:272,1,105.000004005432
160,112,196524,6,0,B|208:128|208:128|272:128,1,105.000004005432
259,128,196949,1,0,0:0:0:0:
259,128,197090,2,0,P|284:174|293:232,1,105.000004005432
96,224,197656,5,0,0:0:0:0:
76,118,197939,2,0,L|172:54,1,105.000004005432
208,144,198506,2,0,L|320:112,3,105.000004005432
176,48,199638,5,0,0:0:0:0:
272,208,199921,2,0,P|307:243|320:304,3,105.000004005432
64,64,201053,5,0,0:0:0:0:
112,208,201336,1,0,0:0:0:0:
256,256,201619,1,0,0:0:0:0:
400,208,201902,1,0,0:0:0:0:
448,64,202185,1,0,0:0:0:0:
256,96,202468,5,0,0:0:0:0:
368,208,202751,1,0,0:0:0:0:
256,336,203034,1,0,0:0:0:0:
144,208,203317,1,0,0:0:0:0:
144,208,203600,6,0,L|240:160,1,105.000004005432
320,240,204166,2,0,B|374:235|374:235|416:192,1,105.000004005432
304,96,204732,2,0,P|357:96|412:78,2,105.000004005432
208,160,205581,2,0,P|155:160|100:142,2,105.000004005432
112,256,206430,5,0,0:0:0:0:
208,192,206713,1,0,0:0:0:0:
304,256,206996,1,0,0:0:0:0:
400,192,207279,2,0,B|384:144|384:144|336:112,1,105.000004005432
173,113,207845,2,0,B|128:144|128:144|112:192,1,105.000004005432
256,256,208411,5,0,0:0:0:0:
352,192,208659,2,0,P|342:129|336:64,2,118.125004506111
448,272,209543,1,0,0:0:0:0:
256,192,212656,5,0,0:0:0:0:
256,32,213223,1,0,0:0:0:0:
128,336,213506,1,0,0:0:0:0:
416,160,213789,1,0,0:0:0:0:
80,160,214072,1,0,0:0:0:0:
384,336,214355,1,0,0:0:0:0:
320,256,214638,2,0,P|310:202|272:160,2,105.000004005432
