osu file format v11

[General]
AudioFilename: with a dance number remake encoded.mp3
AudioLeadIn: 0
PreviewTime: 231893
Countdown: 0
SampleSet: Normal
StackLeniency: 0.7
Mode: 0
LetterboxInBreaks: 1
EpilepsyWarning: 1

[Editor]
DistanceSpacing: 1
BeatDivisor: 4
GridSize: 4

[Metadata]
Title:With A Dance Number (Recoded)
TitleUnicode:ダンスナンバーを共に
Artist:Vocaloid
ArtistUnicode:Vocaloid
Creator:Innocentius
Version:Hellfire
Source:HujuniseikouyuuP
Tags:Hatsune-Miku Vocaloid Japanese
BeatmapID:216945
BeatmapSetID:76132

[Difficulty]
HPDrainRate:6
CircleSize:5
OverallDifficulty:8
ApproachRate:6
SliderMultiplier:1
SliderTickRate:2

[Events]
//Background and Video events
0,0,"with_a_dance_number___hatsune_miku___chibi___by_yukinoiru-d56hnsj.jpg"
//Break Periods
2,21285,26521
2,64055,68684
2,123447,127062
2,141285,151488
2,180812,185035
2,199562,204900
//Storyboard Layer 0 (Background)
//Storyboard Layer 1 (Fail)
//Storyboard Layer 2 (Pass)
//Storyboard Layer 3 (Foreground)
//Storyboard Sound Samples
//Background Colour Transformations
3,100,0,255,185

[TimingPoints]
1626,202.702702702703,4,1,0,100,1,0
94869,-50,4,1,0,100,0,1
121626,-200,4,1,0,100,0,0
139463,-100,4,1,0,100,0,0
152436,-50,4,1,0,100,0,0
180004,-100,4,1,0,100,0,0
205950,-50,4,1,0,100,0,1
231896,-50,4,1,0,100,0,1
260680,-100,4,1,0,100,0,0

[Colours]
Combo1 : 56,99,199
Combo2 : 1,243,122
Combo3 : 244,0,0
Combo4 : 62,223,21

[HitObjects]
96,56,8112,2,2,P|96:260,1,200
204,256,8720,6,2,P|204:48,1,200
312,56,9328,6,2,P|312:272,1,200
416,256,9936,6,2,P|416:56,1,200
260,56,10544,5,0,0:0:0
148,56,10747,1,0,0:0:0
148,176,10950,1,0,0:0:0
260,176,11153,1,0,0:0:0
348,332,11355,6,2,P|144:332,1,200
148,240,11963,6,2,P|364:240,1,200
348,144,12571,6,2,P|140:144,1,200
148,48,13180,6,2,P|356:48,1,200
256,104,13788,5,0,0:0:0
168,192,13990,1,0,0:0:0
256,284,14193,1,0,0:0:0
340,192,14396,1,0,0:0:0
208,56,14598,6,0,P|72:120|56:288,1,300
112,336,15409,2,0,P|260:368|412:316,1,300
480,260,16220,2,0,P|436:112|208:32,1,400
204,92,17234,5,0,0:0:0
296,132,17436,1,0,0:0:0
216,196,17639,1,0,0:0:0
256,192,17842,12,4,21085,0:0:0
128,84,27571,6,2,P|128:184,1,100
224,184,27977,1,0,0:0:0
224,84,28180,1,0,0:0:0
324,84,28382,1,0,0:0:0
324,184,28585,1,0,0:0:0
324,284,28788,6,2,P|212:284|220:284,1,100
228,180,29193,1,0,0:0:0
328,180,29396,1,0,0:0:0
328,76,29598,1,0,0:0:0
224,76,29801,1,0,0:0:0
124,80,30004,5,2,0:0:0
124,80,30207,1,2,0:0:0
124,80,30409,1,2,0:0:0
124,80,30612,1,2,0:0:0
116,184,30815,6,0,P|260:348,1,200
312,280,31423,2,0,P|168:128|160:120,1,200
232,80,32031,2,0,P|388:236,1,200
432,164,32639,2,0,P|276:20,1,200
256,124,33247,5,2,0:0:0
184,192,33450,1,2,0:0:0
256,260,33653,1,2,0:0:0
328,192,33855,1,2,0:0:0
232,56,37301,6,0,P|64:192|84:184,1,200
84,52,38112,2,0,P|256:204|244:200,1,200
224,80,38923,2,0,P|428:72|324:344,1,600
440,336,40544,6,0,P|288:184,1,200
296,340,41355,2,0,P|456:184,1,200
192,296,42166,2,0,P|28:312|152:56,1,600
100,120,43788,6,0,P|216:120,3,100
412,120,44598,2,0,P|296:120,3,100
256,80,45409,2,0,P|256:288,3,200
188,60,47031,6,0,P|188:168,1,100
328,64,47335,2,0,P|328:164,1,100
188,344,47639,2,0,P|188:232,1,100
328,336,48044,2,0,P|328:236,1,100
256,64,48653,5,6,0:0:0
188,268,48855,1,6,0:0:0
352,144,49058,1,6,0:0:0
152,140,49261,1,6,0:0:0
308,272,49463,1,6,0:0:0
312,156,49869,2,0,P|312:212,3,50
312,264,50274,6,0,P|256:264,3,50
262,264,50680,2,0,P|192:264,3,50
212,264,51085,2,0,P|152:264|152:264,3,50
112,264,51490,2,0,P|112:144,1,100
112,100,51896,6,0,P|168:100,3,50
162,100,52301,2,0,P|216:100,3,50
212,100,52707,2,0,P|276:100,3,50
304,100,53112,2,0,P|304:200,1,100
444,56,53517,6,2,P|500:124|440:204,1,200
256,144,54125,1,0,0:0:0
80,64,54328,2,2,P|0:140|40:212,1,200
256,144,54936,1,0,0:0:0
208,96,55139,5,0,0:0:0
208,96,55240,1,0,0:0:0
208,96,55342,1,0,0:0:0
204,96,55443,1,0,0:0:0
308,96,55544,5,0,0:0:0
308,96,55646,1,0,0:0:0
308,96,55747,1,0,0:0:0
308,96,55848,1,0,0:0:0
236,184,56355,6,0,P|296:184,3,50
344,184,56761,5,2,0:0:0
344,184,56862,1,0,0:0:0
344,184,56963,1,2,0:0:0
344,184,57065,1,0,0:0:0
344,236,57166,5,2,0:0:0
344,236,57267,1,0,0:0:0
344,236,57369,1,2,0:0:0
344,236,57470,1,0,0:0:0
304,280,57571,6,0,P|252:280,3,50
254,280,57977,2,0,P|148:280,1,100
56,280,58382,5,2,0:0:0
56,280,58484,1,0,0:0:0
56,280,58585,1,2,0:0:0
56,280,58686,1,0,0:0:0
56,196,58788,5,2,0:0:0
56,196,58889,1,0,0:0:0
56,196,58990,1,2,0:0:0
56,196,59092,1,0,0:0:0
56,132,59193,6,0,P|160:132,2,100
184,68,60004,5,0,0:0:0
244,68,60207,5,0,0:0:0
244,68,60308,1,0,0:0:0
300,68,60511,5,0,0:0:0
300,68,60612,1,0,0:0:0
360,68,60815,1,0,0:0:0
360,68,60916,5,0,0:0:0
432,72,61119,5,0,0:0:0
432,168,61220,1,0,0:0:0
432,260,61423,1,0,0:0:0
296,264,61625,6,6,P|224:264,1,50
246,264,61930,2,6,P|360:264|352:264,1,100
346,264,62335,2,6,P|232:264,1,100
246,264,62740,2,6,P|180:264,1,50
124,256,63044,1,0,0:0:0
124,256,63247,2,0,P|80:224|80:224|120:188|120:188|84:160|84:160|128:124|128:124|80:88|80:88|124:56|124:56,1,300
32,64,69734,5,0,0:0:0
32,64,69936,2,0,P|96:64,1,50
82,64,70139,1,0,0:0:0
82,64,70342,1,0,0:0:0
440,68,70544,5,0,0:0:0
440,68,70747,2,0,P|376:68,1,50
390,68,70950,1,0,0:0:0
390,68,71153,1,0,0:0:0
176,112,71355,6,2,P|108:208,1,100
336,112,71761,2,2,P|396:212,1,100
256,312,72166,2,2,P|256:196|256:196|236:160|236:160|260:120|260:120|256:120,1,200
384,232,72977,5,0,0:0:0
384,232,73180,2,0,P|328:232,1,50
132,236,73382,5,0,0:0:0
132,236,73585,2,0,P|192:236,1,50
184,108,73788,5,0,0:0:0
184,108,73990,2,0,P|128:108,1,50
340,108,74193,5,0,0:0:0
340,108,74396,2,0,P|404:108,1,50
364,116,74598,5,6,0:0:0
144,116,74801,5,6,0:0:0
140,280,75004,5,6,0:0:0
364,276,75207,5,6,0:0:0
256,352,75409,5,4,0:0:0
256,44,75612,5,4,0:0:0
256,192,75815,5,4,0:0:0
200,112,76220,6,2,P|164:152,1,50
164,240,76423,2,0,P|208:280,1,50
320,272,76625,2,2,P|360:236,1,50
352,144,76828,2,0,P|312:104,1,50
284,108,77031,6,2,P|224:108,1,50
160,160,77234,2,0,P|160:212,1,50
232,280,77436,2,2,P|300:280,1,50
356,220,77639,2,0,P|356:164,1,50
256,48,77842,5,2,0:0:0
84,192,78044,1,0,0:0:0
256,312,78247,1,2,0:0:0
416,192,78450,1,0,0:0:0
256,252,78653,1,2,0:0:0
144,96,78855,1,0,0:0:0
360,96,79058,1,2,0:0:0
240,96,79463,6,2,P|272:96,3,25
268,200,79666,2,2,P|240:200,3,25
336,136,79869,2,2,P|336:168,3,25
180,168,80071,2,2,P|180:136,3,25
296,272,80274,6,0,P|240:272,3,50
240,52,80680,2,0,P|304:52,3,50
452,60,81085,5,4,0:0:0
456,328,81288,1,4,0:0:0
56,328,81490,1,4,0:0:0
56,68,81693,1,4,0:0:0
256,192,81896,1,4,0:0:0
256,192,82301,6,0,P|256:168,6,25
240,112,82707,6,0,P|188:112,1,50
80,180,82909,2,0,P|80:240,1,50
136,304,83112,2,0,P|192:336,1,50
136,224,83315,1,0,0:0:0
136,224,83416,2,2,P|200:224|200:224|232:260|232:260|260:224|260:224|292:264|292:264|320:224|320:224,1,250
315,230,84126,1,0,0:0:0
416,232,84328,6,0,P|416:168,1,50
416,96,84531,2,0,P|356:96,1,50
280,96,84734,2,0,P|280:164,1,50
280,232,84936,1,2,0:0:0
280,232,85038,2,6,P|224:232|224:232|196:196|196:196|164:236|164:236|136:196|136:196|112:240|112:240,1,250
252,40,85950,5,0,0:0:0
40,196,86153,1,0,0:0:0
256,336,86355,1,0,0:0:0
468,192,86558,1,0,0:0:0
376,108,86761,5,0,0:0:0
132,112,86963,1,0,0:0:0
136,272,87166,1,0,0:0:0
384,280,87369,1,0,0:0:0
160,340,87571,6,2,P|160:272,1,50
344,344,87774,6,2,P|344:288,1,50
252,292,87977,5,0,0:0:0
368,192,88078,1,0,0:0:0
252,112,88180,1,0,0:0:0
144,192,88281,1,4,0:0:0
256,192,88788,6,0,P|280:192,6,25
96,76,89193,5,0,0:0:0
96,104,89294,1,0,0:0:0
96,128,89396,1,0,0:0:0
96,152,89497,1,0,0:0:0
124,168,89598,5,0,0:0:0
144,168,89700,1,0,0:0:0
164,168,89801,1,0,0:0:0
184,168,89903,1,0,0:0:0
204,168,90004,2,2,P|204:108|232:176,1,200
241,173,90612,5,2,0:0:0
244,208,90815,5,0,0:0:0
244,232,90916,1,0,0:0:0
244,256,91017,1,0,0:0:0
244,280,91119,1,0,0:0:0
240,232,91220,5,0,0:0:0
244,172,91321,1,0,0:0:0
240,128,91423,1,0,0:0:0
240,68,91524,2,2,P|200:128|236:68,1,250
44,136,92436,6,0,P|44:240,1,100
256,136,92740,2,0,P|256:248,1,100
472,136,93044,2,0,P|472:252,1,100
472,236,93450,5,0,0:0:0
256,236,93653,1,0,0:0:0
44,236,93855,1,0,0:0:0
36,344,94058,6,6,P|92:344,2,50
480,336,94362,2,6,P|424:336,2,50
256,28,94666,2,6,P|256:80,1,50
256,192,94869,5,4,0:0:0
256,192,94970,1,4,0:0:0
256,192,95071,1,4,0:0:0
256,192,95173,1,4,0:0:0
256,192,95274,1,4,0:0:0
256,192,95376,1,4,0:0:0
256,192,95477,1,4,0:0:0
256,192,95578,1,4,0:0:0
56,44,95680,6,2,P|56:160,1,100
56,228,95882,2,0,P|56:344,1,100
144,332,96085,2,2,P|264:332,1,100
244,332,96288,1,0,0:0:0
244,332,96389,1,0,0:0:0
368,332,96490,1,0,0:0:0
364,192,96592,1,0,0:0:0
368,48,96794,1,0,0:0:0
368,48,96997,5,0,0:0:0
368,48,97200,1,0,0:0:0
368,48,97301,2,2,P|252:48,1,100
168,48,97504,2,0,P|64:48,1,100
68,124,97707,2,2,P|68:240,1,100
68,320,97909,2,0,P|176:320,1,100
256,320,98112,5,2,0:0:0
256,176,98213,5,2,0:0:0
256,48,98416,5,2,0:0:0
256,48,98619,5,0,0:0:0
256,48,98720,1,0,0:0:0
192,96,98923,6,0,P|108:176,1,100
316,100,99126,2,0,P|400:168,1,100
196,232,99328,2,0,P|124:308,1,100
316,236,99531,2,0,P|404:316,1,100
389,303,99734,5,0,0:0:0
389,303,99835,1,0,0:0:0
128,308,99936,5,0,0:0:0
128,308,100038,1,0,0:0:0
128,176,100139,5,0,0:0:0
128,176,100240,1,0,0:0:0
392,176,100342,5,0,0:0:0
392,176,100443,1,0,0:0:0
336,112,100544,6,2,P|268:192|268:192|224:104|224:104|184:200|184:200|132:104|132:104|88:220|88:220|376:220|376:220,1,800
351,113,101558,1,0,0:0:0
351,113,101659,1,0,0:0:0
351,113,101761,1,0,0:0:0
351,113,101862,1,0,0:0:0
351,113,101963,1,0,0:0:0
351,113,102065,1,0,0:0:0
351,113,102166,6,2,P|408:184|352:272,1,200
120,272,102470,2,2,P|52:200|124:104,1,200
144,72,102774,2,2,P|232:24|316:64,1,200
328,280,103078,2,2,P|244:336|152:280,1,200
256,188,103382,1,0,0:0:0
256,188,103585,1,0,0:0:0
388,92,103788,6,2,P|388:296,1,200
388,292,104092,1,0,0:0:0
388,292,104193,1,0,0:0:0
388,292,104294,1,0,0:0:0
388,292,104396,1,0,0:0:0
388,292,104497,1,2,0:0:0
388,292,104598,1,2,0:0:0
256,292,104801,5,2,0:0:0
112,296,105004,5,2,0:0:0
112,296,105105,1,2,0:0:0
112,296,105207,1,2,0:0:0
112,296,105308,1,2,0:0:0
112,192,105409,6,0,P|112:88|216:88,1,200
188,172,105713,1,0,0:0:0
188,264,105916,1,0,0:0:0
184,352,106119,2,0,P|296:352|296:244,1,200
316,172,106524,1,0,0:0:0
316,72,106828,1,0,0:0:0
256,40,107031,5,6,0:0:0
256,152,107132,5,6,0:0:0
256,256,107335,5,6,0:0:0
256,352,107538,5,6,0:0:0
56,76,107740,5,6,0:0:0
456,76,108044,1,4,0:0:0
256,352,108247,1,0,0:0:0
256,352,108348,1,0,0:0:0
256,352,108450,1,0,0:0:0
256,352,108551,1,0,0:0:0
168,188,108653,6,0,P|96:260,3,100
97,258,109058,2,0,P|180:176,3,100
168,188,109463,5,0,0:0:0
168,188,109565,1,0,0:0:0
168,188,109767,1,0,0:0:0
256,188,109970,5,0,0:0:0
256,188,110173,1,0,0:0:0
348,192,110274,6,0,P|440:264,3,100
426,253,110680,2,0,P|344:188,3,100
348,191,111085,5,0,0:0:0
348,191,111186,1,0,0:0:0
348,191,111389,1,0,0:0:0
256,188,111592,5,0,0:0:0
256,188,111693,1,0,0:0:0
216,84,111896,6,0,P|148:156,1,100
144,240,112098,2,0,P|228:320,1,100
304,312,112301,2,0,P|384:228,1,100
376,156,112504,2,0,P|292:80,1,100
256,88,112707,5,0,0:0:0
140,184,112909,1,0,0:0:0
256,312,113112,1,0,0:0:0
376,188,113315,1,0,0:0:0
312,188,113517,6,0,P|208:188,4,100
312,188,114126,2,0,P|312:292,1,100
336,320,114328,5,2,0:0:0
184,320,114430,1,0,0:0:0
88,232,114531,1,2,0:0:0
88,120,114632,1,0,0:0:0
180,40,114734,1,2,0:0:0
332,40,114835,1,0,0:0:0
424,128,114936,1,2,0:0:0
424,232,115038,1,0,0:0:0
256,320,115139,5,4,0:0:0
88,184,115342,1,4,0:0:0
256,40,115544,1,4,0:0:0
428,188,115747,1,4,0:0:0
316,192,115950,6,0,P|216:192,3,100
308,48,116355,1,0,0:0:0
308,48,116457,1,0,0:0:0
308,48,116558,1,0,0:0:0
308,48,116659,1,0,0:0:0
308,48,116761,2,0,P|408:48|408:124|408:192,1,200
407,187,117166,2,0,P|340:272,1,100
345,265,117369,2,0,P|236:264,2,100
345,265,117673,1,0,0:0:0
345,265,117876,1,0,0:0:0
256,196,117977,1,0,0:0:0
256,196,118078,1,0,0:0:0
256,196,118180,1,0,0:0:0
256,196,118281,1,0,0:0:0
172,48,118382,6,2,P|100:132|112:224,1,200
320,52,118686,2,2,P|408:152|408:232,1,200
352,288,118990,2,2,P|280:328|152:280,1,200
252,92,119396,5,0,0:0:0
156,216,119598,5,0,0:0:0
348,208,119801,5,0,0:0:0
348,132,120004,5,2,0:0:0
152,128,120105,1,2,0:0:0
248,276,120308,1,2,0:0:0
248,276,120511,1,2,0:0:0
248,276,120713,1,2,0:0:0
128,336,120916,1,0,0:0:0
64,216,121017,1,0,0:0:0
64,216,121119,1,0,0:0:0
92,156,121220,1,0,0:0:0
152,128,121321,1,0,0:0:0
212,156,121423,1,0,0:0:0
256,208,121524,1,0,0:0:0
248,276,121626,2,4,P|348:248|348:248|408:168|408:168|308:168|308:168|308:68|308:68|308:72,1,400
112,76,128112,5,0,0:0:0
112,276,128416,1,0,0:0:0
156,328,128720,1,0,0:0:0
200,276,128821,1,0,0:0:0
240,332,128923,1,0,0:0:0
280,276,129024,1,0,0:0:0
320,332,129176,1,0,0:0:0
364,276,129328,1,0,0:0:0
412,332,129430,1,0,0:0:0
448,280,129531,1,0,0:0:0
448,212,129734,1,0,0:0:0
392,156,129835,1,0,0:0:0
336,212,129987,1,0,0:0:0
260,152,130139,1,0,0:0:0
196,152,130240,1,0,0:0:0
132,156,130392,1,0,0:0:0
80,240,130544,5,0,0:0:0
132,84,130646,1,0,0:0:0
260,48,130798,1,0,0:0:0
384,92,130950,1,0,0:0:0
468,244,131051,1,0,0:0:0
264,244,131203,1,0,0:0:0
204,296,131355,1,0,0:0:0
320,292,131659,1,4,0:0:0
260,104,131963,1,4,0:0:0
208,52,132166,1,4,0:0:0
312,52,132470,1,4,0:0:0
264,244,132774,1,0,0:0:0
224,268,133078,5,0,0:0:0
168,304,133180,1,0,0:0:0
164,236,133332,1,0,0:0:0
164,168,133484,1,0,0:0:0
160,100,133636,1,0,0:0:0
192,48,133737,1,0,0:0:0
272,48,133990,1,0,0:0:0
356,52,134345,1,0,0:0:0
356,124,134598,1,0,0:0:0
256,192,134903,5,4,0:0:0
256,192,135207,1,4,0:0:0
256,192,135409,1,4,0:0:0
256,192,135713,1,4,0:0:0
256,192,135967,1,4,0:0:0
256,192,136220,5,0,0:0:0
136,212,136321,1,0,0:0:0
176,136,136473,1,0,0:0:0
256,112,136575,1,0,0:0:0
332,148,136727,1,0,0:0:0
376,220,136828,1,0,0:0:0
316,320,136980,1,0,0:0:0
212,320,137082,1,0,0:0:0
200,248,137234,1,0,0:0:0
200,108,137335,1,0,0:0:0
344,112,137487,1,0,0:0:0
344,252,137639,1,0,0:0:0
255,351,137842,1,4,0:0:0
256,351,138247,1,4,0:0:0
256,351,138653,1,4,0:0:0
256,351,139058,1,4,0:0:0
148,232,139463,5,2,0:0:0
88,180,139565,1,2,0:0:0
148,136,139666,1,2,0:0:0
352,136,139767,5,0,0:0:0
412,192,139869,1,0,0:0:0
352,240,139970,1,0,0:0:0
300,76,140071,5,2,0:0:0
252,24,140173,1,2,0:0:0
196,72,140274,1,2,0:0:0
200,292,140376,5,0,0:0:0
264,352,140477,1,0,0:0:0
312,291,140578,1,0,0:0:0
256,189,140680,1,4,0:0:0
256,189,140781,1,4,0:0:0
256,189,140882,1,4,0:0:0
256,189,140984,1,4,0:0:0
256,189,141085,5,4,0:0:0
257,191,152538,5,0,0:0:0
257,191,152639,1,0,0:0:0
257,191,152740,1,0,0:0:0
257,191,152842,1,0,0:0:0
257,191,152943,1,0,0:0:0
260,296,153146,1,0,0:0:0
256,108,153399,1,0,0:0:0
340,192,153551,1,0,0:0:0
340,192,153653,1,0,0:0:0
184,192,153855,1,0,0:0:0
184,192,153957,1,0,0:0:0
202,57,154058,6,0,P|120:143,1,100
132,129,154261,2,0,P|132:240,1,100
132,229,154463,2,0,P|204:298,1,100
204,298,154666,2,0,P|321:299,1,100
304,298,154869,1,0,0:0:0
304,298,154970,2,2,P|374:298|374:298|300:264|300:264|373:264|373:264|300:227|300:227,1,300
256,59,155477,5,0,0:0:0
256,59,155578,2,0,P|174:136,1,100
183,127,155781,2,0,P|258:202,1,100
253,197,155984,2,0,P|344:118,1,100
328,131,156186,2,0,P|251:57,1,100
256,59,156389,1,0,0:0:0
256,59,156490,5,0,0:0:0
256,61,156592,2,2,P|147:71|254:82,1,300
257,189,157098,5,0,0:0:0
330,323,157301,2,0,P|381:310|392:261,1,100
391,127,157504,2,0,P|371:71|316:59,1,100
183,60,157707,2,0,P|130:74|116:133,1,100
115,249,157909,2,0,P|127:303|182:324,1,100
210,327,158112,6,0,P|252:354|296:325,1,100
397,239,158315,2,0,P|416:190|400:148,1,100
310,59,158517,2,0,P|254:36|205:55,1,100
108,127,158720,2,0,P|82:181|113:223,1,100
115,249,158923,6,0,P|126:305|180:331,1,100
331,319,159126,2,0,P|379:298|388:246,1,100
380,126,159328,2,0,P|344:73|293:62,1,100
182,59,159531,2,0,P|134:85|111:136,1,100
258,194,159734,1,6,0:0:0
258,194,159936,1,6,0:0:0
293,195,160139,2,6,P|227:194,4,50
212,88,160544,6,0,P|148:168,1,100
144,240,160747,6,0,P|228:324,1,100
304,312,160950,6,0,P|380:224,1,100
368,156,161153,6,0,P|280:72,1,100
300,88,161355,6,0,P|184:88,1,100
144,156,161558,6,0,P|144:264,1,100
212,312,161761,6,0,P|332:312,1,100
364,248,161963,6,0,P|364:136,1,100
144,52,162166,5,0,0:0:0
144,88,162267,1,0,0:0:0
144,128,162369,1,0,0:0:0
144,168,162470,1,0,0:0:0
144,208,162571,1,0,0:0:0
144,244,162673,1,0,0:0:0
144,280,162774,1,0,0:0:0
144,320,162876,1,0,0:0:0
360,320,162977,5,0,0:0:0
360,280,163078,1,0,0:0:0
360,244,163180,1,0,0:0:0
360,204,163281,1,0,0:0:0
360,168,163382,1,0,0:0:0
360,128,163484,1,0,0:0:0
360,96,163585,1,0,0:0:0
360,56,163686,1,0,0:0:0
312,124,163788,6,0,P|204:124,3,100
180,152,164193,2,0,P|180:252,3,100
212,284,164598,2,0,P|332:284,3,100
336,252,165004,2,0,P|336:140,3,100
256,84,165409,5,4,0:0:0
128,192,165511,1,4,0:0:0
256,304,165713,1,4,0:0:0
356,192,165916,1,4,0:0:0
256,192,166119,1,4,0:0:0
256,192,166423,1,4,0:0:0
232,192,166626,2,6,P|300:192,3,50
156,108,167031,5,0,0:0:0
156,144,167132,1,0,0:0:0
156,180,167234,1,0,0:0:0
156,216,167335,1,0,0:0:0
176,300,167436,5,0,0:0:0
212,300,167538,1,0,0:0:0
248,300,167639,1,0,0:0:0
280,300,167740,1,0,0:0:0
256,192,167842,5,0,0:0:0
284,192,168044,2,2,P|232:192,3,50
256,192,168450,5,0,0:0:0
360,228,168653,5,0,0:0:0
360,188,168754,1,0,0:0:0
360,152,168855,1,0,0:0:0
360,112,168957,1,0,0:0:0
308,64,169058,5,0,0:0:0
272,64,169159,1,0,0:0:0
236,64,169261,1,0,0:0:0
200,64,169362,1,0,0:0:0
256,192,169463,5,0,0:0:0
288,192,169666,2,2,P|220:192,3,50
256,192,170071,5,0,0:0:0
48,184,170274,5,0,0:0:0
64,204,170376,1,0,0:0:0
80,224,170477,1,0,0:0:0
96,244,170578,1,0,0:0:0
112,264,170680,1,0,0:0:0
128,284,170781,1,0,0:0:0
144,304,170882,1,0,0:0:0
160,324,170984,1,0,0:0:0
332,328,171085,5,0,0:0:0
348,304,171186,1,0,0:0:0
364,284,171288,1,0,0:0:0
380,264,171389,1,0,0:0:0
396,248,171490,1,0,0:0:0
412,232,171592,1,0,0:0:0
432,216,171693,1,0,0:0:0
448,196,171794,1,0,0:0:0
380,72,171896,5,0,0:0:0
344,72,171997,1,0,0:0:0
304,72,172098,1,0,0:0:0
268,72,172200,1,0,0:0:0
228,72,172301,1,0,0:0:0
192,72,172403,1,0,0:0:0
152,72,172504,1,0,0:0:0
112,72,172605,1,0,0:0:0
256,144,172707,5,4,0:0:0
176,240,172909,5,4,0:0:0
328,240,173112,5,4,0:0:0
132,84,173517,5,0,0:0:0
132,120,173619,1,0,0:0:0
132,164,173720,1,0,0:0:0
132,200,173821,1,0,0:0:0
132,244,173923,2,2,P|132:344,3,100
368,344,174328,5,0,0:0:0
368,308,174430,1,0,0:0:0
368,268,174531,1,0,0:0:0
368,232,174632,1,0,0:0:0
368,192,174734,2,2,P|368:92,3,100
108,56,175139,5,0,0:0:0
144,56,175240,1,0,0:0:0
176,56,175342,1,0,0:0:0
212,56,175443,1,0,0:0:0
248,56,175544,2,2,P|348:56,3,100
360,340,175950,5,0,0:0:0
324,340,176051,1,0,0:0:0
292,340,176153,1,0,0:0:0
260,340,176254,1,0,0:0:0
224,340,176355,2,2,P|124:340,3,100
112,120,176761,5,0,0:0:0
112,156,176862,1,0,0:0:0
112,200,176963,1,0,0:0:0
112,232,177065,1,0,0:0:0
384,120,177166,5,0,0:0:0
384,156,177267,1,0,0:0:0
384,200,177369,1,0,0:0:0
384,232,177470,1,0,0:0:0
192,52,177571,5,0,0:0:0
232,52,177673,1,0,0:0:0
272,52,177774,1,0,0:0:0
308,52,177876,1,0,0:0:0
200,304,177977,5,0,0:0:0
240,304,178078,1,0,0:0:0
280,304,178180,1,0,0:0:0
316,304,178281,1,0,0:0:0
324,120,178382,5,0,0:0:0
256,192,178484,1,0,0:0:0
176,128,178686,5,0,0:0:0
336,260,178889,1,0,0:0:0
176,128,179092,1,0,0:0:0
336,260,179294,1,0,0:0:0
256,260,179396,1,0,0:0:0
180,260,179497,1,0,0:0:0
104,260,179598,1,0,0:0:0
104,184,179700,1,0,0:0:0
104,108,179801,1,0,0:0:0
104,36,179903,1,0,0:0:0
172,40,180004,2,0,P|244:40|244:40|352:112|352:112|352:232,1,300
232,192,186085,6,0,P|268:192,6,25
196,72,186490,5,0,0:0:0
148,124,186592,1,0,0:0:0
100,176,186693,1,0,0:0:0
100,248,186794,1,0,0:0:0
320,336,186896,5,0,0:0:0
368,280,186997,1,0,0:0:0
416,224,187098,1,0,0:0:0
416,152,187200,1,0,0:0:0
256,192,187301,12,0,187909,0:0:0
288,68,188112,6,0,P|224:68,3,50
236,296,188517,6,0,P|304:296,3,50
256,192,188923,12,0,189531,0:0:0
256,52,189734,5,0,0:0:0
256,128,189936,1,0,0:0:0
256,204,190139,1,0,0:0:0
256,280,190342,1,0,0:0:0
404,192,190544,5,0,0:0:0
332,192,190747,1,0,0:0:0
256,192,190950,1,0,0:0:0
176,192,191153,1,0,0:0:0
80,56,191355,5,0,0:0:0
80,152,191457,1,0,0:0:0
80,248,191558,1,0,0:0:0
80,340,191659,1,0,0:0:0
80,56,191761,5,0,0:0:0
80,152,191862,1,0,0:0:0
80,248,191963,1,0,0:0:0
80,340,192065,1,0,0:0:0
232,192,192571,6,0,P|288:192,3,50
256,136,192977,5,0,0:0:0
192,192,193078,1,0,0:0:0
256,244,193180,1,0,0:0:0
324,192,193281,1,0,0:0:0
256,104,193382,5,0,0:0:0
152,192,193484,1,0,0:0:0
256,280,193585,1,0,0:0:0
360,192,193686,1,0,0:0:0
256,72,193788,5,0,0:0:0
120,192,193889,1,0,0:0:0
256,316,193990,1,0,0:0:0
400,192,194092,1,0,0:0:0
256,40,194193,5,0,0:0:0
88,192,194294,1,0,0:0:0
256,352,194396,1,0,0:0:0
432,192,194497,1,0,0:0:0
432,224,194598,6,0,P|432:168,1,50
292,36,194801,2,0,P|224:36,1,50
88,156,195004,2,0,P|88:224,1,50
220,352,195207,2,0,P|276:352,1,50
400,228,195409,6,0,P|400:176,1,50
292,76,195612,2,0,P|240:76,1,50
124,156,195815,2,0,P|124:220,1,50
220,312,196017,2,0,P|276:312,1,50
364,232,196220,5,0,0:0:0
364,200,196321,1,0,0:0:0
364,168,196423,1,0,0:0:0
364,136,196524,1,0,0:0:0
292,100,196626,5,0,0:0:0
256,100,196727,1,0,0:0:0
216,100,196828,1,0,0:0:0
180,100,196930,1,0,0:0:0
160,160,197031,5,0,0:0:0
160,192,197132,1,0,0:0:0
160,232,197234,1,0,0:0:0
160,268,197335,1,0,0:0:0
224,276,197436,5,0,0:0:0
256,276,197538,1,0,0:0:0
288,276,197639,1,0,0:0:0
324,276,197740,1,0,0:0:0
256,232,197842,1,0,0:0:0
256,160,198044,5,0,0:0:0
320,192,198247,5,0,0:0:0
200,192,198348,1,0,0:0:0
256,192,198551,1,0,0:0:0
228,192,199058,6,0,P|292:192,3,50
128,72,205950,6,0,P|128:276,1,200
128,72,206355,6,0,P|128:284,1,200
128,272,206659,1,0,0:0:0
184,356,206761,1,0,0:0:0
272,308,206862,1,0,0:0:0
256,108,207065,1,0,0:0:0
432,276,207571,6,0,P|432:72,1,200
432,276,207977,6,0,P|432:64,1,200
432,76,208281,1,0,0:0:0
340,40,208382,1,0,0:0:0
312,136,208484,1,0,0:0:0
256,328,208686,1,0,0:0:0
312,72,209193,6,0,P|208:72,1,100
128,128,209396,2,0,P|128:232,1,100
200,300,209598,2,0,P|312:300,1,100
384,244,209801,2,0,P|384:132,1,100
312,72,210004,6,0,P|192:72,1,100
128,128,210207,2,0,P|128:248,1,100
200,300,210409,2,0,P|328:300,1,100
384,244,210612,2,0,P|384:116,1,100
256,192,210815,12,0,212234,0:0:0
208,108,212436,5,0,0:0:0
108,108,212538,1,0,0:0:0
104,208,212639,1,0,0:0:0
104,308,212842,5,0,0:0:0
204,312,212943,1,0,0:0:0
208,212,213044,1,0,0:0:0
