osu file format v12

[General]
AudioFilename: 16.mp3
AudioLeadIn: 0
PreviewTime: 58865
Countdown: 0
SampleSet: Soft
StackLeniency: 0.7
Mode: 0
LetterboxInBreaks: 1

[Editor]
DistanceSpacing: 1
BeatDivisor: 4
GridSize: 4

[Metadata]
Title:1/6
TitleUnicode:1/6
Artist:VocaliodP
ArtistUnicode:ぼーかりおどP
Creator:Nymph
Version:TuHard
Source:
Tags:out of gravity No_Gu tutuhaha vocaloid hatsune miku OdoP
BeatmapID:182774
BeatmapSetID:61207

[Difficulty]
HPDrainRate:6
CircleSize:4
OverallDifficulty:6
ApproachRate:7
SliderMultiplier:1.5
SliderTickRate:2

[Events]
//Background and Video events
0,0,"dfbb114c3cd572c9d62afc2a.jpg",0,0
//Break Periods
2,13696,27956
2,94336,96116
2,163456,173156
//Storyboard Layer 0 (Background)
//Storyboard Layer 1 (Fail)
//Storyboard Layer 2 (Pass)
//Storyboard Layer 3 (Foreground)
//Storyboard Sound Samples
//Background Colour Transformations
3,100,163,162,255

[TimingPoints]
56,480,4,2,1,70,1,0
3896,-133.333333333333,4,2,1,70,0,0
28856,-100,4,2,1,70,0,0
59576,-100,4,2,1,70,0,1
90296,-100,4,2,1,70,0,0
126776,-100,4,2,1,55,0,0
128696,-100,4,2,1,70,0,1
159416,-100,4,2,1,70,0,0
174776,-133.333333333333,4,2,1,70,0,0
182456,-100,4,2,1,70,0,0
190136,-100,4,2,1,70,0,1
205376,-100,4,2,1,70,0,0
205496,-100,4,2,1,70,0,1
236216,-100,4,2,1,70,0,0
259376,-100,4,2,1,10,0,0

[Colours]
Combo1 : 255,106,255
Combo2 : 255,149,98
Combo3 : 117,255,255
Combo4 : 158,62,255

[HitObjects]
256,68,3176,1,0,0:0:0:0:
256,68,3416,1,0,0:0:0:0:
256,68,3656,1,0,0:0:0:0:
204,120,3896,2,0,B|232:176|296:184,1,112.500004291535,2|0,0:0|0:0,0:0:0:0:
340,212,4616,1,0,0:0:0:0:
336,268,4856,2,0,B|296:320,2,56.2500021457673
388,244,5576,2,0,B|444:224|464:160,1,112.500004291535
392,80,6536,5,0,0:0:0:0:
392,80,6776,2,0,B|332:44,1,56.2500021457673
292,72,7256,2,0,B|236:28,1,56.2500021457673
192,40,7736,2,0,B|176:104|116:136,1,112.500004291535,2|0,0:0|0:0,0:0:0:0:
80,232,8696,2,0,B|100:296|156:320,1,112.500004291535
204,300,9416,1,0,0:0:0:0:
256,276,9656,1,2,0:0:0:0:
256,192,9776,12,0,12056,0:0:0:0:
256,192,12536,5,10,0:0:0:0:
256,192,13016,1,8,0:0:0:0:
256,192,13496,1,4,0:0:0:0:
196,48,28856,6,0,B|104:48,1,75,4|0,0:0|0:0,0:0:0:0:
124,124,29336,2,0,B|24:124,1,75,8|0,0:0|0:0,0:0:0:0:
44,200,29816,2,0,B|120:232|152:320,1,150,0|8,0:0|0:0,0:0:0:0:
216,332,30536,1,0,0:0:0:0:
252,268,30776,2,0,B|336:256|396:188,2,150,0|8|0,0:0|0:0|0:0,0:0:0:0:
208,208,31976,2,0,B|208:120,1,75,0|8,0:0|0:0,0:0:0:0:
176,64,32456,1,0,0:0:0:0:
248,40,32696,6,0,B|340:40,1,75,0|0,0:0|0:0,0:0:0:0:
356,108,33176,2,0,B|452:108,1,75,8|0,0:0|0:0,0:0:0:0:
432,184,33656,2,0,B|348:184,1,75
324,252,34136,2,0,B|240:252,1,75,8|0,0:0|0:0,0:0:0:0:
196,200,34616,2,0,B|120:212|80:292,1,150,0|8,0:0|0:0,0:0:0:0:
140,336,35336,2,0,B|224:336,2,75
44,224,36056,1,8,0:0:0:0:
44,224,36296,1,0,0:0:0:0:
80,80,36536,6,0,B|144:28|236:28,1,150,0|8,0:0|0:0,0:0:0:0:
256,92,37256,1,0,0:0:0:0:
296,156,37496,2,0,B|360:208|452:208,1,150,0|8,0:0|0:0,0:0:0:0:
468,276,38216,1,0,0:0:0:0:
412,328,38456,2,0,B|324:328,1,75
288,272,38936,1,8,0:0:0:0:
212,284,39176,2,0,B|176:216|80:204,1,150
136,64,40136,5,0,0:0:0:0:
136,64,40376,2,0,B|224:64,1,75
308,180,41096,1,0,0:0:0:0:
308,180,41336,2,0,B|216:180,1,75
116,272,42056,5,0,0:0:0:0:
116,272,42296,2,0,B|124:320|164:344,1,75
220,300,42776,2,0,B|250:337|297:338,1,75,8|0,0:0|0:0,0:0:0:0:
328,276,43256,2,0,B|297:238|250:237,2,75,0|0|8,0:0|0:0|0:0,0:0:0:0:
356,344,43976,1,0,0:0:0:0:
372,192,44216,6,0,B|356:112|268:80,1,150,0|8,0:0|0:0,0:0:0:0:
204,64,44936,1,0,0:0:0:0:
132,88,45176,2,0,B|48:88,1,75
72,160,45656,2,0,B|156:160,1,75,8|0,0:0|0:0,0:0:0:0:
208,204,46136,1,0,0:0:0:0:
208,204,46376,1,0,0:0:0:0:
256,348,46856,1,0,0:0:0:0:
256,348,47096,2,0,B|352:348,1,75
360,200,47816,5,0,0:0:0:0:
360,200,48056,2,0,B|276:168|268:64,1,150,0|8,0:0|0:0,0:0:0:0:
204,56,48776,1,0,0:0:0:0:
140,96,49016,2,0,B|56:124|28:208,1,150,0|8,0:0|0:0,0:0:0:0:
68,260,49736,1,0,0:0:0:0:
120,316,49976,2,0,B|200:316,1,75
220,244,50456,2,0,B|304:216|332:132,1,150,8|0,0:0|0:0,0:0:0:0:
326,145,51176,1,0,0:0:0:0:
436,44,51656,5,0,0:0:0:0:
472,108,51896,2,0,B|472:183,1,75
396,184,52376,2,0,B|396:272,2,75,8|0|0,0:0|0:0|0:0,0:0:0:0:
326,145,53096,1,0,0:0:0:0:
288,84,53336,2,0,B|248:108|232:148,1,75,8|0,0:0|0:0,0:0:0:0:
168,108,53816,2,0,B|144:184|56:216,1,150,0|8,0:0|0:0,0:0:0:0:
36,280,54536,2,0,B|72:352|168:360,1,150
208,229,55256,6,0,B|208:304,1,75,8|0,0:0|0:0,0:0:0:0:
284,296,55736,2,0,B|284:204,1,75
352,188,56216,1,8,0:0:0:0:
408,136,56456,1,0,0:0:0:0:
336,112,56696,2,0,B|288:48|184:52,1,150,0|8,0:0|0:0,0:0:0:0:
160,112,57416,2,0,B|124:188|32:216,2,150,0|8|8,0:0|0:0|0:0,0:0:0:0:
224,156,58616,6,0,B|268:160|292:196,1,75,8|0,0:0|0:0,0:0:0:0:
353,87,59096,2,0,B|372:124|356:160,1,75,0|0,0:0|0:0,0:0:0:0:
224,232,59576,5,4,0:0:0:0:
264,296,59816,1,0,0:0:0:0:
212,352,60056,1,8,0:0:0:0:
144,320,60296,1,0,0:0:0:0:
148,244,60536,2,0,B|104:176|8:176,1,150,0|8,0:0|0:0,0:0:0:0:
68,116,61256,2,0,B|116:52|200:40,1,150
256,84,61976,2,0,B|256:164,1,75,8|0,0:0|0:0,0:0:0:0:
308,216,62456,2,0,B|385:205|433:141,1,150,0|8,0:0|0:0,0:0:0:0:
372,96,63176,1,0,0:0:0:0:
464,216,63416,6,0,B|440:252|388:268,1,75,4|0,0:0|0:0,0:0:0:0:
340,300,63896,2,0,B|305:325|250:322,1,75,8|0,0:0|0:0,0:0:0:0:
204,288,64376,1,0,0:0:0:0:
204,288,64616,1,0,0:0:0:0:
136,256,64856,1,8,0:0:0:0:
136,256,65096,1,0,0:0:0:0:
196,208,65336,1,0,0:0:0:0:
196,208,65576,2,0,B|176:128|80:108,1,150
116,40,66296,5,4,0:0:0:0:
340,48,66776,1,4,0:0:0:0:
408,264,67256,2,0,B|328:264,2,75,4|0|8,0:0|0:0|0:0,0:0:0:0:
400,188,67976,2,0,B|232:188,2,150
404,112,69176,2,0,B|324:112,1,75
284,52,69656,2,0,B|200:52,1,75,8|0,0:0|0:0,0:0:0:0:
136,64,70136,2,0,B|148:104|184:124,1,75
104,168,70616,2,0,B|134:196|172:196,1,75,8|0,0:0|0:0,0:0:0:0:
180,272,71096,5,4,0:0:0:0:
396,332,71576,1,8,0:0:0:0:
352,112,72056,2,0,B|332:72|276:52,1,75
193,110,72536,2,0,B|220:88|224:44,1,75,8|0,0:0|0:0,0:0:0:0:
120,128,73016,2,0,B|132:212|208:248,1,150,0|8,0:0|0:0,0:0:0:0:
256,300,73736,1,0,0:0:0:0:
300,156,73976,6,0,B|384:156,1,75
412,92,74456,2,0,B|492:92,1,75,8|0,0:0|0:0,0:0:0:0:
416,224,74936,6,0,B|348:268|344:372,1,150,4|8,0:0|0:0,0:0:0:0:
272,356,75656,1,0,0:0:0:0:
196,356,75896,2,0,B|156:344|132:304,1,75
144,236,76376,1,8,0:0:0:0:
72,208,76616,2,0,B|100:128|180:96,1,150
244,100,77336,6,0,B|244:16,2,75,8|0|0,0:0|0:0|0:0,0:0:0:0:
448,192,78296,1,8,0:0:0:0:
244,284,78776,2,0,B|244:368,2,75,4|0|8,0:0|0:0|0:0,0:0:0:0:
176,252,79496,1,0,0:0:0:0:
104,228,79736,2,0,B|96:144|156:92,2,150,0|8|0,0:0|0:0|0:0,0:0:0:0:
248,192,80936,2,0,B|240:276|300:328,1,150,0|0,0:0|0:0,0:0:0:0:
408,228,81656,2,0,B|416:144|356:92,1,150,4|8,0:0|0:0,0:0:0:0:
256,292,82616,6,0,B|236:332|196:352,1,75,4|0,0:0|0:0,0:0:0:0:
160,288,83096,2,0,B|122:312|78:309,1,75,8|0,0:0|0:0,0:0:0:0:
52,244,83576,1,4,0:0:0:0:
160,44,84056,1,8,0:0:0:0:
200,108,84296,1,0,0:0:0:0:
256,160,84536,1,4,0:0:0:0:
435,268,85016,6,0,B|360:268,1,75,8|0,0:0|0:0,0:0:0:0:
288,280,85496,2,0,B|240:344|140:332,1,150,4|8,0:0|0:0,0:0:0:0:
120,268,86216,2,0,B|68:196,1,75,0|4,0:0|0:0,0:0:0:0:
256,192,86576,12,4,88376,0:0:0:0:
256,192,88856,5,8,0:0:0:0:
152,84,89336,2,0,B|240:84,1,75
296,116,89816,1,8,0:0:0:0:
340,176,90056,2,0,B|348:232|312:280|248:280,1,150
256,192,90656,12,0,94136,0:0:0:0:
256,52,97016,5,0,0:0:0:0:
256,52,97496,1,0,0:0:0:0:
168,172,97976,2,0,B|136:240|44:256,1,150,4|0,0:0|0:0,0:0:0:0:
48,180,98696,2,0,B|48:100,1,75,0|2,0:0|0:0,0:0:0:0:
120,80,99176,1,0,0:0:0:0:
192,100,99416,2,0,B|256:152,1,75
382,175,99896,2,0,B|324:128,2,75,2|0|0,0:0|0:0|0:0,0:0:0:0:
300,200,100616,2,0,B|280:276|200:312,1,150
136,336,101336,2,0,B|136:248,1,75
232,144,101816,6,0,B|252:68|332:32,1,150,2|0,0:0|0:0,0:0:0:0:
388,76,102536,1,0,0:0:0:0:
352,144,102776,2,0,B|392:212|476:232,1,150,2|0,0:0|0:0,0:0:0:0:
428,292,103496,1,0,0:0:0:0:
368,336,103736,2,0,B|344:296|292:288,1,75,2|0,0:0|0:0,0:0:0:0:
240,320,104216,2,0,B|208:288|200:240,1,75
160,196,104696,2,0,B|120:120|32:104,1,150,4|4,0:0|0:0,0:0:0:0:
45,106,105656,5,4,0:0:0:0:
104,60,105896,1,0,0:0:0:0:
180,60,106136,2,0,B|212:32|264:32,1,75,8|0,0:0|0:0,0:0:0:0:
316,68,106616,2,0,B|364:144|448:152,1,150,0|8,0:0|0:0,0:0:0:0:
488,96,107336,1,0,0:0:0:0:
396,216,107576,2,0,B|320:236|284:308,1,150,0|8,0:0|0:0,0:0:0:0:
340,356,108296,2,0,B|292:292|192:288,1,150
110,264,109016,2,0,B|148:256|172:224,1,75,8|0,0:0|0:0,0:0:0:0:
100,188,109496,6,0,B|40:152|32:60,1,150,0|8,0:0|0:0,0:0:0:0:
108,64,110216,1,0,0:0:0:0:
144,128,110456,2,0,B|188:120|212:84,1,75
276,120,110936,2,0,B|312:88|312:44,1,75,8|0,0:0|0:0,0:0:0:0:
380,84,111416,2,0,B|416:156|496:184,1,150,0|8,0:0|0:0,0:0:0:0:
464,252,112136,2,0,B|376:252,1,75
325,328,112616,2,0,B|400:328,2,75,0|8|0,0:0|0:0|0:0,0:0:0:0:
364,184,113336,6,0,B|316:124|224:108,1,150,0|8,0:0|0:0,0:0:0:0:
196,172,114056,1,0,0:0:0:0:
164,240,114296,2,0,B|128:312|28:344,1,150,0|8,0:0|0:0,0:0:0:0:
36,264,115016,1,0,0:0:0:0:
92,212,115256,2,0,B|92:164|60:136,1,75
192,56,115976,1,0,0:0:0:0:
244,108,116216,2,0,B|292:104|320:68,1,75
412,192,116936,5,0,0:0:0:0:
412,192,117176,2,0,B|336:212|304:296,2,150,0|8|0,0:0|0:0|0:0,0:0:0:0:
368,132,118376,2,0,B|344:96|296:88,1,75,0|8,0:0|0:0,0:0:0:0:
244,52,118856,1,0,0:0:0:0:
168,64,119096,2,0,B|168:128|100:156|100:156|88:216|144:252,1,225
188,192,120056,2,0,B|276:192,1,75
348,316,120776,5,0,0:0:0:0:
348,316,121016,2,0,B|424:284|452:200,1,150,0|8,0:0|0:0,0:0:0:0:
376,184,121736,1,0,0:0:0:0:
304,168,121976,2,0,B|268:100|160:96,1,150,0|8,0:0|0:0,0:0:0:0:
136,36,122696,1,0,0:0:0:0:
196,172,122936,2,0,B|212:264|304:300,1,150,0|8,0:0|0:0,0:0:0:0:
228,340,123656,2,0,B|276:272|352:260,1,150
420,157,124376,2,0,B|420:232,1,75,8|0,0:0|0:0,0:0:0:0:
360,96,124856,6,0,B|340:68|288:56,1,75,0|0,0:0|0:0,0:0:0:0:
228,84,125336,2,0,B|200:116|152:128,1,75,8|0,0:0|0:0,0:0:0:0:
92,140,125816,2,0,B|100:184|136:212,1,75
111,324,126296,2,0,B|103:280|76:260,1,75,8|0,0:0|0:0,0:0:0:0:
200,176,126776,2,0,B|288:176,1,75,8|8,0:0|0:0,0:0:0:0:
379,244,127256,2,0,B|304:244,2,75,8|8|8,0:0|0:0|0:0,0:0:0:0:
400,172,127976,2,0,B|392:128|360:104,2,75,8|8|8,0:0|0:0|0:0,0:0:0:0:
348,312,128696,6,0,B|292:372|204:376,1,150,4|8,0:0|0:0,0:0:0:0:
184,308,129416,1,0,0:0:0:0:
140,248,129656,2,0,B|104:224|64:228,1,75
80,152,130136,1,8,0:0:0:0:
80,152,130376,2,0,B|132:88|216:76,1,150
304,192,131336,1,0,0:0:0:0:
368,152,131576,2,0,B|368:76,1,75
440,92,132056,2,0,B|484:28,1,75,8|0,0:0|0:0,0:0:0:0:
448,176,132536,6,0,B|432:224|392:244,1,75,4|0,0:0|0:0,0:0:0:0:
336,260,133016,2,0,B|292:276|272:312,1,75,8|0,0:0|0:0,0:0:0:0:
208,328,133496,2,0,B|128:312|92:232,1,150,0|8,0:0|0:0,0:0:0:0:
60,172,134216,1,0,0:0:0:0:
124,136,134456,2,0,B|204:120|252:56,1,150,0|8,0:0|0:0,0:0:0:0:
468,120,135416,1,4,0:0:0:0:
388,332,135896,1,8,0:0:0:0:
172,268,136376,6,0,B|140:192|48:160,1,150,4|8,0:0|0:0,0:0:0:0:
104,100,137096,1,0,0:0:0:0:
176,84,137336,2,0,B|220:72|240:40,2,75,0|0|8,0:0|0:0|0:0,0:0:0:0:
204,152,138056,1,0,0:0:0:0:
228,224,138296,2,0,B|312:248|344:328,1,150,0|8,0:0|0:0,0:0:0:0:
268,344,139016,1,0,0:0:0:0:
396,268,139256,2,0,B|408:228|392:188,1,75
332,156,139736,2,0,B|320:116|336:76,1,75,8|0,0:0|0:0,0:0:0:0:
400,48,140216,5,4,0:0:0:0:
176,80,140696,1,8,0:0:0:0:
72,280,141176,1,0,0:0:0:0:
132,236,141416,1,0,0:0:0:0:
200,204,141656,2,0,B|224:288|152:340,2,150,8|0|8,0:0|0:0|0:0,0:0:0:0:
252,148,142856,1,0,0:0:0:0:
328,140,143096,2,0,B|376:116|384:76,1,75
489,110,143576,2,0,B|480:80|444:52,1,75,8|0,0:0|0:0,0:0:0:0:
388,192,144056,6,0,B|356:264|268:296,1,150,4|8,0:0|0:0,0:0:0:0:
204,284,144776,1,0,0:0:0:0:
188,212,145016,2,0,B|160:136|64:112,1,150,0|8,0:0|0:0,0:0:0:0:
16,156,145736,2,0,B|92:128|120:44,1,150
256,112,146696,1,0,0:0:0:0:
300,52,146936,2,0,B|384:80|408:160,1,150,0|8,0:0|0:0,0:0:0:0:
476,132,147656,1,0,0:0:0:0:
336,180,147896,6,0,B|260:200|220:276,2,150,4|8|0,0:0|0:0|0:0,0:0:0:0:
188,184,149336,1,8,0:0:0:0:
188,184,149576,2,0,B|108:164|76:68,1,150
82,85,150296,1,8,0:0:0:0:
308,60,150776,1,4,0:0:0:0:
468,216,151256,1,8,0:0:0:0:
256,288,151736,5,4,0:0:0:0:
44,216,152216,1,8,0:0:0:0:
35,142,152456,1,0,0:0:0:0:
58,72,152696,1,4,0:0:0:0:
172,268,153176,1,8,0:0:0:0:
248,256,153416,1,0,0:0:0:0:
318,225,153656,2,0,B|350:192|348:142,1,75,4|0,0:0|0:0,0:0:0:0:
308,96,154136,2,0,B|326:48|370:27,1,75,8|0,0:0|0:0,0:0:0:0:
410,88,154616,6,0,B|443:170|415:241,1,150,4|8,0:0|0:0,0:0:0:0:
370,291,155336,1,0,0:0:0:0:
295,298,155576,1,4,0:0:0:0:
256,192,155696,12,4,157496,0:0:0:0:
256,88,157976,5,8,0:0:0:0:
88,236,158456,2,0,B|120:200|128:160,1,75
152,100,158936,1,8,0:0:0:0:
208,152,159176,2,0,B|280:188|300:276,1,150,0|0,0:0|0:0,0:0:0:0:
256,192,159776,12,0,163256,0:0:0:0:
256,52,174056,5,0,0:0:0:0:
256,52,174296,1,0,0:0:0:0:
256,52,174536,1,0,0:0:0:0:
316,100,174776,2,0,B|288:152|216:168,1,112.500004291535,2|0,0:0|0:0,0:0:0:0:
180,192,175496,1,0,0:0:0:0:
164,244,175736,2,0,B|196:300,2,56.2500021457673
108,232,176456,2,0,B|52:208|40:132,1,112.500004291535
128,72,177416,5,0,0:0:0:0:
128,72,177656,2,0,B|168:120|244:124,1,112.500004291535
280,104,178376,1,0,0:0:0:0:
332,84,178616,2,0,B|392:100|420:160,1,112.500004291535,2|0,0:0|0:0,0:0:0:0:
396,264,179576,2,0,B|368:328,2,56.2500021457673
340,252,180296,2,0,B|280:236|252:176,1,112.500004291535
255,183,181016,1,0,0:0:0:0:
156,132,181496,5,0,0:0:0:0:
156,132,181976,1,0,0:0:0:0:
72,256,182456,6,0,B|88:300|128:320,1,75,4|0,0:0|0:0,0:0:0:0:
192,296,182936,2,0,B|176:252|136:232,1,75,0|0,0:0|0:0,0:0:0:0:
204,188,183416,2,0,B|232:156|232:120,1,75,2|0,0:0|0:0,0:0:0:0:
155,131,183896,2,0,B|156:96|183:64,1,75
256,48,184376,2,0,B|340:52|392:104,1,150,2|0,0:0|0:0,0:0:0:0:
412,176,185096,1,0,0:0:0:0:
356,224,185336,2,0,B|372:260|412:276,1,75,2|0,0:0|0:0,0:0:0:0:
293,318,185816,2,0,B|324:341|364:336,1,75
260,224,186296,6,0,B|220:152|112:152,1,150,2|0,0:0|0:0,0:0:0:0:
76,200,187016,1,0,0:0:0:0:
168,84,187256,2,0,B|232:32|324:40,1,150,2|0,0:0|0:0,0:0:0:0:
390,141,187976,2,0,B|368:112|324:112,1,75,0|8,0:0|0:0,0:0:0:0:
356,208,188456,2,0,B|384:236|424:236,2,75,0|8|8,0:0|0:0|0:0,0:0:0:0:
284,192,189176,1,4,0:0:0:0:
112,336,189656,1,4,0:0:0:0:
76,116,190136,5,4,0:0:0:0:
144,84,190376,1,0,0:0:0:0:
180,148,190616,2,0,B|212:124|224:84,1,75,8|0,0:0|0:0,0:0:0:0:
296,80,191096,2,0,B|376:96|412:172,1,150,0|8,0:0|0:0,0:0:0:0:
360,224,191816,2,0,B|404:152|484:140,2,150
332,292,193016,2,0,B|248:292,1,75
153,220,193496,2,0,B|228:220,1,75,8|0,0:0|0:0,0:0:0:0:
132,104,193976,6,0,B|88:108|56:140,1,75,4|0,0:0|0:0,0:0:0:0:
212,152,194456,2,0,B|256:148|288:116,1,75,8|0,0:0|0:0,0:0:0:0:
344,80,194936,1,0,0:0:0:0:
412,108,195176,1,0,0:0:0:0:
460,164,195416,1,8,0:0:0:0:
392,200,195656,2,0,B|328:252|320:332,1,150
288,260,196376,2,0,B|240:200|148:208,1,150,8|4,0:0|0:0,0:0:0:0:
316,52,197336,1,8,0:0:0:0:
92,88,197816,6,0,B|124:160|212:180,1,150,4|8,0:0|0:0,0:0:0:0:
164,240,198536,1,0,0:0:0:0:
260,124,198776,2,0,B|348:144|384:224,1,150,4|8,0:0|0:0,0:0:0:0:
444,180,199496,1,0,0:0:0:0:
304,240,199736,2,0,B|224:272|204:360,1,150,4|8,0:0|0:0,0:0:0:0:
144,304,200456,1,0,0:0:0:0:
92,248,200696,2,0,B|52:220|52:172,1,75,4|0,0:0|0:0,0:0:0:0:
77,83,201176,2,0,B|116:110|116:144,2,75,8|0|4,0:0|0:0|0:0,0:0:0:0:
256,192,201776,12,8,203096,0:0:0:0:
280,72,203576,6,0,B|332:84|360:120,1,75,8|8,0:0|0:0,0:0:0:0:
316,176,204056,2,0,B|360:192|404:168,1,75,8|8,0:0|0:0,0:0:0:0:
416,244,204536,2,0,B|404:288|368:312,1,75,8|8,0:0|0:0,0:0:0:0:
268,341,205016,2,0,B|280:298|308:280,1,75,8|8,0:0|0:0,0:0:0:0:
168,340,205496,6,0,B|92:316|72:220,1,150,4|8,0:0|0:0,0:0:0:0:
128,180,206216,1,0,0:0:0:0:
152,108,206456,2,0,B|200:92|216:56,2,75,0|0|8,0:0|0:0|0:0,0:0:0:0:
80,124,207176,2,0,B|120:200|204:200,1,150
256,327,207896,2,0,B|256:252,1,75,8|0,0:0|0:0,0:0:0:0:
328,236,208376,2,0,B|328:144,1,75
400,69,208856,2,0,B|400:144,1,75,8|0,0:0|0:0,0:0:0:0:
272,64,209336,6,0,B|192:80|156:160,1,150,4|8,0:0|0:0,0:0:0:0:
168,228,210056,1,0,0:0:0:0:
148,300,210296,2,0,B|188:304|220:284,1,75
272,336,210776,2,0,B|312:316|324:276,1,75,8|0,0:0|0:0,0:0:0:0:
288,216,211256,1,0,0:0:0:0:
288,216,211496,2,0,B|328:144|420:144,1,150
432,72,212216,1,4,0:0:0:0:
208,48,212696,1,8,0:0:0:0:
32,188,213176,6,0,B|72:264|152:276,1,150,4|8,0:0|0:0,0:0:0:0:
180,208,213896,2,0,B|220:140|316:128,1,150
372,33,214616,2,0,B|372:108,1,75,8|0,0:0|0:0,0:0:0:0:
412,172,215096,1,0,0:0:0:0:
412,172,215336,1,0,0:0:0:0:
368,232,215576,1,8,0:0:0:0:
368,232,215816,1,0,0:0:0:0:
312,284,216056,2,0,B|292:328|240:336,1,75
228,264,216536,2,0,B|248:220|300:212,1,75,8|0,0:0|0:0,0:0:0:0:
312,148,217016,5,4,0:0:0:0:
108,52,217496,1,8,0:0:0:0:
64,112,217736,1,0,0:0:0:0:
48,184,217976,1,4,0:0:0:0:
264,240,218456,1,8,0:0:0:0:
224,304,218696,1,0,0:0:0:0:
164,348,218936,6,0,B|132:324|124:280,1,75,4|0,0:0|0:0,0:0:0:0:
172,228,219416,2,0,B|168:184|128:152,1,75,8|0,0:0|0:0,0:0:0:0:
176,96,219896,2,0,B|260:96,1,75
387,140,220376,2,0,B|312:140,1,75,8|0,0:0|0:0,0:0:0:0:
308,292,220856,6,0,B|392:296|444:224,1,150,4|8,0:0|0:0,0:0:0:0:
464,160,221576,1,0,0:0:0:0:
448,88,221816,2,0,B|424:56|372:48,1,75
308,48,222296,1,8,0:0:0:0:
236,68,222536,2,0,B|216:104|168:120,2,75
288,124,223256,2,0,B|264:204|180:240,1,150,8|0,0:0|0:0,0:0:0:0:
128,196,223976,1,0,0:0:0:0:
128,272,224216,2,0,B|152:308|196:312,1,75,8|0,0:0|0:0,0:0:0:0:
56,240,224696,6,0,B|8:184|36:92,1,150,4|8,0:0|0:0,0:0:0:0:
108,116,225416,1,0,0:0:0:0:
184,120,225656,2,0,B|224:144|236:176,1,75
260,244,226136,2,0,B|308:260|348:248,1,75,8|0,0:0|0:0,0:0:0:0:
372,184,226616,1,0,0:0:0:0:
372,184,226856,2,0,B|412:116|496:96,1,150
489,97,227576,1,4,0:0:0:0:
440,316,228056,1,8,0:0:0:0:
216,288,228536,5,4,0:0:0:0:
112,88,229016,2,0,B|72:100|44:136,1,75,8|0,0:0|0:0,0:0:0:0:
188,68,229496,2,0,B|204:112|248:128,1,75,4|0,0:0|0:0,0:0:0:0:
355,158,229976,2,0,B|344:120|308:104,1,75,8|0,0:0|0:0,0:0:0:0:
284,176,230456,2,0,B|256:248|168:272,1,150,4|8,0:0|0:0,0:0:0:0:
136,204,231176,1,0,0:0:0:0:
220,332,231416,6,0,B|260:324|292:292,1,75,4|0,0:0|0:0,0:0:0:0:
336,244,231896,2,0,B|368:204|368:164,2,75,8|0|4,0:0|0:0|0:0,0:0:0:0:
436,44,232856,1,8,0:0:0:0:
212,80,233336,1,0,0:0:0:0:
136,88,233576,2,0,B|120:132|80:152,1,75,0|8,0:0|0:0,0:0:0:0:
92,220,234056,2,0,B|120:296|208:320,1,150
256,180,234776,6,0,B|312:116|400:112,1,150,8|0,0:0|0:0,0:0:0:0:
380,261,235496,2,0,B|376:224|392:188,2,75,0|8|0,0:0|0:0|0:0,0:0:0:0:
452,236,236216,1,4,0:0:0:0:
256,192,236336,12,0,238136,0:0:0:0:
256,192,238616,5,8,0:0:0:0:
148,88,239096,2,0,B|64:108|28:192,1,150,0|8,0:0|0:0,0:0:0:0:
36,252,239816,2,0,B|120:268|156:352,1,150
224,328,240536,2,0,B|264:304|276:260,1,75,8|0,0:0|0:0,0:0:0:0:
328,220,241016,2,0,B|416:228|456:300,1,150,0|8,0:0|0:0,0:0:0:0:
396,344,241736,1,0,0:0:0:0:
500,236,241976,2,0,B|488:152|412:104,1,150,0|8,0:0|0:0,0:0:0:0:
208,52,242936,1,0,0:0:0:0:
72,232,243416,5,8,0:0:0:0:
72,232,243656,2,0,B|96:308|188:348,1,150,4|0,0:0|0:0,0:0:0:0:
190,193,244376,2,0,B|180:232|192:268,1,75,8|0,0:0|0:0,0:0:0:0:
228,124,244856,2,0,B|208:80|160:60,1,75
220,212,245336,2,0,B|242:244|277:258,1,75,8|0,0:0|0:0,0:0:0:0:
189,137,245816,6,0,B|142:124|96:147,1,75
28,260,246296,2,0,B|74:272|120:249,1,75,8|0,0:0|0:0,0:0:0:0:
168,292,246776,1,0,0:0:0:0:
232,332,247016,1,0,0:0:0:0:
308,336,247256,1,8,0:0:0:0:
376,308,247496,1,0,0:0:0:0:
320,256,247736,6,0,B|252:220|244:128,1,150,0|8,0:0|0:0,0:0:0:0:
300,84,248456,1,0,0:0:0:0:
176,168,248696,2,0,B|88:180|48:264,1,150,0|8,0:0|0:0,0:0:0:0:
8,192,249416,1,0,0:0:0:0:
104,308,249656,2,0,B|160:360|260:344,1,150,0|8,0:0|0:0,0:0:0:0:
224,272,250376,1,0,0:0:0:0:
256,124,250616,6,0,B|304:132|332:160,1,75
288,220,251096,2,0,B|324:244|332:284,1,75,8|0,0:0|0:0,0:0:0:0:
380,336,251576,2,0,B|456:312|476:224|476:224|436:200|456:144,1,225,4|0,0:0|0:0,0:0:0:0:
416,96,252536,2,0,B|368:160|272:164,1,150,4|8,0:0|0:0,0:0:0:0:
228,116,253256,1,0,0:0:0:0:
152,120,253496,2,0,B|136:160|88:176,1,75,4|0,0:0|0:0,0:0:0:0:
64,236,253976,1,8,0:0:0:0:
64,236,254216,2,0,B|96:304|184:328,2,150,4|0|0,0:0|0:0|0:0,0:0:0:0:
208,192,255416,6,0,B|176:120|92:92,1,150,4|8,0:0|0:0,0:0:0:0:
248,92,256136,2,0,B|300:160|408:152,2,150,0|4|0,0:0|0:0|0:0,0:0:0:0:
256,240,257336,2,0,B|268:280|300:304,1,75,4|0,0:0|0:0,0:0:0:0:
348,248,257816,2,0,B|396:252|420:228,1,75,8|0,0:0|0:0,0:0:0:0:
368,172,258296,1,4,0:0:0:0:
312,124,258536,1,0,0:0:0:0:
240,112,258776,1,8,0:0:0:0:
168,124,259016,2,0,B|136:160,2,37.5,0|0|2,0:0|0:0|0:0,0:0:0:0:
256,192,259376,12,0,263096,0:0:0:0:
