osu file format v12

[General]
AudioFilename: 16.mp3
AudioLeadIn: 0
PreviewTime: 58865
Countdown: 0
SampleSet: Soft
StackLeniency: 0.7
Mode: 0
LetterboxInBreaks: 1

[Editor]
DistanceSpacing: 1
BeatDivisor: 4
GridSize: 4

[Metadata]
Title:1/6
TitleUnicode:1/6
Artist:VocaliodP
ArtistUnicode:ぼーかりおどP
Creator:Nymph
Version:Insane
Source:
Tags:out of gravity No_Gu tutuhaha vocaloid hatsune miku OdoP
BeatmapID:182613
BeatmapSetID:61207

[Difficulty]
HPDrainRate:7
CircleSize:4
OverallDifficulty:7
ApproachRate:8
SliderMultiplier:2.2
SliderTickRate:2

[Events]
//Background and Video events
0,0,"dfbb114c3cd572c9d62afc2a.jpg",0,0
//Break Periods
2,94336,97226
2,163456,174026
//Storyboard Layer 0 (Background)
//Storyboard Layer 1 (Fail)
//Storyboard Layer 2 (Pass)
//Storyboard Layer 3 (Foreground)
//Storyboard Sound Samples
//Background Colour Transformations
3,100,163,162,255

[TimingPoints]
56,480,4,2,1,70,1,0
3896,-133.333333333333,4,2,1,70,0,0
13496,-100,4,2,1,70,0,0
28856,-100,4,2,1,70,0,0
59576,-100,4,2,1,70,0,1
90296,-100,4,2,1,70,0,0
94136,-100,4,2,1,15,0,0
94376,-100,4,2,1,70,0,0
128696,-100,4,2,1,70,0,1
159416,-100,4,2,1,70,0,0
174776,-200,4,2,1,70,0,0
181496,-100,4,2,1,70,0,0
190136,-100,4,2,1,70,0,1
205376,-100,4,2,1,70,0,0
205496,-100,4,2,1,70,0,1
236216,-100,4,2,1,70,0,0
259256,-100,4,2,1,10,0,0

[Colours]
Combo1 : 255,106,255
Combo2 : 255,149,98
Combo3 : 117,255,255
Combo4 : 158,62,255

[HitObjects]
256,40,3896,2,0,B|228:124|136:140,1,165.000006294251,2|0,0:0|0:0,0:0:0:0:
68,96,4616,1,0,0:0:0:0:
60,180,4856,2,0,B|20:252,1,82.5000031471254
60,348,5336,2,0,B|100:276,1,82.5000031471254
180,256,5816,5,2,0:0:0:0:
244,307,6056,2,0,B|272:339|316:347,1,82.5000031471254
396,350,6536,1,0,0:0:0:0:
461,299,6776,2,0,B|461:215,1,82.5000031471254
408,61,7256,2,0,B|408:144,1,82.5000031471254
320,88,7736,6,0,B|292:168|196:188,1,165.000006294251,2|0,0:0|0:0,0:0:0:0:
132,140,8456,2,0,B|108:176|124:220,2,82.5000031471254
132,56,9176,1,0,0:0:0:0:
60,100,9416,1,0,0:0:0:0:
12,256,9656,6,0,B|24:296|64:316,1,82.5000031471254,2|0,0:0|0:0,0:0:0:0:
192,348,10136,2,0,B|180:308|140:288,1,82.5000031471254
216,224,10616,2,0,B|256:244|268:284,1,82.5000031471254
380,352,11096,2,0,B|400:312|440:300,1,82.5000031471254
500,180,11576,6,0,B|460:160|448:120,1,82.5000031471254,2|0,0:0|0:0,0:0:0:0:
328,60,12056,2,0,B|308:100|268:112,1,82.5000031471254
360,216,12536,1,2,0:0:0:0:
360,216,12656,1,0,0:0:0:0:
488,320,13016,1,4,0:0:0:0:
488,320,13136,1,0,0:0:0:0:
360,216,13496,6,0,B|356:268|320:316,1,110,4|0,0:0|0:0,0:0:0:0:
288,360,13856,1,0,0:0:0:0:
288,360,13976,1,8,0:0:0:0:
196,304,14216,1,0,0:0:0:0:
88,312,14456,2,0,B|84:260|48:212,1,110
16,168,14816,1,0,0:0:0:0:
16,168,14936,1,8,0:0:0:0:
56,68,15176,1,0,0:0:0:0:
160,32,15416,6,0,B|188:84|248:96,1,110
336,36,15896,1,8,0:0:0:0:
388,132,16136,1,0,0:0:0:0:
420,360,16376,1,0,0:0:0:0:
368,264,16616,1,0,0:0:0:0:
292,188,16856,2,0,B|233:184|193:227,1,110,8|0,0:0|0:0,0:0:0:0:
56,296,17336,5,0,0:0:0:0:
144,364,17576,1,0,0:0:0:0:
144,364,17696,1,0,0:0:0:0:
144,364,17816,1,8,0:0:0:0:
256,364,18056,1,0,0:0:0:0:
416,260,18296,1,0,0:0:0:0:
484,172,18536,1,0,0:0:0:0:
484,172,18656,1,0,0:0:0:0:
484,172,18776,1,8,0:0:0:0:
484,60,19016,1,0,0:0:0:0:
384,16,19256,6,0,B|332:36|308:92,1,110
216,28,19736,2,0,B|180:71|188:131,1,110,8|0,0:0|0:0,0:0:0:0:
80,104,20216,2,0,B|71:159|107:207,1,110,4|0,0:0|0:0,0:0:0:0:
8,260,20696,2,0,B|28:312|84:336,1,110,12|0,0:0|0:0,0:0:0:0:
248,220,21176,5,4,0:0:0:0:
300,316,21416,1,0,0:0:0:0:
300,316,21536,1,0,0:0:0:0:
300,316,21656,2,0,B|352:332|412:324,1,110,8|0,0:0|0:0,0:0:0:0:
468,232,22136,1,0,0:0:0:0:
416,136,22376,1,0,0:0:0:0:
416,136,22496,1,0,0:0:0:0:
416,136,22616,2,0,B|364:120|304:128,1,110,8|0,0:0|0:0,0:0:0:0:
220,60,23096,6,0,B|168:44|108:52,1,110
56,148,23576,2,0,B|108:164|168:156,1,110,8|0,0:0|0:0,0:0:0:0:
256,32,24056,2,0,B|204:16|144:24,1,110
32,192,24536,2,0,B|84:208|144:200,1,110,8|0,0:0|0:0,0:0:0:0:
250,185,25016,5,0,0:0:0:0:
239,294,25256,1,0,0:0:0:0:
239,294,25376,1,0,0:0:0:0:
239,294,25496,2,0,B|193:329|140:341,1,110,8|0,0:0|0:0,0:0:0:0:
250,185,25976,1,0,0:0:0:0:
342,252,26216,1,0,0:0:0:0:
342,252,26336,1,0,0:0:0:0:
342,252,26456,2,0,B|387:287|440:299,1,110,8|0,0:0|0:0,0:0:0:0:
499,205,26936,6,0,B|515:153|507:93,1,110
413,37,27416,2,0,B|397:89|405:149,1,110,8|0,0:0|0:0,0:0:0:0:
296,169,27896,2,0,B|312:117|304:57,1,110
149,1,28376,2,0,B|133:53|141:113,1,110,8|0,0:0|0:0,0:0:0:0:
159,218,28856,5,4,0:0:0:0:
115,319,29096,2,0,B|72:356|13:359,2,110,0|8|0,0:0|0:0|0:0,0:0:0:0:
159,218,29816,1,2,0:0:0:0:
225,305,30056,1,0,0:0:0:0:
293,218,30296,1,8,0:0:0:0:
359,305,30536,1,0,0:0:0:0:
424,216,30776,5,2,0:0:0:0:
424,216,31016,2,0,B|427:274|464:317,2,110,0|8|0,0:0|0:0|0:0,0:0:0:0:
432,56,31736,1,2,0:0:0:0:
353,132,31976,1,0,0:0:0:0:
353,132,32096,1,0,0:0:0:0:
353,132,32216,1,8,0:0:0:0:
266,64,32456,1,0,0:0:0:0:
137,127,32696,6,0,B|81:140|25:129,2,110,2|0|8,0:0|0:0|0:0,0:0:0:0:
223,194,33416,1,0,0:0:0:0:
147,273,33656,2,0,B|91:260|35:271,2,110,2|0|8,0:0|0:0|0:0,0:0:0:0:
223,194,34376,1,0,0:0:0:0:
279,288,34616,6,0,B|288:342|344:372,1,110,2|0,0:0|0:0,0:0:0:0:
380,225,35096,2,0,B|414:267|478:265,1,110,8|0,0:0|0:0,0:0:0:0:
493,156,35576,2,0,B|458:113|394:115,1,110,2|0,0:0|0:0,0:0:0:0:
395,115,35936,1,0,0:0:0:0:
395,115,36056,1,8,0:0:0:0:
295,161,36296,1,0,0:0:0:0:
207,40,36536,6,0,B|152:28|97:36,1,110,2|0,0:0|0:0,0:0:0:0:
27,141,37016,2,0,B|82:153|137:145,1,110,8|0,0:0|0:0,0:0:0:0:
185,244,37496,2,0,B|163:295|160:351,2,110,2|0|8,0:0|0:0|0:0,0:0:0:0:
251,156,38216,1,0,0:0:0:0:
359,173,38456,6,0,B|380:121|383:65,2,110,2|0|8,0:0|0:0|0:0,0:0:0:0:
251,156,39176,1,0,0:0:0:0:
298,255,39416,2,0,B|337:331|430:345,1,165,2|0,0:0|0:0,0:0:0:0:
428,344,39896,2,0,B|382:375|320:375,1,110,8|0,0:0|0:0,0:0:0:0:
192,292,40376,5,2,0:0:0:0:
192,292,40616,1,0,0:0:0:0:
47,343,40856,1,8,0:0:0:0:
47,343,41096,1,0,0:0:0:0:
76,191,41336,1,2,0:0:0:0:
76,191,41576,1,0,0:0:0:0:
192,292,41816,1,8,0:0:0:0:
192,292,42056,1,0,0:0:0:0:
332,356,42296,6,0,B|389:356|430:313,1,110,2|0,0:0|0:0,0:0:0:0:
405,205,42776,2,0,B|454:176|468:118,1,110,8|0,0:0|0:0,0:0:0:0:
407,27,43256,2,0,B|357:55|343:113,1,110,2|0,0:0|0:0,0:0:0:0:
255,47,43736,2,0,B|226:96|243:153,1,110,8|0,0:0|0:0,0:0:0:0:
143,201,44216,5,2,0:0:0:0:
97,32,44456,1,0,0:0:0:0:
4,182,44696,1,8,0:0:0:0:
56,316,44936,1,0,0:0:0:0:
143,201,45176,2,0,B|166:252|228:271,1,110,2|0,0:0|0:0,0:0:0:0:
332,289,45656,2,0,B|309:340|247:359,1,110,8|0,0:0|0:0,0:0:0:0:
332,289,46136,6,0,B|355:340|417:359,1,110,2|0,0:0|0:0,0:0:0:0:
496,285,46616,1,8,0:0:0:0:
496,285,46856,1,0,0:0:0:0:
497,98,47096,2,0,B|438:115|415:166,1,110,2|0,0:0|0:0,0:0:0:0:
308,191,47576,1,8,0:0:0:0:
308,191,47816,1,0,0:0:0:0:
352,47,48056,6,0,B|291:49|256:93,1,110,2|0,0:0|0:0,0:0:0:0:
53,79,48536,2,0,B|88:122|150:125,1,110,8|0,0:0|0:0,0:0:0:0:
133,233,49016,2,0,B|89:268|87:329,2,110,2|0|8,0:0|0:0|0:0,0:0:0:0:
236,193,49736,1,0,0:0:0:0:
308,275,49976,6,0,B|332:326|388:347,1,110,2|0,0:0|0:0,0:0:0:0:
491,310,50456,2,0,B|467:259|411:238,1,110,8|0,0:0|0:0,0:0:0:0:
383,68,50936,1,2,0:0:0:0:
329,164,51176,1,0,0:0:0:0:
329,164,51296,1,0,0:0:0:0:
329,164,51416,1,8,0:0:0:0:
220,184,51656,1,0,0:0:0:0:
184,36,51896,6,0,P|128:28|72:36,1,110,2|0,0:0|0:0,0:0:0:0:
16,128,52376,1,8,0:0:0:0:
56,232,52616,1,0,0:0:0:0:
196,292,52856,1,2,0:0:0:0:
156,188,53096,1,0,0:0:0:0:
196,292,53336,2,0,P|232:336|280:356,1,110,8|0,0:0|0:0,0:0:0:0:
116,259,53816,6,0,P|60:268|8:260,2,110,2|0|8,0:0|0:0|0:0,0:0:0:0:
224,196,54536,1,0,0:0:0:0:
178,351,54776,1,2,0:0:0:0:
336,336,55016,1,0,0:0:0:0:
336,336,55136,1,0,0:0:0:0:
336,336,55256,1,8,0:0:0:0:
224,196,55496,1,0,0:0:0:0:
352,68,55736,6,0,B|408:60|464:72,1,110,2|0,0:0|0:0,0:0:0:0:
282,163,56216,2,0,B|338:171|392:160,1,110,8|0,0:0|0:0,0:0:0:0:
148,68,56696,2,0,B|204:60|260:72,1,110,2|0,0:0|0:0,0:0:0:0:
78,163,57176,2,0,B|134:171|187:159,1,110,8|0,0:0|0:0,0:0:0:0:
292,172,57656,5,8,0:0:0:0:
359,289,57896,1,8,0:0:0:0:
242,357,58136,1,8,0:0:0:0:
174,239,58376,1,8,0:0:0:0:
292,172,58616,1,8,0:0:0:0:
36,104,59576,6,0,B|4:148|4:208,1,110,4|0,0:0|0:0,0:0:0:0:
4,264,59936,1,0,0:0:0:0:
4,264,60056,1,8,0:0:0:0:
88,336,60296,1,0,0:0:0:0:
172,264,60536,2,0,P|208:220|256:196,1,110,2|0,0:0|0:0,0:0:0:0:
212,24,61016,2,0,P|256:60|280:108,1,110,8|0,0:0|0:0,0:0:0:0:
424,192,61496,6,0,B|424:248|456:296,1,110,2|0,0:0|0:0,0:0:0:0:
488,340,61856,1,0,0:0:0:0:
488,340,61976,1,8,0:0:0:0:
380,368,62216,1,0,0:0:0:0:
272,368,62456,2,0,B|216:380|160:368,1,110,2|0,0:0|0:0,0:0:0:0:
38,259,62936,2,0,B|92:248|148:260,1,110,8|0,0:0|0:0,0:0:0:0:
24,43,63416,6,0,B|20:100|52:148,1,110,2|0,0:0|0:0,0:0:0:0:
100,172,63776,1,0,0:0:0:0:
100,172,63896,1,8,0:0:0:0:
132,68,64136,1,0,0:0:0:0:
236,36,64376,2,0,B|283:68|340:64,1,110,2|0,0:0|0:0,0:0:0:0:
436,12,64856,1,8,0:0:0:0:
484,112,65096,1,0,0:0:0:0:
404,188,65336,6,0,B|407:244|375:292,1,110,2|0,0:0|0:0,0:0:0:0:
348,340,65696,1,0,0:0:0:0:
348,340,65816,1,8,0:0:0:0:
492,300,66056,1,0,0:0:0:0:
256,368,66296,2,0,B|211:391|149:369|149:369|100:327|98:275,1,220,4|12,0:0|0:0,0:0:0:0:
220,140,67256,6,0,B|293:120|293:120|337:100|350:55,1,165,4|0,0:0|0:0,0:0:0:0:
376,4,67736,2,0,B|404:52|464:72,1,110,8|0,0:0|0:0,0:0:0:0:
404,168,68216,1,2,0:0:0:0:
468,256,68456,1,0,0:0:0:0:
468,256,68576,1,0,0:0:0:0:
468,256,68696,2,0,B|424:288|364:280,1,110,8|0,0:0|0:0,0:0:0:0:
216,312,69176,6,0,B|156:304|112:336,2,110,2|0|8,0:0|0:0|0:0,0:0:0:0:
300,164,69896,1,0,0:0:0:0:
320,272,70136,1,2,0:0:0:0:
320,272,70256,1,0,0:0:0:0:
320,272,70376,1,0,0:0:0:0:
424,240,70616,2,0,B|472:280|476:336,1,110,8|0,0:0|0:0,0:0:0:0:
424,144,71096,6,0,B|384:144|344:124|344:124|320:84|320:44,1,165,2|0,0:0|0:0,0:0:0:0:
268,24,71576,2,0,B|216:88|120:84,1,165,8|0,0:0|0:0,0:0:0:0:
68,84,72056,2,0,B|72:144|40:192,1,110,2|0,0:0|0:0,0:0:0:0:
24,240,72416,1,0,0:0:0:0:
24,240,72536,1,8,0:0:0:0:
180,192,72776,1,0,0:0:0:0:
136,328,73016,5,2,0:0:0:0:
264,364,73256,1,0,0:0:0:0:
392,340,73496,1,8,0:0:0:0:
470,231,73736,1,0,0:0:0:0:
460,12,73976,6,0,B|456:52|456:52|468:84|468:84|461:119,1,110,2|0,0:0|0:0,0:0:0:0:
360,232,74456,2,0,B|356:272|356:272|368:304|368:304|360:348,1,110,8|0,0:0|0:0,0:0:0:0:
184,328,74936,6,0,B|148:336|116:328|116:328|72:344,2,110,4|0|8,0:0|0:0|0:0,0:0:0:0:
328,276,75656,2,0,B|364:268|396:276|396:276|440:260,2,110,0|2|0,0:0|0:0|0:0,0:0:0:0:
256,172,76376,1,8,0:0:0:0:
256,64,76616,1,0,0:0:0:0:
256,172,76856,5,2,0:0:0:0:
180,252,77096,1,0,0:0:0:0:
180,252,77216,1,0,0:0:0:0:
180,252,77336,2,0,B|168:308|112:336,1,110,8|0,0:0|0:0,0:0:0:0:
60,216,77816,2,0,B|72:160|126:132,1,110,2|0,0:0|0:0,0:0:0:0:
168,32,78296,1,8,0:0:0:0:
256,96,78536,1,0,0:0:0:0:
344,32,78776,5,2,0:0:0:0:
432,96,79016,1,0,0:0:0:0:
344,164,79256,1,8,0:0:0:0:
432,96,79496,1,0,0:0:0:0:
472,200,79736,2,0,B|472:256|424:296,1,110,2|0,0:0|0:0,0:0:0:0:
272,351,80216,2,0,B|272:295|320:256,1,110,8|0,0:0|0:0,0:0:0:0:
164,356,80696,5,2,0:0:0:0:
60,320,80936,1,0,0:0:0:0:
60,320,81056,1,0,0:0:0:0:
60,320,81176,1,8,0:0:0:0:
16,220,81416,1,0,0:0:0:0:
180,196,81656,2,0,B|191:145|155:92|155:92|100:54|51:65,1,220,4|12,0:0|0:0,0:0:0:0:
268,28,82616,6,0,B|316:72|360:83|360:83|416:84,1,165,4|0,0:0|0:0,0:0:0:0:
472,84,83096,1,8,0:0:0:0:
500,192,83336,1,0,0:0:0:0:
472,300,83576,2,0,B|416:300|416:300|372:312|324:356,1,165,4|0,0:0|0:0,0:0:0:0:
268,360,84056,1,8,0:0:0:0:
192,240,84296,1,0,0:0:0:0:
88,336,84536,5,4,0:0:0:0:
192,240,84776,1,0,0:0:0:0:
60,188,85016,2,0,B|48:132|60:76,1,110,8|0,0:0|0:0,0:0:0:0:
60,24,85376,1,0,0:0:0:0:
60,24,85496,1,6,0:0:0:0:
156,76,85736,1,0,0:0:0:0:
264,76,85976,2,0,B|320:76|364:36,2,110,8|0|4,0:0|0:0|0:0,0:0:0:0:
208,172,86696,5,0,0:0:0:0:
208,172,86936,2,0,B|172:216|108:224,1,110,8|0,0:0|0:0,0:0:0:0:
256,308,87416,1,2,0:0:0:0:
256,308,87656,1,0,0:0:0:0:
256,308,87896,2,0,B|292:352|356:360,1,110,8|0,0:0|0:0,0:0:0:0:
488,244,88376,5,2,0:0:0:0:
488,244,88616,1,0,0:0:0:0:
488,244,88856,2,0,B|452:200|388:192,1,110,8|0,0:0|0:0,0:0:0:0:
256,24,89336,1,2,0:0:0:0:
256,24,89576,1,0,0:0:0:0:
256,24,89816,2,0,B|212:60|205:119,1,110,8|0,0:0|0:0,0:0:0:0:
256,192,90296,12,0,94136,0:0:0:0:
160,36,97976,6,0,P|152:88|112:128,1,110,2|0,0:0|0:0,0:0:0:0:
4,152,98456,2,0,P|44:192|52:244,1,110
188,212,98936,1,2,0:0:0:0:
140,312,99176,1,0,0:0:0:0:
32,332,99416,1,0,0:0:0:0:
140,312,99656,1,0,0:0:0:0:
244,344,99896,6,0,B|288:376|348:376,1,110,2|0,0:0|0:0,0:0:0:0:
480,300,100376,2,0,B|436:268|376:268,1,110
376,156,100856,1,2,0:0:0:0:
460,84,101096,1,0,0:0:0:0:
380,8,101336,1,0,0:0:0:0:
271,28,101576,1,0,0:0:0:0:
256,128,101816,6,0,B|232:184|172:192,1,110,2|0,0:0|0:0,0:0:0:0:
76,136,102296,2,0,B|100:80|160:72,2,110,0|0|2,0:0|0:0|0:0,0:0:0:0:
8,220,103016,1,0,0:0:0:0:
108,264,103256,2,0,B|84:320|24:328,2,110,0|0|2,0:0|0:0|0:0,0:0:0:0:
200,204,103976,5,0,0:0:0:0:
220,312,104216,1,0,0:0:0:0:
324,348,104456,1,0,0:0:0:0:
488,328,104696,2,0,B|488:272,1,55,4|0,0:0|0:0,0:0:0:0:
424,32,105176,2,0,B|424:88,1,55,4|0,0:0|0:0,0:0:0:0:
256,80,105656,5,4,0:0:0:0:
256,192,105896,1,0,0:0:0:0:
256,192,106016,1,0,0:0:0:0:
256,192,106136,2,0,P|256:248|232:296,1,110,8|0,0:0|0:0,0:0:0:0:
44,340,106616,1,2,0:0:0:0:
44,232,106856,1,0,0:0:0:0:
44,232,106976,1,0,0:0:0:0:
44,232,107096,2,0,P|44:176|68:128,1,110,8|0,0:0|0:0,0:0:0:0:
200,4,107576,5,2,0:0:0:0:
196,112,107816,1,0,0:0:0:0:
276,188,108056,1,8,0:0:0:0:
276,188,108296,2,0,B|332:188|376:152|376:112|376:112|352:68|376:36,1,220
480,72,109016,2,0,B|468:116|468:116|484:144|464:176,1,110,8|0,0:0|0:0,0:0:0:0:
412,272,109496,5,2,0:0:0:0:
412,272,109736,2,0,B|468:288|488:344,2,110,0|8|0,0:0|0:0|0:0,0:0:0:0:
320,332,110456,1,2,0:0:0:0:
320,332,110696,2,0,B|268:344|208:332,1,110,0|8,0:0|0:0,0:0:0:0:
100,332,111176,1,0,0:0:0:0:
36,244,111416,6,0,B|88:232|148:244,1,110,2|0,0:0|0:0,0:0:0:0:
140,132,111896,2,0,B|192:144|252:132,1,110,8|0,0:0|0:0,0:0:0:0:
320,48,112376,1,2,0:0:0:0:
424,88,112616,1,0,0:0:0:0:
424,88,112736,1,0,0:0:0:0:
424,88,112856,1,8,0:0:0:0:
424,196,113096,1,0,0:0:0:0:
467,292,113336,1,2,0:0:0:0:
369,330,113576,6,0,B|428:338|467:293,1,110,0|8,0:0|0:0,0:0:0:0:
340,240,114056,1,0,0:0:0:0:
240,284,114296,2,0,B|232:343|277:382,2,110,2|0|8,0:0|0:0|0:0,0:0:0:0:
260,176,115016,1,0,0:0:0:0:
152,152,115256,2,0,B|160:93|115:54,2,110,2|0|8,0:0|0:0|0:0,0:0:0:0:
132,260,115976,1,0,0:0:0:0:
312,92,116216,2,0,B|368:80|400:32,1,110,2|0,0:0|0:0,0:0:0:0:
424,140,116696,2,0,B|432:196|484:228,1,110,8|0,0:0|0:0,0:0:0:0:
484,340,117176,5,2,0:0:0:0:
392,280,117416,1,0,0:0:0:0:
392,280,117656,2,0,B|364:328|300:336,1,110,8|0,0:0|0:0,0:0:0:0:
117,335,118136,2,0,B|145:287|208:280,2,110,2|0|8,0:0|0:0|0:0,0:0:0:0:
24,280,118856,1,0,0:0:0:0:
36,113,119096,6,0,B|52:172|100:200,1,110,2|0,0:0|0:0,0:0:0:0:
100,32,119576,2,0,B|142:74|198:74,1,110,8|0,0:0|0:0,0:0:0:0:
313,74,120056,2,0,B|369:74|412:32,1,110,2|0,0:0|0:0,0:0:0:0:
411,32,120416,1,0,0:0:0:0:
411,32,120536,1,8,0:0:0:0:
472,124,120776,1,0,0:0:0:0:
472,232,121016,6,0,B|488:284|472:340,1,110,2|0,0:0|0:0,0:0:0:0:
471,340,121376,1,0,0:0:0:0:
471,340,121496,1,8,0:0:0:0:
356,180,121736,1,0,0:0:0:0:
356,180,121976,2,0,B|340:232|356:288,1,110,2|0,0:0|0:0,0:0:0:0:
356,288,122336,1,0,0:0:0:0:
356,288,122456,1,8,0:0:0:0:
252,324,122696,1,0,0:0:0:0:
252,324,122936,6,0,B|208:360|148:356,1,110,2|0,0:0|0:0,0:0:0:0:
52,308,123416,2,0,B|16:264|20:204,1,110,8|0,0:0|0:0,0:0:0:0:
80,112,123896,2,0,B|124:76|184:80,1,110,2|0,0:0|0:0,0:0:0:0:
280,132,124376,2,0,B|316:176|312:236,2,110,8|0|2,0:0|0:0|0:0,0:0:0:0:
256,24,125096,5,0,0:0:0:0:
132,72,125336,1,8,0:0:0:0:
76,192,125576,1,0,0:0:0:0:
132,312,125816,1,2,0:0:0:0:
256,360,126056,1,0,0:0:0:0:
380,312,126296,1,8,0:0:0:0:
436,192,126536,1,0,0:0:0:0:
256,100,126776,5,8,0:0:0:0:
201,266,127016,1,8,0:0:0:0:
343,163,127256,1,8,0:0:0:0:
168,163,127496,1,8,0:0:0:0:
310,266,127736,1,8,0:0:0:0:
256,100,127976,2,0,B|268:44|268:44|220:12,2,110,0|8|0,0:0|0:0|0:0,0:0:0:0:
256,252,128696,6,0,B|240:304|180:328,1,110,4|0,0:0|0:0,0:0:0:0:
128,344,129056,1,0,0:0:0:0:
128,344,129176,1,8,0:0:0:0:
28,296,129416,1,0,0:0:0:0:
84,204,129656,2,0,B|72:148|8:128,2,110,2|0|8,0:0|0:0|0:0,0:0:0:0:
132,104,130376,1,0,0:0:0:0:
200,20,130616,6,0,B|256:40|308:20,1,110,2|0,0:0|0:0,0:0:0:0:
364,20,130976,1,0,0:0:0:0:
364,20,131096,1,8,0:0:0:0:
496,144,131336,1,0,0:0:0:0:
388,144,131576,2,0,B|388:204|444:232,2,110,2|0|8,0:0|0:0|0:0,0:0:0:0:
284,104,132296,1,0,0:0:0:0:
208,180,132536,6,0,B|202:239|236:284,1,110,2|0,0:0|0:0,0:0:0:0:
268,328,132896,1,0,0:0:0:0:
268,328,133016,1,8,0:0:0:0:
376,300,133256,2,0,B|432:300|472:348,2,110,0|2|0,0:0|0:0|0:0,0:0:0:0:
364,128,133976,1,8,0:0:0:0:
300,220,134216,1,0,0:0:0:0:
268,328,134456,6,0,B|212:344|160:328,1,110,2|0,0:0|0:0,0:0:0:0:
152,300,134816,1,0,0:0:0:0:
148,272,134936,2,0,B|92:256|40:272,1,110,8|0,0:0|0:0,0:0:0:0:
8,112,135416,1,4,0:0:0:0:
256,24,135896,1,12,0:0:0:0:
504,112,136376,6,0,B|504:168|448:200,1,110,4|0,0:0|0:0,0:0:0:0:
400,228,136736,1,0,0:0:0:0:
400,228,136856,2,0,B|448:260|456:320,1,110,8|0,0:0|0:0,0:0:0:0:
348,304,137336,1,2,0:0:0:0:
256,364,137576,1,0,0:0:0:0:
164,304,137816,1,8,0:0:0:0:
72,364,138056,1,0,0:0:0:0:
72,364,138296,6,0,B|28:328|28:268,1,110,2|0,0:0|0:0,0:0:0:0:
28,212,138656,1,0,0:0:0:0:
28,212,138776,2,0,B|28:152|72:116,1,110,8|0,0:0|0:0,0:0:0:0:
160,48,139256,2,0,B|132:0|68:0,2,110,2|0|8,0:0|0:0|0:0,0:0:0:0:
256,100,139976,1,0,0:0:0:0:
352,48,140216,5,2,0:0:0:0:
472,308,140696,1,8,0:0:0:0:
360,60,141176,1,2,0:0:0:0:
256,100,141416,1,0,0:0:0:0:
256,208,141656,1,8,0:0:0:0:
152,244,141896,1,0,0:0:0:0:
48,280,142136,6,0,B|104:292|132:344,1,110,2|0,0:0|0:0,0:0:0:0:
184,364,142496,1,0,0:0:0:0:
184,364,142616,2,0,B|228:332|288:332,1,110,8|0,0:0|0:0,0:0:0:0:
472,196,143096,1,2,0:0:0:0:
488,304,143336,1,0,0:0:0:0:
364,256,143576,1,8,0:0:0:0:
380,364,143816,1,0,0:0:0:0:
180,364,144056,6,0,B|128:376|68:364,2,110,4|0|8,0:0|0:0|0:0,0:0:0:0:
128,268,144776,2,0,B|76:256|16:268,2,110,0|2|0,0:0|0:0|0:0,0:0:0:0:
204,188,145496,1,8,0:0:0:0:
204,188,145736,1,0,0:0:0:0:
280,32,145976,6,0,B|336:52|356:108,1,110,2|0,0:0|0:0,0:0:0:0:
384,108,146336,1,0,0:0:0:0:
412,108,146456,2,0,B|450:153|450:211,1,110,8|0,0:0|0:0,0:0:0:0:
404,360,146936,2,0,B|365:314|365:256,1,110,2|0,0:0|0:0,0:0:0:0:
256,280,147416,1,8,0:0:0:0:
256,280,147656,1,0,0:0:0:0:
152,312,147896,6,0,B|96:311|51:350,2,110,2|0|8,0:0|0:0|0:0,0:0:0:0:
360,312,148616,2,0,B|415:311|460:350,2,110,0|2|0,0:0|0:0|0:0,0:0:0:0:
256,272,149336,2,0,B|236:232|276:204|256:164,1,110,8|0,0:0|0:0,0:0:0:0:
256,56,149816,5,2,0:0:0:0:
172,128,150056,1,0,0:0:0:0:
172,128,150176,1,0,0:0:0:0:
172,128,150296,1,8,0:0:0:0:
340,128,150536,1,0,0:0:0:0:
256,8,150776,1,4,0:0:0:0:
256,344,151256,1,12,0:0:0:0:
256,124,151736,6,0,B|228:208|132:216,1,165,4|0,0:0|0:0,0:0:0:0:
76,216,152216,2,0,B|20:248|20:304,1,110,8|0,0:0|0:0,0:0:0:0:
112,364,152696,1,4,0:0:0:0:
220,364,152936,1,0,0:0:0:0:
316,312,153176,6,0,B|372:316|412:360,2,110,8|0|4,0:0|0:0|0:0,0:0:0:0:
256,192,153896,1,0,0:0:0:0:
316,72,154136,2,0,B|372:68|412:24,2,110,8|0|4,0:0|0:0|0:0,0:0:0:0:
256,192,154856,1,0,0:0:0:0:
256,192,155096,2,0,B|144:192,1,110,8|0,0:0|0:0,0:0:0:0:
16,240,155576,6,0,B|60:352|192:352,1,220,4|8,0:0|0:0,0:0:0:0:
256,248,156296,1,0,0:0:0:0:
324,352,156536,2,0,B|453:353|497:241,1,220,2|8,0:0|0:0,0:0:0:0:
384,168,157256,1,0,0:0:0:0:
340,40,157496,2,0,P|256:100|172:40,1,220,2|8,0:0|0:0,0:0:0:0:
256,204,158216,1,0,0:0:0:0:
256,204,158456,2,0,B|256:316,2,110,2|0|8,0:0|0:0|0:0,0:0:0:0:
256,204,159176,1,0,0:0:0:0:
256,192,159416,12,0,163256,0:0:0:0:
156,44,174776,6,0,B|140:96|84:128,1,110,2|0,0:0|0:0,0:0:0:0:
44,160,175496,1,0,0:0:0:0:
44,216,175736,2,0,B|28:272,1,55
68,304,176216,2,0,B|109:344,1,55
160,360,176696,6,0,B|216:360,1,55,2|0,0:0|0:0,0:0:0:0:
272,360,177176,1,0,0:0:0:0:
272,360,177416,1,0,0:0:0:0:
416,304,177656,2,0,B|444:304|468:320,2,55
384,260,178376,1,0,0:0:0:0:
384,204,178616,6,0,B|396:148|384:92,1,110,2|0,0:0|0:0,0:0:0:0:
364,44,179336,1,0,0:0:0:0:
316,20,179576,2,0,B|292:28|260:28,1,55
208,36,180056,1,0,0:0:0:0:
192,88,180296,2,0,P|164:96|136:100,1,55,0|2,0:0|0:0,0:0:0:0:
96,132,180776,2,0,P|70:135|42:143,1,55
144,328,181496,5,2,0:0:0:0:
368,328,181976,1,2,0:0:0:0:
256,140,182456,5,4,0:0:0:0:
256,140,182696,2,0,B|248:88|256:28,2,110
256,244,183416,2,0,B|264:296|256:356,2,110,2|0|0,0:0|0:0|0:0,0:0:0:0:
160,192,184136,1,0,0:0:0:0:
52,192,184376,5,2,0:0:0:0:
52,192,184616,2,0,B|48:136|0:100,2,110
160,192,185336,2,0,B|164:248|212:284,2,110,2|0|0,0:0|0:0|0:0,0:0:0:0:
108,92,186056,1,0,0:0:0:0:
108,292,186296,5,2,0:0:0:0:
472,192,186776,1,0,0:0:0:0:
40,192,187256,1,2,0:0:0:0:
472,192,187736,1,0,0:0:0:0:
40,192,188216,5,8,0:0:0:0:
148,288,188456,1,8,0:0:0:0:
256,192,188696,1,8,0:0:0:0:
364,96,188936,1,8,0:0:0:0:
472,192,189176,1,8,0:0:0:0:
364,96,189416,1,0,0:0:0:0:
364,288,189656,1,8,0:0:0:0:
364,96,189896,1,0,0:0:0:0:
306,192,190136,6,0,B|250:204|194:192,1,110,4|0,0:0|0:0,0:0:0:0:
39,322,190616,2,0,B|57:268|94:228,1,110,8|0,0:0|0:0,0:0:0:0:
62,25,191096,2,0,B|101:68|118:120,2,110,2|0|8,0:0|0:0|0:0,0:0:0:0:
6,120,191816,1,0,0:0:0:0:
88,193,192056,5,2,0:0:0:0:
6,264,192296,1,0,0:0:0:0:
6,264,192416,1,0,0:0:0:0:
6,264,192536,1,8,0:0:0:0:
88,193,192776,1,0,0:0:0:0:
164,344,193016,2,0,B|220:360|272:344,1,110,2|0,0:0|0:0,0:0:0:0:
324,248,193496,2,0,B|380:232|432:248,1,110,8|0,0:0|0:0,0:0:0:0:
472,208,193856,1,0,0:0:0:0:
460,156,193976,6,0,B|408:172|352:156,1,110,2|0,0:0|0:0,0:0:0:0:
300,60,194456,2,0,B|248:44|192:60,1,110,8|0,0:0|0:0,0:0:0:0:
100,120,194936,2,0,B|40:100|32:40,2,110,2|0|8,0:0|0:0|0:0,0:0:0:0:
184,192,195656,1,0,0:0:0:0:
120,280,195896,6,0,B|112:338|52:358,2,110,2|0|8,0:0|0:0|0:0,0:0:0:0:
184,192,196616,1,0,0:0:0:0:
436,336,196856,1,4,0:0:0:0:
436,48,197336,1,12,0:0:0:0:
328,278,197816,6,0,B|298:324|233:328,1,110,4|0,0:0|0:0,0:0:0:0:
180,328,198176,1,0,0:0:0:0:
180,328,198296,2,0,B|116:331|86:377,1,110,8|0,0:0|0:0,0:0:0:0:
28,284,198776,1,4,0:0:0:0:
28,176,199016,1,0,0:0:0:0:
128,52,199256,1,8,0:0:0:0:
128,160,199496,1,0,0:0:0:0:
176,260,199736,6,0,B|206:306|271:310,1,110,4|0,0:0|0:0,0:0:0:0:
324,310,200096,1,0,0:0:0:0:
324,310,200216,2,0,B|387:313|417:359,1,110,8|0,0:0|0:0,0:0:0:0:
480,268,200696,1,4,0:0:0:0:
504,160,200936,1,0,0:0:0:0:
396,136,201176,1,8,0:0:0:0:
420,28,201416,1,0,0:0:0:0:
208,80,201656,5,4,0:0:0:0:
144,240,202136,1,8,0:0:0:0:
304,304,202616,1,2,0:0:0:0:
368,144,203096,1,8,0:0:0:0:
44,148,203576,5,8,0:0:0:0:
256,196,203816,1,8,0:0:0:0:
44,236,204056,1,8,0:0:0:0:
256,284,204296,1,8,0:0:0:0:
108,192,204536,1,8,0:0:0:0:
256,96,204776,2,0,B|312:64|312:8,2,110,0|8|0,0:0|0:0|0:0,0:0:0:0:
300,280,205496,6,0,B|356:280|388:336,1,110,4|0,0:0|0:0,0:0:0:0:
440,356,205856,1,0,0:0:0:0:
440,356,205976,1,8,0:0:0:0:
444,248,206216,2,0,B|444:192|500:160,1,110,0|2,0:0|0:0,0:0:0:0:
500,48,206696,1,0,0:0:0:0:
392,64,206936,2,0,B|360:120|304:120,1,110,8|0,0:0|0:0,0:0:0:0:
200,152,207416,5,2,0:0:0:0:
140,60,207656,2,0,B|84:60|52:116,2,110,0|8|0,0:0|0:0|0:0,0:0:0:0:
200,152,208376,1,2,0:0:0:0:
142,249,208616,1,0,0:0:0:0:
241,305,208856,1,8,0:0:0:0:
296,207,209096,1,0,0:0:0:0:
32,284,209336,6,0,B|52:336|112:352,1,110,2|0,0:0|0:0,0:0:0:0:
240,304,209816,2,0,B|300:320|320:372,1,110,8|0,0:0|0:0,0:0:0:0:
428,356,210296,1,2,0:0:0:0:
428,248,210536,2,0,B|427:185|472:153,1,110,0|8,0:0|0:0,0:0:0:0:
476,44,211016,1,0,0:0:0:0:
368,24,211256,5,2,0:0:0:0:
364,132,211496,1,0,0:0:0:0:
364,132,211616,1,0,0:0:0:0:
364,132,211736,1,8,0:0:0:0:
476,44,211976,1,0,0:0:0:0:
256,216,212216,1,4,0:0:0:0:
56,48,212696,1,12,0:0:0:0:
56,336,213176,5,4,0:0:0:0:
152,280,213416,1,0,0:0:0:0:
152,280,213536,1,0,0:0:0:0:
152,280,213656,2,0,B|208:292|236:344,1,110,8|0,0:0|0:0,0:0:0:0:
412,264,214136,2,0,B|400:320|348:348,1,110,2|0,0:0|0:0,0:0:0:0:
332,96,214616,2,0,B|360:148|416:160,1,110,8|0,0:0|0:0,0:0:0:0:
160,176,215096,6,0,B|172:120|224:92,2,110,2|0|8,0:0|0:0|0:0,0:0:0:0:
132,32,215816,1,0,0:0:0:0:
48,196,216056,2,0,B|60:252|112:280,2,110,2|0|8,0:0|0:0|0:0,0:0:0:0:
20,88,216776,1,0,0:0:0:0:
0,316,217016,5,2,0:0:0:0:
344,352,217496,1,8,0:0:0:0:
456,352,217736,1,0,0:0:0:0:
344,352,217976,1,2,0:0:0:0:
456,32,218456,1,8,0:0:0:0:
344,32,218696,1,0,0:0:0:0:
456,32,218936,5,2,0:0:0:0:
404,128,219176,1,0,0:0:0:0:
404,128,219296,1,0,0:0:0:0:
404,128,219416,1,8,0:0:0:0:
404,236,219656,1,0,0:0:0:0:
404,128,219896,2,0,B|352:144|296:128,1,110,2|0,0:0|0:0,0:0:0:0:
208,60,220376,2,0,B|156:44|100:60,1,110,8|0,0:0|0:0,0:0:0:0:
52,88,220736,1,0,0:0:0:0:
52,88,220856,5,4,0:0:0:0:
12,188,221096,1,0,0:0:0:0:
92,264,221336,2,0,B|72:320|20:344,2,110,8|0|2,0:0|0:0|0:0,0:0:0:0:
172,188,222056,1,0,0:0:0:0:
248,108,222296,2,0,B|307:103|343:59,2,110,8|0|2,0:0|0:0|0:0,0:0:0:0:
172,188,223016,5,0,0:0:0:0:
248,268,223256,1,8,0:0:0:0:
248,376,223496,1,0,0:0:0:0:
248,268,223736,2,0,B|304:272|344:320,1,110,2|0,0:0|0:0,0:0:0:0:
488,176,224216,2,0,B|456:222|394:233,1,110,8|0,0:0|0:0,0:0:0:0:
300,180,224696,6,0,B|275:129|297:70,1,110,2|0,0:0|0:0,0:0:0:0:
392,20,225176,2,0,B|448:23|488:71,1,110,8|0,0:0|0:0,0:0:0:0:
397,232,225656,2,0,B|456:222|488:176,2,110,2|0|8,0:0|0:0|0:0,0:0:0:0:
336,124,226376,1,0,0:0:0:0:
224,124,226616,6,0,B|184:116|152:132|112:124,1,110,2|0,0:0|0:0,0:0:0:0:
60,124,226976,1,0,0:0:0:0:
60,124,227096,1,8,0:0:0:0:
116,32,227336,1,0,0:0:0:0:
28,288,227576,1,4,0:0:0:0:
256,360,228056,1,12,0:0:0:0:
484,288,228536,5,4,0:0:0:0:
484,180,228776,1,0,0:0:0:0:
484,180,229016,2,0,B|488:124|464:72,2,110,8|0|4,0:0|0:0|0:0,0:0:0:0:
388,232,229736,1,0,0:0:0:0:
484,288,229976,2,0,B|452:332|392:344,2,110,8|0|4,0:0|0:0|0:0,0:0:0:0:
484,180,230696,5,0,0:0:0:0:
452,76,230936,2,0,B|404:48|344:48,1,110,8|0,0:0|0:0,0:0:0:0:
165,48,231416,2,0,B|108:48|60:76,1,110,4|0,0:0|0:0,0:0:0:0:
204,160,231896,2,0,B|224:148|256:144|256:144|288:148|308:160,1,110,8|0,0:0|0:0,0:0:0:0:
347,294,232376,6,0,B|319:338|256:350|256:350|191:338|164:296,2,220,4|8|2,0:0|0:0|0:0,0:0:0:0:
380,188,233576,1,0,0:0:0:0:
476,244,233816,1,8,0:0:0:0:
476,244,234056,2,0,B|480:300|440:344,1,110,0|2,0:0|0:0,0:0:0:0:
92,352,234776,5,8,0:0:0:0:
256,204,235256,2,0,B|248:164|264:136|256:92,2,110,2|0|8,0:0|0:0|0:0,0:0:0:0:
256,204,235976,1,0,0:0:0:0:
256,192,236216,12,0,238136,0:0:0:0:
256,28,238616,5,8,0:0:0:0:
90,316,239096,1,0,0:0:0:0:
422,316,239576,1,8,0:0:0:0:
488,228,239816,1,0,0:0:0:0:
452,124,240056,6,0,B|404:92|348:92,1,110
256,32,240536,2,0,B|199:43|159:82,1,110,8|0,0:0|0:0,0:0:0:0:
52,60,241016,2,0,B|20:108|20:163,1,110
104,232,241496,2,0,B|115:288|154:328,1,110,8|0,0:0|0:0,0:0:0:0:
256,368,241976,5,0,0:0:0:0:
488,192,242456,1,8,0:0:0:0:
256,368,242936,1,0,0:0:0:0:
24,192,243416,1,8,0:0:0:0:
68,92,243656,1,0,0:0:0:0:
160,32,243896,6,0,B|208:68|216:124,1,110,4|0,0:0|0:0,0:0:0:0:
352,32,244376,2,0,B|344:88|296:124,1,110,8|0,0:0|0:0,0:0:0:0:
472,104,244856,2,0,B|437:148|377:155,1,110
472,280,245336,2,0,B|437:235|377:228,1,110,8|0,0:0|0:0,0:0:0:0:
352,352,245816,6,0,B|344:296|296:260,1,110
160,352,246296,2,0,B|168:296|216:260,1,110,8|0,0:0|0:0,0:0:0:0:
40,280,246776,2,0,B|74:235|134:228,1,110
40,104,247256,2,0,B|74:148|134:155,1,110,8|0,0:0|0:0,0:0:0:0:
256,192,247736,5,0,0:0:0:0:
432,104,248216,1,8,0:0:0:0:
476,192,248456,1,0,0:0:0:0:
432,280,248696,1,0,0:0:0:0:
80,280,249176,1,8,0:0:0:0:
36,192,249416,1,0,0:0:0:0:
80,104,249656,6,0,B|112:56|172:44,1,110
232,120,250136,2,0,B|292:108|339:142,1,110,8|0,0:0|0:0,0:0:0:0:
404,68,250616,2,0,B|452:100|464:159,1,110
380,212,251096,2,0,B|376:269|330:309,1,110,8|0,0:0|0:0,0:0:0:0:
420,352,251576,5,4,0:0:0:0:
92,352,252056,1,8,0:0:0:0:
420,352,252536,1,2,0:0:0:0:
92,352,253016,1,8,0:0:0:0:
12,292,253256,1,0,0:0:0:0:
64,208,253496,6,0,B|64:152|8:112,2,110,4|0|8,0:0|0:0|0:0,0:0:0:0:
64,32,254216,1,0,0:0:0:0:
211,148,254456,2,0,B|160:112|160:56,2,110,4|0|8,0:0|0:0|0:0,0:0:0:0:
160,236,255176,1,0,0:0:0:0:
212,320,255416,5,4,0:0:0:0:
460,360,255896,2,0,B|480:308|460:252,1,110,8|0,0:0|0:0,0:0:0:0:
376,92,256376,2,0,B|356:144|376:200,1,110,4|0,0:0|0:0,0:0:0:0:
224,28,256856,2,0,B|232:83|277:121,1,110,8|0,0:0|0:0,0:0:0:0:
56,56,257336,6,0,B|91:99|149:110,1,110,4|0,0:0|0:0,0:0:0:0:
0,200,257816,2,0,B|51:220|107:200,1,110,8|0,0:0|0:0,0:0:0:0:
72,356,258296,2,0,B|127:347|165:302,1,110,4|0,0:0|0:0,0:0:0:0:
440,356,258776,2,0,B|404:312|346:302,1,110,8|0,0:0|0:0,0:0:0:0:
256,192,259256,12,0,263096,0:0:0:0:
