osu file format v9

[General]
AudioFilename: VitasStar.mp3
AudioLeadIn: 0
PreviewTime: 84008
Countdown: 0
SampleSet: Soft
StackLeniency: 0.7
Mode: 0
LetterboxInBreaks: 1

[Editor]
DistanceSpacing: 0.8
BeatDivisor: 2
GridSize: 8

[Metadata]
Title:The Star
Artist:Vitas
Creator:Breeze
Version:Normal
Source:
Tags:Russian mama vitalii vladasovich grachev zvezda

[Difficulty]
HPDrainRate:3
CircleSize:3
OverallDifficulty:4
ApproachRate:4
SliderMultiplier:1
SliderTickRate:1

[Events]
//Background and Video events
0,0,"BG.jpg"
//Break Periods
2,114207,125731
2,168990,170948
//Storyboard Layer 0 (Background)
//Storyboard Layer 1 (Fail)
//Storyboard Layer 2 (Pass)
//Storyboard Layer 3 (Foreground)
//Storyboard Sound Samples
//Background Colour Transformations
3,100,255,255,255

[TimingPoints]
95,434.782608695652,4,2,2,29,1,0
82051,-100,4,2,0,10,0,0
85312,-100,4,1,0,55,0,1
85529,-100,4,2,1,56,0,0
99225,-100,4,1,0,56,0,1
99442,-100,4,2,1,56,0,0
112921,-100,4,2,2,30,0,0
129877,-100,4,2,0,11,0,0
133790,-100,4,2,2,30,0,0
136834,-100,4,2,0,10,0,0
140529,-100,4,2,2,30,0,0
159442,-100,4,2,2,10,0,0
160747,-100,4,2,2,30,0,0
168790,-100,4,1,0,20,0,0
172268,-100,4,1,0,55,0,1
172486,-100,4,2,1,55,0,0
186181,-100,4,1,0,55,0,1
186399,-100,4,2,1,55,0,0
204008,-100,4,2,0,5,0,0

[Colours]
Combo1 : 204,204,255
Combo2 : 153,204,255
Combo3 : 200,200,200
SliderBorder : 120,120,120

[HitObjects]
48,192,27921,2,0,B|192:256|240:144|448:192,1,400,4|0
336,64,30529,1,8
256,32,30964,5,0
192,80,31399,2,0,B|80:96|112:240,1,200,0|8
165,290,32703,1,0
240,320,33138,2,0,B|448:320,1,200,0|8
464,160,34877,6,0,B|465:27|161:26|160:160,1,400
320,160,37486,1,8
368,224,37921,5,0
320,288,38355,2,0,B|224:352|128:288,1,200,0|8
65,246,39660,1,0
128,192,40094,2,0,B|219:130|315:194,1,200,0|8
448,288,41834,6,0,B|480:176|416:176|448:80,2,200,4|8|0
288,336,44442,1,8
208,336,44877,5,0
128,336,45312,2,0,B|48:304|48:208|128:176,1,200,0|8
144,256,46616,1,0
224,256,47051,2,0,B|448:256,1,200,0|8
416,96,48790,5,0
368,32,49225,1,0
320,96,49660,1,8
272,32,50094,1,0
224,96,50529,2,0,B|96:64|64:192,1,200,0|8
48,256,51834,5,0
96,320,52268,2,0,B|320:320,1,200,0|8
368,288,53573,1,0
304,240,54008,2,0,B|96:240,1,200,0|8
176,96,55747,6,0,B|272:32|364:102,2,200,4|8|0
112,144,57921,1,0
48,192,58355,1,8
112,240,58790,5,0
176,288,59225,2,0,B|272:368|358:288,1,200,0|8
400,224,60529,1,0
352,160,60964,2,0,B|272:80|172:162,1,200,0|8
144,320,62703,6,0,B|256:352|256:288|352:320,2,200,0|8|0
80,272,64877,1,0
80,192,65312,1,8
80,112,65747,5,0
144,64,66181,2,0,B|240:0|344:80,1,200,0|8
400,112,67486,1,0
400,192,67921,2,0,B|400:320|256:320,1,200,0|8
160,320,69442,5,0
160,320,69660,2,0,B|192:208|128:224|160:96,2,200,4|8|0
80,336,71834,1,0
32,272,72268,1,8
32,192,72703,5,0
80,128,73138,2,0,B|144:48|272:48,1,200,0|8
336,64,74442,1,0
400,112,74877,2,0,B|336:192|192:192,1,200,0|8
80,256,76616,5,0
128,320,77051,1,0
208,336,77486,1,8
288,320,77921,1,0
336,256,78355,2,0,L|344:248|336:240|344:232|336:224|336:64,1,200,0|8
224,48,79877,5,0
224,48,80095,2,0,B|80:48|80:192,1,200,0|8
80,240,81399,1,0
80,240,81616,1,0
80,240,81834,2,0,B|128:352|368:352|432:240,1,400
112,272,85312,6,0,B|32:176|112:80,1,200,4|8
176,48,86616,1,0
176,48,86834,1,0
176,48,87051,2,0,B|240:48|288:80,1,100
240,144,87921,2,0,B|272:166|336:166,1,100,8|0
256,192,88790,12,8,91399
64,96,92268,6,0,B|160:128|160:48|272:96,1,200,0|8
320,144,93573,1,0
320,144,93790,1,0
320,144,94008,2,0,B|384:192|384:272|320:320,1,200,0|8
256,192,95747,12,8,98355
224,176,99225,6,0,B|448:176,1,200,4|8
480,240,100529,1,0
480,240,100747,1,0
480,240,100964,2,0,B|416:320|272:320,1,200,0|8
256,192,102486,12,8,105312
112,288,106181,6,0,B|32:192|112:96,1,200,0|8
160,48,107486,1,0
160,48,107703,1,0
160,48,107921,2,0,B|368:48,1,200,0|8
416,112,109225,5,0
416,112,109442,2,0,B|496:144|496:272|416:320,1,250,0|8
384,240,110964,2,0,B|240:240,1,100
320,160,111834,2,0,B|176:160,1,100,0|8
192,240,112703,5,0
112,240,113138,2,0,B|52:269|4:205|52:125|116:157,1,200,4|2
256,192,127051,5,4
424,192,127921,2,0,B|344:64|168:64|88:192,1,400,8|8
256,192,130312,12,0,133138
256,192,134008,5,0
88,192,134877,2,0,B|167:318|343:318|423:190,1,400,8|8
256,192,137268,12,0,140095
176,192,140964,6,0,B|384:192,2,200,4|8|0
96,192,143138,1,0
48,128,143573,1,8
96,64,144008,6,0,B|224:64,3,100,0|0|0|8
272,64,145747,1,0
336,112,146181,2,0,B|464:112|464:240,1,200,0|8
336,320,147921,6,0,B|240:288|240:352|128:320,2,200,0|8|0
416,304,150095,1,0
464,240,150529,1,8
448,160,150964,5,0
400,96,151399,2,0,B|320:48|192:48,1,200,0|8
128,64,152703,1,0
64,112,153138,2,0,B|64:226|128:304,1,200,0|8
240,192,154877,6,0,B|336:224|352:160|448:192,2,200,4|8|0
160,192,157051,1,0
80,224,157486,1,8
80,144,157921,5,0
144,96,158355,1,0
208,48,158790,2,0,B|336:0|336:96|464:48,2,250,0|0|8
128,192,161834,6,0,B|192:320|400:320|464:192,1,400
320,128,164442,1,8
272,64,164877,5,0
192,64,165312,2,0,B|64:64|64:192,1,200,0|8
96,256,166616,1,0
160,304,167051,2,0,B|384:304,1,200,0|8
256,176,168790,1,0
416,112,172268,6,0,B|416:320,1,200,4|8
336,336,173573,1,0
336,336,173790,1,0
336,336,174008,2,0,B|272:336|272:336|222:312,1,100
288,256,174877,2,0,B|256:240|256:240|160:240,1,100,8|0
256,192,175747,12,8,178355
48,64,179225,6,0,B|248:64,1,200,0|8
320,96,180529,1,0
320,96,180747,1,0
320,96,180964,2,0,B|368:144|368:224|320:288,1,200,0|8
176,224,182703,2,0,B|176:320|64:320|-32:320|48:184|48:184|-32:48|80:48|176:48|176:160,1,600,0|8
331,123,186181,6,0,B|432:160|432:288,1,200,4|8
368,320,187486,1,0
368,320,187703,1,0
368,320,187921,2,0,B|304:320|304:320|240:288,1,100,0|0
208,256,188790,2,0,B|176:240|176:240|80:240,1,100,8|0
48,192,189660,2,0,B|80:160|80:160|240:160,1,200,0|8
320,176,190964,2,0,B|384:208|454:174|455:47|384:16|320:48,1,300,0|8
160,32,193138,6,0,B|64:112|160:224,1,200,0|8
224,176,194442,1,0
224,176,194660,1,0
224,176,194877,2,0,B|320:128|432:176,1,200,0|8
464,240,196181,1,0
464,240,196399,1,0
256,192,196616,12,8,199225
208,192,199660,5,0
288,192,200095,2,0,B|496:192,2,200,4|8|4
128,192,202703,1,8
256,192,204008,12,0,209225
