osu file format v9

[General]
AudioFilename: VitasStar.mp3
AudioLeadIn: 1996
PreviewTime: 84008
Countdown: 0
SampleSet: Soft
StackLeniency: 0.7
Mode: 0
LetterboxInBreaks: 1

[Editor]
DistanceSpacing: 1.3
BeatDivisor: 4
GridSize: 8

[Metadata]
Title:The Star
Artist:Vitas
Creator:Breeze
Version:Hard
Source:
Tags:Russian mama vitalii vladasovich grachev zvezda

[Difficulty]
HPDrainRate:5
CircleSize:4
OverallDifficulty:6
ApproachRate:7
SliderMultiplier:1.4
SliderTickRate:1

[Events]
//Background and Video events
0,0,"BG.jpg"
//Break Periods
2,114207,126151
//Storyboard Layer 0 (Background)
//Storyboard Layer 1 (Fail)
//Storyboard Layer 2 (Pass)
//Storyboard Layer 3 (Foreground)
//Storyboard Sound Samples
//Background Colour Transformations
3,100,255,255,255

[TimingPoints]
95,434.782608695652,4,2,2,29,1,0
10964,-100,4,2,2,20,0,0
11181,-100,4,2,2,10,0,0
11399,-100,4,2,2,25,0,0
11616,-100,4,2,2,15,0,0
11834,-100,4,2,2,5,0,0
12051,-100,4,2,2,20,0,0
12268,-100,4,2,2,10,0,0
12486,-100,4,2,2,5,0,0
12703,-100,4,2,2,30,0,0
24660,-100,4,2,2,30,0,0
24877,-100,4,2,2,25,0,0
25094,-100,4,2,2,20,0,0
25312,-100,4,2,2,25,0,0
25529,-100,4,2,2,20,0,0
25747,-100,4,2,2,15,0,0
25964,-100,4,2,2,20,0,0
26181,-100,4,2,2,15,0,0
26399,-100,4,2,2,10,0,0
26616,-100,4,2,2,20,0,0
26834,-100,4,2,2,15,0,0
27051,-100,4,2,2,10,0,0
27268,-100,4,2,2,20,0,0
27486,-100,4,2,2,15,0,0
27703,-100,4,2,2,10,0,0
27921,-100,4,2,2,30,0,0
38355,-100,4,2,2,15,0,0
39225,-100,4,2,2,29,0,0
40095,-100,4,2,0,10,0,0
40964,-100,4,2,2,29,0,0
83573,-100,4,2,0,11,0,0
85312,-100,4,1,0,56,0,1
85421,-100,4,2,1,56,0,0
98573,-100,4,2,1,10,0,0
98681,-100,4,2,1,15,0,0
98790,-100,4,2,1,20,0,0
98899,-100,4,2,1,30,0,0
99008,-100,4,2,1,40,0,0
99116,-100,4,2,1,50,0,0
99225,-100,4,1,0,56,0,1
99442,-100,4,2,1,56,0,0
102051,-100,4,2,0,35,0,0
102268,-100,4,2,0,45,0,0
102486,-133.333333333333,4,2,1,56,0,0
106181,-100,4,2,1,56,0,0
109442,-133.333333333333,4,2,1,56,0,0
112703,-133.333333333333,4,2,0,30,0,0
113138,-166.666666666667,4,2,0,30,0,0
114008,-100,4,2,2,30,0,0
137921,-100,4,2,2,25,0,0
138138,-100,4,2,2,20,0,0
138355,-100,4,2,2,25,0,0
138573,-100,4,2,2,20,0,0
138790,-100,4,2,2,15,0,0
139008,-100,4,2,2,20,0,0
139225,-100,4,2,2,15,0,0
139442,-100,4,2,2,10,0,0
139660,-100,4,2,2,20,0,0
139877,-100,4,2,2,15,0,0
140094,-100,4,2,2,10,0,0
140312,-100,4,2,2,20,0,0
140529,-100,4,2,2,15,0,0
140747,-100,4,2,2,10,0,0
140964,-100,4,2,2,30,0,0
143790,-100,4,2,0,20,0,0
144442,-100,4,2,2,30,0,0
150747,-100,4,2,0,20,0,0
151399,-100,4,2,2,30,0,0
154116,-100,4,2,0,5,0,0
154877,-100,4,2,2,30,0,0
162921,-100,4,2,0,20,0,0
163573,-100,4,2,2,30,0,0
168790,-100,4,1,0,20,0,0
170529,-200,4,2,0,5,0,0
170747,-200,4,2,0,10,0,0
170964,-200,4,2,0,15,0,0
171181,-200,4,2,0,20,0,0
171399,-100,4,2,1,20,0,0
171508,-100,4,2,1,15,0,0
171834,-100,4,2,1,20,0,0
171942,-100,4,2,1,15,0,0
172268,-100,4,1,0,55,0,1
172377,-100,4,2,1,55,0,0
185529,-100,4,2,1,10,0,0
185638,-100,4,2,1,15,0,0
185747,-100,4,2,1,20,0,0
185855,-100,4,2,1,25,0,0
185964,-100,4,2,1,35,0,0
186073,-100,4,2,1,45,0,0
186181,-100,4,1,0,55,0,1
186290,-100,4,2,1,55,0,0
204116,-133.333333333333,4,2,0,25,0,0
204660,-133.333333333333,4,2,0,20,0,0
205312,-133.333333333333,4,2,0,15,0,0
205964,-133.333333333333,4,2,0,10,0,0
206290,-133.333333333333,4,2,0,5,0,0

[Colours]
Combo1 : 204,204,255
Combo2 : 153,204,255
Combo3 : 200,200,200
SliderBorder : 120,120,120

[HitObjects]
48,192,95,1,4
320,112,964,2,0,B|464:112,1,140,8|0
464,256,1834,2,0,B|320:256,1,140,0|0
192,192,2703,1,8
192,48,3138,2,0,B|16:80|16:304|192:336,1,420,0|8
304,272,4877,5,2
432,240,5312,1,2
304,192,5747,1,2
432,160,6181,1,2
304,112,6616,1,2
48,272,7921,6,0,B|48:80,1,140,8|0
192,128,8790,2,0,B|192:272,1,140
304,192,9660,1,8
416,272,10095,2,0,B|496:240|496:136|416:96,1,210,0|2
368,64,10964,5,2
304,32,11181,1,2
232,32,11399,1,2
160,48,11616,1,2
104,96,11834,1,2
72,160,12051,1,2
72,232,12268,1,2
104,296,12486,1,2
168,328,12703,5,0
312,328,13138,1,0
240,208,13573,1,0
312,88,14008,1,4
48,112,14877,6,0,B|192:128,1,140,8|0
192,272,15747,2,0,B|32:288,1,140
144,192,16616,1,8
288,160,17051,2,0,B|336:80|448:80|496:192|448:304|336:304|288:224,1,420,0|8
160,192,18790,5,2
96,64,19225,1,2
32,192,19660,1,2
96,320,20095,1,2
160,192,20529,1,2
448,192,21834,6,0,B|512:256|448:320,1,140,8|0
384,192,22703,2,0,B|320:128|384:64,1,140
448,192,23573,1,8
320,192,24008,2,0,B|224:112|224:272|128:192,1,210,0|2
112,128,24877,5,2
48,112,25094,1,2
0,160,25312,1,2
0,224,25529,1,2
48,272,25747,1,2
112,256,25964,1,2
144,192,26181,2,2,B|256:192,1,70
224,128,26616,2,2,B|294:128,1,70
352,192,27051,2,2,B|256:192,1,70
288,256,27486,2,2,B|192:256,1,70
163,300,27921,5,4
92,297,28138,1,0
31,261,28355,1,0
16,192,28573,1,0
30,123,28790,1,8
91,88,29008,1,0
160,80,29225,1,0
224,80,29442,2,0,B|372:81|372:304|224:304,1,350,0|8
144,192,30964,5,0
208,192,31181,1,0
272,192,31399,2,0,B|432:192,2,140,0|0|8
144,128,32703,1,0
256,128,33029,1,0
256,128,33138,2,0,B|320:96|320:64|368:32,2,140,0|0|8
128,192,34877,6,0,B|128:112,1,70
128,192,35312,2,0,B|128:272,1,70
192,224,35747,2,0,B|288:224,1,70,8|0
262,154,36181,2,0,B|182:154,1,70
128,128,36616,5,0
256,64,37051,1,0
384,128,37486,1,8
448,256,37921,5,0
384,288,38138,1,0
320,256,38355,1,0
320,256,38464,1,0
320,256,38573,2,0,B|240:336|128:256,1,210,0|8
128,112,39660,1,0
192,112,39877,2,0,B|272:48|272:176|352:112,2,175,0|0|8
384,320,41834,6,0,B|496:320,1,70,4|0
384,320,42268,2,0,B|288:320,1,70
384,320,42703,2,0,B|384:208,1,70,8|0
384,176,43138,2,0,B|384:106,1,70
384,32,43573,5,0
256,96,44008,1,0
128,32,44442,1,8
32,128,44877,6,0,B|-32:192|32:256,3,140,0|0|0|8
160,192,46616,1,0
272,192,46942,1,0
272,192,47051,2,0,B|416:192,2,140,0|0|8
32,48,48790,6,0,B|32:160,1,70
96,160,49225,2,0,B|128:240,1,70
192,256,49660,2,0,B|256:304,1,70,8|0
320,272,50094,2,0,B|400:288,1,70
448,240,50529,2,0,B|496:176|448:96,2,140,0|0|8
320,272,51834,5,0
256,304,52051,1,0
192,336,52268,2,0,B|128:368|48:336,2,140,0|0|8
192,192,53573,2,0,B|192:128|240:96,1,105
272,80,54008,2,0,B|336:32|480:80|480:208,1,280,0|8
224,304,55747,5,4
288,272,55964,1,0
224,240,56181,1,0
288,208,56399,1,0
224,176,56616,1,8
288,144,56834,1,0
224,112,57051,1,0
288,80,57268,1,0
224,48,57486,2,0,B|80:48,2,140,0|0|8
368,48,58790,5,0
464,96,59116,1,0
464,128,59225,2,0,B|464:256|304:352,1,280,0|8
192,288,60529,1,0
144,336,60747,1,0
96,288,60964,2,0,B|96:208|16:160,2,140,0|0|8
192,192,62268,1,0
280,80,62703,6,0,B|280:144|344:208,2,140,0|0|8
336,32,63790,1,0
384,80,64008,1,0
432,128,64225,1,0
480,176,64442,2,0,B|480:336,2,140,0|0|8
248,192,65747,5,0
176,192,65964,1,0
104,192,66181,2,0,B|104:112|176:80,1,140
312,80,67051,1,8
456,80,67486,1,0
456,152,67703,1,0
456,152,67812,2,0,B|456:176|448:200|448:200|448:264|408:328,1,175
272,320,68790,1,8
64,336,69442,5,0
64,264,69660,2,0,B|64:168,1,70,4|0
64,128,70094,1,0
64,56,70312,2,0,B|176:56,1,70,0|8
224,168,70964,1,0
320,56,71399,2,0,B|464:56,2,140,0|0|8
400,192,72703,6,0,B|432:224|448:288|496:304,1,140
400,192,73573,2,0,B|368:224|352:288|304:304,1,140,0|8
208,304,74334,1,0
176,304,74442,2,0,B|80:304|96:160,1,140
96,64,75312,1,0
224,128,75747,1,8
352,64,76181,1,0
352,208,76616,6,0,B|352:288|352:272,1,70
288,240,77051,2,0,B|288:320,1,70
224,272,77486,2,0,B|224:192,1,70,8|0
160,240,77921,2,0,B|160:160,1,70
96,208,78355,2,0,B|80:256|112:320|192:304,1,140
288,240,79225,1,8
480,192,79877,5,0
480,120,80095,2,0,B|480:24|352:24,2,140,0|0|8
336,192,81399,2,0,B|336:256,2,35
336,120,81834,2,0,B|336:24|256:-8|176:24|176:120,2,280,0|8|0
464,192,84008,5,0
256,336,84442,1,0
48,192,84877,1,0
256,192,85312,6,0,B|256:48,2,140,4|0|8
128,288,86616,1,0
192,336,86834,1,0
256,288,87051,1,0
432,288,87486,1,0
432,208,87703,6,0,B|432:112|336:112,1,140
160,112,88573,2,0,B|80:112|80:208,2,140
160,112,89660,1,8
256,352,90095,2,0,B|256:160,1,140
160,112,90964,1,0
352,112,91399,1,8
256,256,91834,1,0
352,112,92268,6,0,B|448:112|448:16,2,140,0|0|8
256,256,93573,1,0
256,336,93790,1,0
256,256,94008,1,0
160,112,94442,1,0
160,112,94660,2,0,B|64:112|64:16,2,140
131,191,95747,6,0,B|163:255|339:255|387:191,1,280,0|8
323,142,96834,2,0,B|255:180|190:143,1,140
129,85,97486,2,0,B|161:21|337:21|385:85,1,280,0|8
432,144,98573,5,2
433,157,98681,1,2
433,171,98790,1,2
433,185,98899,1,2
433,198,99008,1,2
433,212,99116,1,2
432,224,99225,6,0,B|432:272|368:304|368:352,1,140,4|0
256,208,100095,1,8
144,336,100529,2,0,B|144:304|80:272|80:216,1,140,0|0
120,56,101399,2,0,B|120:16|232:16|232:56,1,140,0|8
304,96,102051,1,0
384,96,102268,1,0
384,96,102377,1,0
384,96,102486,6,0,B|384:256,1,157.499995306134
128,288,103573,2,0,B|128:160,1,104.999996870756,8|0
304,128,104442,2,0,B|304:256,1,104.999996870756
208,256,105312,2,0,B|208:144,1,104.999996870756,8|0
352,80,106181,6,0,B|416:80|416:80|480:32,2,140,0|0|8
160,304,107486,2,0,B|96:304|96:304|32:352,2,140,0|0|0
248,304,108573,2,0,B|312:304|312:304|376:256,1,140
416,176,109225,1,0
416,96,109442,6,0,B|256:32,1,157.499995306134
96,288,110529,2,0,B|208:336,1,104.999996870756,8|0
352,160,111399,2,0,B|240:112,1,104.999996870756
176,224,112268,2,0,B|288:272,1,104.999996870756,8|0
397,249,113029,1,0
363,235,113138,2,0,B|208:168,1,168.000004005432,4|2
256,192,127051,5,4
352,208,127921,2,0,B|352:256|304:304|256:304,1,140,8|0
160,176,128790,2,0,B|160:128|208:80|256:80,1,140
352,208,129660,1,8
352,64,130095,2,0,B|416:80|432:48|496:64,2,140
256,192,131399,1,8
160,320,131834,2,0,B|112:304|80:336|16:320,2,140,2|2|2
256,192,133138,1,8
256,192,133573,1,2
160,192,134008,5,0
256,304,134442,1,0
352,192,134877,1,8
256,80,135312,1,0
128,192,135747,1,0
256,336,136181,1,0
384,192,136616,1,8
256,48,137051,2,0,B|256:192,1,140
256,188,137703,5,2
224,256,137921,2,2,B|256:272|290:256,1,70
291,127,138355,2,2,B|259:111|224:128,1,70
308,250,138790,2,2,B|348:238|365:198,1,70
214,136,139225,2,2,B|176:147|166:183,1,70
358,187,139660,2,2,B|344:152|308:139,1,70
164,204,140095,2,2,B|171:241|210:254,1,70
256,192,140529,1,2
256,192,140747,1,2
296,128,140964,5,4
256,64,141181,1,0
328,64,141399,2,0,B|392:48|408:80|488:64,2,140,0|8|0
256,64,142486,1,0
184,64,142703,2,0,B|120:48|104:80|24:64,2,140,0|0|8
221,123,143790,5,0
221,123,143899,1,0
293,123,144116,1,0
293,123,144225,1,0
256,184,144442,2,0,B|256:344,2,140,0|0|8
352,128,145638,1,0
352,128,145747,2,0,B|416:128|416:48|352:48,1,140
160,47,146616,2,0,B|96:48|96:128|160:128,2,140,0|8|0
192,192,147921,6,0,B|192:288,1,70
320,192,148355,2,0,B|320:122,1,70
192,192,148790,2,0,B|192:122,1,70,8|0
320,192,149225,2,0,B|320:262,1,70
192,192,149660,2,0,B|128:176|112:208|48:192,2,140,0|0|8
255,228,150747,5,0
255,228,150855,1,0
255,156,151073,1,0
255,156,151181,1,0
320,192,151399,2,0,B|384:208|400:176|464:192,2,140,0|0|8
320,80,152595,1,0
320,80,152703,2,0,B|384:96|400:64|464:80,2,140
192,80,154008,2,0,B|128:96|112:64|48:80,2,140,8|0|4
192,80,155095,5,0
264,120,155312,1,0
264,120,155529,1,0
336,168,155747,1,8
336,168,155964,1,0
256,216,156181,1,0
256,216,156399,1,0
160,256,156616,2,0,B|128:304|80:272|32:336,2,140,0|0|8
352,128,157921,6,0,B|384:80|432:112|480:48,2,140
296,171,159008,1,0
352,208,159225,2,0,B|395:152|447:173|507:126,1,140,8|0
488,214,159877,1,0
425,244,160095,2,0,B|406:248|390:265|390:265|390:335|319:354,1,140
256,240,160964,1,8
169,345,161399,2,0,B|122:335|122:265|122:265|106:248|87:244,1,140
40,200,162051,5,0
104,176,162268,2,0,B|144:160|144:112,1,70
72,112,162703,1,8
120,56,162921,2,0,B|120:16,1,35
192,32,163247,2,0,B|192:72,1,35
264,56,163573,2,0,B|336:56|400:128,1,140
248,328,164442,2,0,B|176:328|112:256,1,140,8|0
392,200,165312,2,0,B|392:272|320:336,1,140
120,184,166181,2,0,B|120:112|192:48,1,140,8|0
256,48,166834,5,0
256,64,166942,1,0
256,80,167051,2,0,B|256:224,1,140
168,360,167921,1,8
336,360,168355,1,0
256,192,168790,1,0
257,331,170529,6,0,B|257:187,1,140,0|2
256,176,171508,1,0
256,160,171616,1,0
256,72,171834,1,2
256,56,171942,1,0
256,40,172051,1,0
352,40,172268,6,0,B|344:104|360:120|352:192,1,140,4|0
160,40,173138,2,0,B|168:104|152:120|160:192,1,140,8|0
88,224,173790,1,0
40,288,174008,2,0,B|88:320|160:288|168:224,1,140
232,208,174660,2,0,B|240:280|216:328|152:352,2,140
160,180,175747,2,0,B|184:128|248:112|296:163,2,140,0|0|8
288,72,177051,2,0,B|248:56|200:56|144:72|128:112,1,140
32,192,177921,1,0
153,302,178355,2,0,B|184:328|240:336|288:312,1,140,8|0
400,192,179225,6,0,B|416:160|408:96|472:48,1,140
112,192,180095,2,0,B|96:224|104:288|40:336,1,140,8|0
16,248,180747,1,0
32,168,180964,2,0,B|56:128|88:112|120:104|176:136,1,140
200,192,181616,1,0
256,256,181834,1,8
312,192,182051,1,0
361,123,182268,2,0,B|392:104|424:112|456:128|480:168,2,140
280,112,183355,6,0,B|296:72|320:38|384:40|425:43,1,140
361,125,184008,2,0,B|333:176|293:204|245:189|219:147,1,140
144,64,184877,1,0
144,64,185095,1,0
144,64,185312,1,8
144,144,185529,5,2
144,160,185638,1,2
144,176,185747,1,2
144,192,185855,1,2
144,208,185964,1,2
144,224,186073,1,2
144,240,186181,6,0,B|96:296|56:240|16:288,2,140,4|0|8
368,264,187486,1,0
368,264,187703,1,0
440,288,187921,2,0,B|448:240|424:184|360:176|320:208,1,140
345,193,188464,1,0
328,200,188573,2,0,B|292:230|293:262|293:262|264:288|224:288,1,140
232,216,189225,1,0
272,152,189442,2,0,B|307:112|357:106|401:118|441:135|469:168,1,210
256,344,190529,5,8
96,192,190964,1,0
256,40,191399,1,0
424,192,191834,1,0
496,232,192051,1,0
496,152,192268,2,0,B|456:120|456:120|432:120,1,70,8|0
424,192,192703,2,0,B|392:192|392:192|328:120,1,70
320,88,193138,6,0,B|288:64|224:64|184:88,2,140,0|0|8
320,296,194442,1,0
256,352,194660,1,0
200,296,194877,1,0
200,216,195095,2,0,B|248:216,1,35
320,216,195421,2,0,B|280:216,1,35
256,136,195747,1,8
432,136,196181,5,0
344,136,196399,2,0,B|350:106|338:62|298:31|216:31|177:63|163:105|168:136,1,280
256,136,197486,1,8
304,208,197703,2,0,B|304:280|304:280|264:344,1,140
184,336,198355,2,0,B|224:272|224:272|224:200,2,140,0|0|8
48,232,199660,5,0
48,152,199877,1,0
48,72,200095,2,0,B|80:40|136:40|176:72,1,140,4|0
448,136,200964,2,0,B|416:168|360:168|320:136,1,140,8|0
48,232,201834,2,0,B|80:200|136:200|176:232,1,140,4|0
448,312,202703,2,0,B|416:344|360:344|320:312,1,140,8|0
168,32,204116,5,0
344,96,204660,1,0
80,192,205312,1,0
440,320,205964,2,4,B|480:320,2,26.2499992176891,4|4|0
256,192,206290,12,0,209225
