osu file format v9

[General]
AudioFilename: 17. Justify My Love (feat. Ashanti).mp3
AudioLeadIn: 1996
PreviewTime: -1
Countdown: 0
SampleSet: Normal
StackLeniency: 0.4
Mode: 0
LetterboxInBreaks: 1

[Editor]
Bookmarks: 9878,68189,87627,145938,165375,184812,204249,243124,262561,296576
DistanceSpacing: 1
BeatDivisor: 4
GridSize: 8

[Metadata]
Title:Justify My Love (feat. Ashanti)
Artist:Vita
Creator:GaShiK
Version:Hard
Source:
Tags:relax long map

[Difficulty]
HPDrainRate:7
CircleSize:5
OverallDifficulty:6
ApproachRate:7
SliderMultiplier:1.7
SliderTickRate:1

[Events]
//Background and Video events
0,0,"queen-moon-water-dark.jpg"
//Break Periods
2,68100,86742
2,145849,164490
2,184420,203364
//Storyboard Layer 0 (Background)
//Storyboard Layer 1 (Fail)
//Storyboard Layer 2 (Pass)
//Storyboard Layer 3 (Foreground)
//Storyboard Sound Samples
//Background Colour Transformations
3,100,163,162,255

[TimingPoints]
175,607.410406964973,4,1,0,30,1,0

[Colours]
Combo1 : 56,80,158
Combo2 : 159,159,255

[HitObjects]
152,160,175,2,8,B|152:248,1,85,8|0
224,288,782,2,8,B|224:200,1,85,0|8
296,160,1389,1,8
296,160,1541,1,0
296,160,1693,1,0
296,248,1997,1,0
296,248,2149,1,8
424,232,2604,5,8
424,144,2908,1,0
360,200,3212,1,0
360,112,3515,1,8
296,168,3819,1,8
296,168,3971,1,0
296,168,4123,1,0
296,168,4426,1,0
296,168,4578,1,8
208,80,5034,6,0,B|152:80|152:128,1,85,8|0
152,216,5641,2,0,B|152:272|216:272,1,85,0|8
288,272,6249,1,8
328,256,6400,1,0
352,216,6552,1,0
352,216,6856,1,0
352,216,7008,1,8
256,192,7463,12,8,9286
88,88,9893,6,0,B|120:120|168:88,1,85,8|0
248,88,10500,2,0,B|280:120|328:88,1,85,0|8
392,144,11108,1,8
411,181,11260,1,0
408,224,11412,1,0
408,224,11715,1,0
408,224,11867,1,8
312,312,12323,6,0,B|312:272|288:272|288:232,1,85,8|0
200,232,12930,2,0,B|200:272|176:272|176:312,1,85,0|8
88,312,13538,1,8
94,270,13689,1,0
72,232,13841,1,0
72,232,14145,1,0
72,232,14297,1,8
200,256,14752,5,8
200,256,15056,2,0,B|200:296|264:296,1,85
264,208,15663,2,0,B|264:168|200:168,1,85,8|8
200,167,16119,1,0
200,167,16271,1,0
200,167,16575,1,0
200,167,16726,1,8
280,64,17182,5,8
368,64,17486,2,0,B|368:104|392:104|392:144,1,85
392,232,18093,1,8
358,258,18245,1,0
318,273,18397,1,8
276,279,18549,1,0
233,276,18701,1,0
152,264,19004,1,0
167,224,19156,1,8
160,184,19308,1,4
160,96,19612,6,0,B|248:96,2,85,8|0|0
72,96,20523,2,8,B|72:192,2,85,8|0|8
72,96,21282,1,0
72,96,21434,1,8
240,96,22041,6,0,B|272:128|272:176,1,85,8|0
320,104,22649,2,0,B|352:136|352:184,1,85,8|0
400,112,23256,2,0,B|432:144|432:192,1,85,8|0
432,272,23864,1,8
264,256,24471,6,0,B|264:168,2,85,8|0|0
176,256,25382,2,8,B|176:168,2,85,8|0|8
176,256,26141,1,0
176,256,26293,1,8
312,160,26901,5,8
312,288,27204,1,0
312,160,27508,1,8
184,160,27812,1,0
312,160,28115,1,8
440,160,28419,1,0
312,160,28723,1,8
176,56,29330,6,0,B|112:120|112:208,2,170,8|0|8
264,56,30849,2,0,B|264:96|288:96|288:136,1,85,0|8
368,104,31456,2,0,B|368:184|416:184|416:264,2,170,0|0|8
368,104,32975,1,8
280,112,33278,5,8
224,176,33582,1,8
136,192,33886,2,8,B|136:288|256:288,2,170,0|0|8
136,192,35404,1,8
192,128,35708,1,0
272,96,36012,1,8
360,104,36315,5,0
400,192,36619,2,0,B|400:280,1,85,8|0
312,280,37227,2,0,B|312:192,1,85,8|0
224,192,37834,2,0,B|224:248|192:280,3,85,8|0|0|0
120,232,39049,6,0,B|136:136|192:80,2,170,8|0|8
480,192,40871,1,8
256,32,41478,1,8
32,192,42086,2,0,B|72:192|72:168|112:168,1,85,8|8
200,184,42693,1,8
288,176,42997,1,0
368,200,43301,1,8
256,192,43604,12,8,45730
280,112,46338,5,8
317,91,46490,1,0
360,96,46641,1,0
440,136,46945,1,8
424,224,47249,1,8
392,248,47401,1,0
352,256,47553,1,0
312,248,47704,1,0
280,224,47856,6,8,B|192:224,1,85,8|0
112,224,48464,2,0,B|112:136,1,85
176,88,49071,5,8
264,80,49375,1,8
305,90,49527,1,0
342,108,49678,1,8
374,135,49830,1,0
397,170,49982,1,8
416,256,50286,2,0,B|416:320|376:320,1,85,0|8
288,320,50893,5,8
200,312,51197,2,0,B|136:248,1,85,8|0
200,192,51804,2,0,B|264:256,1,85,8|0
320,192,52412,2,0,B|256:128,1,85,8|0
328,80,53019,2,8,B|448:200,2,170,0|0|8
248,48,54538,5,8
168,80,54841,1,8
112,144,55145,1,8
90,180,55297,1,0
96,224,55449,1,8
144,288,55753,1,8
232,296,56056,6,8,B|232:256|256:256|256:216,1,85,8|0
312,280,56664,2,8,B|312:240|336:240|336:200,1,85,8|0
392,264,57271,2,8,B|392:224|416:224|416:184,3,85,8|0|8|0
424,96,58486,5,0
336,72,58790,1,0
256,32,59093,1,8
32,192,59701,1,8
256,352,60308,1,8
480,192,60916,1,8
256,192,61523,2,8,B|256:152|280:152|280:112,1,85,0|8
352,72,62130,5,8
384,104,62282,1,0
400,143,62434,1,8
408,184,62586,1,0
408,226,62738,1,8
256,192,63041,12,8,65167
127,208,65775,6,0,B|128:168|152:168|152:128,1,85,8|0
216,208,66382,2,8,B|216:248|192:248|192:288,1,85,8|0
304,208,66990,2,0,B|304:168|328:168|328:128,1,85,8|0
392,208,67597,2,0,B|392:248|368:248|368:288,1,85,8|0
328,80,87642,6,0,B|296:48|248:48,1,85,8|0
208,48,88097,1,0
168,56,88249,1,8
144,184,88705,5,0
184,173,88856,1,8
226,170,89008,1,0
267,178,89160,1,0
344,224,89464,1,8
208,320,90071,5,8
170,299,90223,1,0
137,271,90375,1,0
119,232,90527,1,0
112,189,90679,1,8
256,280,91286,5,8
218,259,91438,1,0
185,231,91590,1,0
167,192,91742,1,0
160,149,91894,1,8
320,216,92501,6,0,B|320:128,1,85,8|0
320,88,92956,1,0
320,48,93108,1,8
192,56,93564,5,0
183,97,93716,1,8
192,138,93868,1,0
185,179,94019,1,0
193,263,94323,1,8
296,112,94931,5,8
336,104,95082,1,0
376,96,95234,1,0
392,136,95386,1,0
400,176,95538,1,8
104,112,96145,5,8
144,104,96296,1,0
184,96,96448,1,0
200,136,96600,1,0
208,176,96752,1,8
368,120,97360,5,8
368,208,97664,1,0
368,208,97816,1,8
368,296,98119,1,0
368,296,98271,1,8
288,264,98575,1,8
249,246,98727,1,0
217,217,98879,1,0
197,179,99030,1,0
189,137,99182,1,8
56,184,99790,5,8
71,223,99942,1,0
104,256,100094,1,0
104,256,100397,1,8
144,88,101005,5,8
159,127,101157,1,0
192,160,101309,1,0
192,160,101612,1,8
168,328,102219,5,8
80,328,102523,1,0
80,328,102675,1,8
80,240,102979,1,0
80,240,103131,1,8
168,240,103434,1,8
168,240,103586,1,0
168,240,103738,1,0
168,240,103890,1,0
168,240,104042,1,8
320,160,104649,5,8
320,160,104801,1,0
320,160,104953,1,0
232,160,105257,1,8
400,160,105864,5,8
400,160,106016,1,0
400,160,106168,1,0
488,160,106471,1,8
344,72,107079,5,8
256,72,107382,1,0
176,96,107686,1,8
136,168,107990,1,0
144,256,108294,1,8
200,320,108597,2,0,B|288:336|368:296,3,170,0|0|0|8
424,232,110723,1,8
440,152,111027,5,8
408,72,111331,1,8
328,40,111634,2,0,B|240:48|168:112,2,170,0|0|8
328,128,113153,1,8
328,216,113457,1,0
328,304,113760,1,8
232,224,114064,5,0
232,352,114368,1,8
232,224,114671,1,0
104,224,114975,1,8
232,224,115279,1,0
360,224,115582,1,8
232,224,115886,1,0
232,96,116190,1,8
232,224,116494,1,0
152,192,116797,6,0,B|120:176|120:112,1,85,0|0
176,48,117405,2,0,B|240:24|304:32,1,127.5,0|8
336,56,118012,2,0,B|384:104|384:176,1,127.5,0|8
368,208,118620,2,0,B|344:264|272:288,1,127.5,0|8
232,280,119227,6,0,B|144:264|80:208,1,170,0|8
80,208,120138,1,0
120,136,120442,1,0
200,104,120745,1,0
288,112,121049,1,8
256,192,121353,12,8,123479
384,224,124086,5,0
328,160,124390,1,0
248,128,124694,1,8
168,112,124997,1,0
125,118,125149,1,0
88,140,125301,1,0
65,175,125453,1,0
56,208,125605,5,8
96,280,125908,1,0
152,216,126212,1,8
208,280,126516,1,0
264,216,126820,1,0
288,248,126971,1,0
320,280,127123,1,8
408,280,127427,2,0,B|408:192,3,85,0|8|0|8
408,112,128642,5,8
328,80,128946,2,0,B|240:80,1,85,8|0
248,168,129553,2,0,B|336:168,1,85,8|0
336,256,130160,2,0,B|168:256,1,170,8|0
80,256,131071,2,0,B|80:88,1,170,8|0
160,112,131983,5,0
197,131,132134,1,0
240,128,132286,1,8
320,96,132590,1,8
320,184,132894,1,8
320,272,133197,1,8
208,216,133501,5,0
80,216,133805,1,8
208,216,134108,1,0
208,344,134412,1,8
208,216,134716,1,0
336,216,135020,1,8
208,216,135323,1,0
208,88,135627,1,8
208,216,135931,1,0
272,160,136234,5,8
352,144,136538,1,0
436,144,136842,2,0,B|436:320,4,170,8|8|8|8|8
436,144,139575,1,8
368,112,139879,1,8
327,98,140031,1,0
288,104,140182,1,0
208,128,140486,1,8
256,192,140790,12,8,142916
120,184,143220,6,0,B|120:144|144:144|144:104,2,85,0|8|0
208,184,144131,2,0,B|208:224|184:224|184:264,1,85,8|0
296,184,144738,2,0,B|296:144|320:144|320:104,1,85,8|0
384,184,145346,2,0,B|384:224|360:224|360:264,1,85,8|0
336,120,165390,6,0,B|312:96|288:120|264:96|264:80,1,85,8|0
192,120,165998,1,8
168,152,166149,1,0
152,192,166301,1,8
168,232,166453,1,0
192,264,166605,1,8
192,264,166909,1,0
192,264,167212,1,8
360,224,167820,5,8
384,192,167971,1,0
400,152,168123,1,0
384,112,168275,1,0
360,80,168427,1,8
312,152,168731,5,8
280,128,168882,1,0
240,112,169034,1,0
200,128,169186,1,0
168,152,169338,1,8
168,152,169642,1,8
184,320,170249,6,0,B|184:264|128:264,1,85,8|0
72,208,170857,1,8
72,208,171009,1,0
72,208,171161,1,8
72,208,171312,1,0
72,208,171464,1,8
72,208,171768,1,0
72,208,172072,1,8
208,104,172679,5,8
208,144,172831,1,0
208,184,172983,1,0
208,224,173135,1,0
208,264,173286,1,8
296,264,173590,5,8
296,224,173742,1,0
296,184,173894,1,0
296,144,174046,1,0
296,104,174198,1,8
296,104,174501,1,8
128,144,175109,6,0,B|128:232,1,85,0|8
128,229,175564,1,8
128,229,175716,1,8
216,228,176020,2,0,B|216:140,2,85,0|0|8
216,228,176779,1,8
216,228,176931,1,8
384,264,177538,6,0,B|432:224|432:144,1,127.5,0|8
416,112,178146,2,0,B|368:64|296:64,1,127.5,0|8
256,72,178753,2,0,B|208:120|184:176,1,127.5,0|8
200,216,179361,1,8
368,208,179968,6,0,B|368:248|392:248|392:288,1,85,0|8
392,288,180424,1,8
392,288,180575,1,8
304,288,180879,2,0,B|304:248|280:248|280:208,2,85,0|0|8
304,288,181638,1,8
304,288,181790,1,8
144,232,182398,5,0
124,194,182549,1,0
128,152,182701,1,8
176,80,183005,1,0
210,54,183157,1,0
256,56,183309,1,8
320,112,183612,1,0
348,143,183764,1,0
352,184,183916,1,8
352,184,184220,1,8
480,192,204264,6,0,B|392:192,2,85,0|0|8
256,32,205479,1,8
32,192,206087,1,8
256,352,206694,1,8
256,192,207301,6,0,B|256:152|280:152|280:112,1,85,0|8
368,112,207909,1,8
387,149,208061,1,0
384,192,208213,1,0
384,280,208516,1,8
256,192,208972,12,8,210946
256,192,211250,5,0
256,64,211553,1,8
256,192,211857,1,0
128,192,212161,1,8
256,192,212464,1,0
256,320,212768,1,8
256,192,213072,1,0
384,192,213376,1,8
256,192,213679,1,0
296,120,213983,5,8
262,94,214135,1,0
224,88,214287,1,0
136,88,214590,6,8,B|136:256,4,170
136,88,217324,1,8
224,88,217627,1,8
261,107,217779,1,0
291,136,217931,1,0
315,170,218083,1,0
335,207,218235,1,8
256,192,218539,12,8,220664
144,104,221272,5,8
144,144,221424,1,0
144,184,221576,1,0
184,184,221727,1,0
224,184,221879,1,8
200,264,222183,1,8
200,304,222335,1,0
200,344,222487,1,0
240,344,222639,1,0
280,344,222790,5,8
280,256,223094,1,8
280,168,223398,1,8
280,80,223702,5,8
192,80,224005,1,0
159,107,224157,1,0
144,144,224309,1,8
144,232,224613,1,0
144,320,224916,1,8
232,320,225220,1,0
232,232,225524,1,8
256,192,225827,12,8,227953
256,192,228257,12,8,230383
256,104,230687,6,0,B|168:104,2,85,0|0|8
256,192,231598,2,0,B|344:192,2,85,0|0|8
256,192,232509,1,0
256,192,232813,1,8
256,192,233116,1,0
256,192,233420,5,8
168,192,233724,1,0
136,168,233876,1,0
120,128,234028,1,8
192,80,234331,1,0
224,104,234483,1,0
240,144,234635,1,8
328,136,234939,5,0
328,224,235242,1,0
328,312,235546,1,0
240,312,235850,5,8
240,224,236153,1,0
240,136,236457,1,0
152,136,236761,5,8
152,224,237065,1,0
152,312,237368,1,8
64,312,237672,1,8
64,224,237976,1,8
64,224,238583,1,4
208,136,239190,5,0
250,141,239342,1,0
280,168,239494,1,8
280,256,239798,1,0
368,256,240102,1,8
368,168,240405,6,0,B|368:128|392:128|392:88,2,85,0|0|8
280,168,241316,2,0,B|280:208|256:208|256:248,1,85,0|8
192,168,241924,2,0,B|192:128|216:128|216:88,2,85,0|0|8
192,168,243139,1,4
