osu file format v14

[General]
AudioFilename: Virtual Riot - Throwback.mp3
AudioLeadIn: 0
PreviewTime: 49266
Countdown: 0
SampleSet: Soft
StackLeniency: 0.7
Mode: 2
LetterboxInBreaks: 0
WidescreenStoryboard: 0

[Editor]
DistanceSpacing: 0.9
BeatDivisor: 4
GridSize: 4
TimelineZoom: 1

[Metadata]
Title:Throwback
TitleUnicode:Throwback
Artist:Virtual Riot
ArtistUnicode:Virtual Riot
Creator:Lyaneii-
Version:Thursday
Source:
Tags:
BeatmapID:1245828
BeatmapSetID:588473

[Difficulty]
HPDrainRate:6
CircleSize:4.1
OverallDifficulty:9.6
ApproachRate:9.6
SliderMultiplier:1.9
SliderTickRate:1

[Events]
//Background and Video events
0,0,"untitled.jpg",0,0
//Break Periods
//Storyboard Layer 0 (Background)
//Storyboard Layer 1 (Fail)
//Storyboard Layer 2 (Pass)
//Storyboard Layer 3 (Foreground)
//Storyboard Sound Samples

[TimingPoints]
105,387.096774193548,4,2,0,100,1,0
49653,-100,4,2,0,100,0,1
68234,-100,4,2,0,100,0,0
74427,-100,4,2,0,100,0,1
93008,-100,4,2,0,100,0,0

[HitObjects]
160,196,105,5,0,0:0:0:0:
352,192,395,1,0,0:0:0:0:
128,120,685,1,0,0:0:0:0:
312,72,975,2,0,P|364:92|408:168,1,142.5
192,172,1556,6,0,P|160:228|224:292,1,142.5
400,296,2137,1,0,0:0:0:0:
176,236,2427,2,0,P|148:180|144:64,1,142.5
272,56,3008,1,0,0:0:0:0:
424,88,3201,6,0,P|384:120|276:116,1,142.5
80,144,3782,2,0,P|120:176|228:172,1,142.5
392,172,4363,1,0,0:0:0:0:
168,104,4653,1,0,0:0:0:0:
400,76,4943,5,0,0:0:0:0:
224,76,5234,2,0,P|192:136|192:220,1,142.5
344,224,5814,1,0,0:0:0:0:
128,208,6104,1,0,0:0:0:0:
404,160,6298,6,0,P|392:100|292:56,1,142.5
112,76,6879,1,0,0:0:0:0:
344,88,7169,1,0,0:0:0:0:
184,144,7459,1,0,0:0:0:0:
400,172,7750,6,0,L|428:320,1,142.5
240,296,8330,1,0,0:0:0:0:
60,216,8621,2,0,P|108:172|200:172,1,142.5
384,168,9201,1,0,0:0:0:0:
112,76,9395,6,0,P|76:128|72:216,1,142.5
292,220,9975,2,0,P|360:208|396:120,1,142.5
184,116,10556,1,0,0:0:0:0:
420,76,10846,1,0,0:0:0:0:
200,40,11137,6,0,L|44:56,1,142.5
208,140,11717,1,0,0:0:0:0:
420,140,12008,1,0,0:0:0:0:
212,188,12298,1,0,0:0:0:0:
364,252,12492,5,0,0:0:0:0:
395,217,12588,1,0,0:0:0:0:
405,171,12685,1,0,0:0:0:0:
389,127,12782,1,0,0:0:0:0:
352,97,12879,1,0,0:0:0:0:
306,91,12975,1,0,0:0:0:0:
144,120,13072,2,0,L|96:160,1,47.5
296,240,13266,1,0,0:0:0:0:
327,205,13362,1,0,0:0:0:0:
330,158,13459,1,0,0:0:0:0:
304,120,13556,1,0,0:0:0:0:
236,92,13653,2,0,L|280:56,1,47.5
432,76,13846,2,0,L|456:36,1,47.5
240,128,14040,5,0,0:0:0:0:
205,159,14136,1,0,0:0:0:0:
198,205,14233,1,0,0:0:0:0:
223,244,14330,1,0,0:0:0:0:
267,258,14427,1,0,0:0:0:0:
310,240,14523,1,0,0:0:0:0:
472,196,14621,2,0,L|452:136,1,47.5
280,112,14814,2,0,L|216:100,1,47.5
396,60,15008,2,0,L|448:44,1,47.5
232,48,15201,2,0,L|184:64,1,47.5
240,100,15395,2,0,L|296:100,1,47.5
112,152,15588,5,0,0:0:0:0:
92,194,15684,1,0,0:0:0:0:
105,238,15781,1,0,0:0:0:0:
144,263,15878,1,0,0:0:0:0:
190,256,15975,1,0,0:0:0:0:
220,221,16071,1,0,0:0:0:0:
152,176,16169,2,0,L|176:124,1,47.5
256,136,16363,2,0,L|288:84,1,47.5
112,60,16556,2,0,L|52:36,1,47.5
344,72,16750,1,0,0:0:0:0:
382,97,16846,1,0,0:0:0:0:
389,142,16943,1,0,0:0:0:0:
361,178,17040,1,0,0:0:0:0:
192,220,17137,6,0,L|152:248,1,47.5
328,292,17330,2,0,L|364:240,1,47.5
160,236,17524,2,0,L|128:192,1,47.5
208,164,17717,2,0,L|212:108,1,47.5
392,64,17911,1,0,0:0:0:0:
350,86,18007,1,0,0:0:0:0:
329,127,18104,1,0,0:0:0:0:
333,174,18201,1,0,0:0:0:0:
363,210,18298,1,0,0:0:0:0:
408,224,18394,1,0,0:0:0:0:
460,256,18492,2,0,L|396:268,1,47.5
200,280,18685,6,0,L|152:240,1,47.5
76,216,18879,2,0,L|96:156,1,47.5
32,128,19072,2,0,L|20:72,1,47.5
224,48,19266,2,0,L|280:68,1,47.5
104,120,19459,2,0,L|44:144,1,47.5
128,176,19653,2,0,L|180:180,1,47.5
376,216,19846,5,0,0:0:0:0:
403,177,19942,1,0,0:0:0:0:
405,131,20039,1,0,0:0:0:0:
381,90,20136,1,0,0:0:0:0:
340,69,20233,1,0,0:0:0:0:
293,74,20329,1,0,0:0:0:0:
120,136,20427,6,0,L|92:184,1,47.5
300,232,20621,2,0,L|356:232,1,47.5
292,288,20814,2,0,L|232:288,1,47.5
300,332,21008,2,0,L|360:332,1,47.5
128,320,21201,2,0,L|92:280,1,47.5
296,224,21395,2,0,L|312:168,1,47.5
236,140,21588,2,0,L|192:112,1,47.5
112,76,21782,6,0,L|100:20,1,47.5
184,32,21975,2,0,L|236:52,1,47.5
48,112,22169,2,0,L|16:160,1,47.5
228,236,22363,2,0,L|264:188,1,47.5
76,168,22556,2,0,L|28:128,1,47.5
264,148,22750,2,0,L|284:92,3,47.5
440,188,23137,2,0,L|488:232,1,47.5
240,216,23330,6,0,L|184:208,1,47.5
240,156,23524,2,0,L|292:144,1,47.5
448,112,23717,2,0,L|460:64,2,47.5
404,148,24008,1,0,0:0:0:0:
212,96,24104,2,0,L|200:48,2,47.5
256,128,24395,1,0,0:0:0:0:
464,216,24492,2,0,L|476:168,2,47.5
420,252,24783,1,0,0:0:0:0:
196,272,24879,6,0,P|144:240|140:132,1,142.5
308,116,25266,2,0,L|408:128,1,95
300,224,25653,1,0,0:0:0:0:
40,156,25846,1,0,0:0:0:0:
192,156,26040,1,0,0:0:0:0:
40,156,26234,1,0,0:0:0:0:
336,256,26427,6,0,P|368:208|312:140,1,142.5
144,104,26814,2,0,L|232:68,1,95
388,76,27201,2,0,L|412:176,1,95
124,176,27588,2,0,L|112:300,1,95
384,264,27975,6,0,P|372:192|292:160,1,142.5
208,148,28363,1,0,0:0:0:0:
368,112,28556,1,0,0:0:0:0:
72,96,28750,2,0,L|164:56,1,95
312,60,29137,1,0,0:0:0:0:
160,64,29330,1,0,0:0:0:0:
432,116,29524,6,0,L|412:172,1,47.5
212,172,29717,2,0,L|228:228,1,47.5
392,232,29911,2,0,L|448:244,1,47.5
260,260,30104,2,0,L|196:276,1,47.5
280,308,30298,2,0,L|344:324,1,47.5
120,328,30492,2,0,L|68:340,1,47.5
304,216,30685,2,0,L|416:164,1,95
88,112,31072,6,0,L|184:76,1,95
232,72,31363,1,0,0:0:0:0:
288,72,31459,1,0,0:0:0:0:
128,120,31653,1,0,0:0:0:0:
392,152,31846,2,0,L|448:152,2,47.5
116,168,32234,2,0,L|68:168,2,47.5
272,172,32621,5,0,0:0:0:0:
120,240,32814,1,0,0:0:0:0:
184,240,32911,1,0,0:0:0:0:
248,240,33008,1,0,0:0:0:0:
92,172,33201,1,0,0:0:0:0:
376,80,33395,2,0,L|416:184,1,95
356,184,33685,1,0,0:0:0:0:
296,184,33782,1,0,0:0:0:0:
460,224,33975,1,0,0:0:0:0:
168,140,34169,6,0,L|148:96,2,47.5
316,132,34556,2,0,L|416:132,1,95
144,212,34943,2,0,L|44:236,1,95
120,276,35234,1,0,0:0:0:0:
312,260,35330,2,0,L|288:168,1,95
136,120,35717,6,0,L|84:108,1,47.5
296,64,35911,2,0,L|340:108,1,47.5
144,168,36104,1,0,0:0:0:0:
113,201,36200,1,0,0:0:0:0:
122,246,36297,1,0,0:0:0:0:
164,264,36394,1,0,0:0:0:0:
328,216,36492,2,0,L|368:172,1,47.5
200,152,36685,2,0,L|148:128,1,47.5
376,112,36879,2,0,L|352:56,1,47.5
144,48,37072,2,0,L|80:64,1,47.5
340,136,37266,6,0,L|420:200,1,95
364,220,37556,1,0,0:0:0:0:
160,196,37653,2,0,L|108:200,2,47.5
424,88,38040,2,0,L|472:80,2,47.5
136,88,38427,1,0,0:0:0:0:
272,120,38621,2,0,L|328:124,1,47.5
140,172,38814,6,0,L|100:268,1,95
164,276,39104,1,0,0:0:0:0:
372,272,39201,2,0,L|408:312,2,47.5
212,216,39588,2,0,L|196:164,1,47.5
380,108,39782,2,0,L|500:120,1,95
312,40,40169,2,0,L|240:48,1,47.5
76,80,40363,5,0,0:0:0:0:
204,116,40556,2,0,L|264:140,1,47.5
60,168,40750,2,0,L|36:208,2,47.5
348,172,41137,1,0,0:0:0:0:
364,216,41233,1,0,0:0:0:0:
381,260,41330,1,0,0:0:0:0:
220,272,41524,2,0,L|176:244,1,47.5
344,128,41717,2,0,L|400:112,1,47.5
160,72,41911,6,0,L|100:96,1,47.5
192,136,42104,2,0,L|160:204,1,47.5
72,176,42298,2,0,L|112:224,1,47.5
304,252,42492,2,0,L|360:224,1,47.5
284,188,42685,2,0,L|224:172,1,47.5
408,152,42879,2,0,L|432:108,1,47.5
240,76,43072,2,0,L|176:100,1,47.5
416,56,43266,2,0,L|396:120,1,47.5
220,172,43459,6,0,L|124:216,1,95
84,212,43750,1,0,0:0:0:0:
32,212,43846,1,0,0:0:0:0:
356,220,44040,1,0,0:0:0:0:
204,128,44234,2,0,L|152:128,2,47.5
360,112,44621,2,0,L|408:92,1,47.5
216,64,44814,2,0,L|164:48,1,47.5
360,40,45008,6,0,L|416:76,1,47.5
320,112,45201,2,0,L|344:160,1,47.5
260,168,45395,2,0,L|268:240,1,47.5
96,248,45588,2,0,L|44:228,1,47.5
252,144,45782,1,0,0:0:0:0:
296,159,45878,1,0,0:0:0:0:
323,197,45975,1,0,0:0:0:0:
323,244,46072,1,0,0:0:0:0:
297,283,46169,1,0,0:0:0:0:
254,300,46265,1,0,0:0:0:0:
68,200,46363,2,0,L|20:160,1,47.5
204,36,46556,6,0,L|128:28,1,47.5
204,96,46750,2,0,L|264:80,1,47.5
424,40,46943,2,0,L|348:32,1,47.5
424,108,47137,2,0,L|484:92,1,47.5
276,160,47330,2,0,L|232:200,1,47.5
416,200,47524,2,0,L|476:232,1,47.5
192,280,47717,1,0,0:0:0:0:
147,266,47813,1,0,0:0:0:0:
124,226,47910,1,0,0:0:0:0:
136,181,48007,1,0,0:0:0:0:
184,152,48104,6,0,L|192:128,7,23.75
224,104,48492,6,0,L|232:80,6,23.75
364,56,48975,2,0,B|412:72|412:72|352:80,1,95
288,104,49266,2,0,L|268:160,1,47.5
376,168,49459,2,0,L|404:224,1,47.5
228,276,49653,6,0,P|168:244|184:172,1,142.5
268,156,50040,2,0,P|232:112|112:92,1,142.5
80,156,50427,2,0,L|196:192,1,95
324,184,50814,1,0,0:0:0:0:
56,228,51008,2,0,P|60:288|172:320,1,190
428,248,51588,6,0,P|408:184|276:148,1,190
148,112,52169,2,0,L|136:88,1,23.75
368,76,52363,2,0,L|376:52,1,23.75
168,36,52556,2,0,P|124:64|188:164,1,190
448,168,53137,6,0,P|428:232|312:256,1,190
248,224,53621,1,0,0:0:0:0:
320,200,53717,6,0,L|332:144,1,47.5
236,124,53910,2,0,L|220:64,1,47.5
336,64,54104,2,0,L|348:12,1,47.5
172,4,54297,2,0,L|140:56,1,47.5
356,40,54491,2,0,L|404:72,1,47.5
180,104,54684,2,0,L|140:132,1,47.5
408,128,54878,2,0,L|428:176,1,47.5
224,288,55072,6,0,P|284:284|288:204,1,142.5
216,176,55459,2,0,P|268:136|360:136,1,142.5
112,56,55846,6,0,P|60:108|88:188,1,142.5
272,208,56234,2,0,P|316:160|304:64,1,142.5
144,92,56621,2,0,L|40:112,2,95
432,76,57201,2,0,P|388:112|456:208,1,190
300,296,57782,6,0,P|248:248|312:168,1,190
56,88,58363,2,0,L|44:64,1,23.75
328,56,58557,2,0,L|336:32,1,23.75
108,48,58750,2,0,P|152:92|272:80,1,190
124,140,59330,6,0,L|344:112,1,190
452,144,59911,2,0,L|404:256,1,95
252,232,60298,1,0,0:0:0:0:
412,276,60492,5,0,0:0:0:0:
144,180,60685,2,0,L|132:156,1,23.75
356,132,60879,2,0,L|364:108,1,23.75
80,80,61072,2,0,L|68:56,1,23.75
304,48,61266,1,0,0:0:0:0:
140,76,61459,2,0,P|100:104|168:204,1,190
424,204,62040,6,0,P|392:144|264:144,1,190
132,136,62621,1,0,0:0:0:0:
412,112,62814,2,0,P|460:160|392:248,1,190
104,216,63395,2,0,L|216:200,2,95
384,104,63975,6,0,L|184:120,1,190
464,220,64556,2,0,L|476:196,1,23.75
252,172,64750,2,0,L|244:148,1,23.75
456,92,64943,2,0,P|408:64|272:92,1,190
120,104,65524,6,0,P|176:140|296:112,1,190
208,60,66008,1,0,0:0:0:0:
292,80,66104,6,0,L|308:32,1,47.5
208,104,66297,2,0,L|184:160,1,47.5
296,160,66491,2,0,L|304:224,1,47.5
144,208,66684,2,0,L|120:256,1,47.5
344,252,66878,2,0,L|372:304,1,47.5
152,300,67071,2,0,L|100:328,1,47.5
340,224,67265,2,0,L|388:200,1,47.5
112,96,67459,2,0,P|84:144|136:224,1,142.5
224,224,67846,2,0,P|176:248|68:252,1,142.5
396,280,68234,5,0,0:0:0:0:
244,148,68427,2,0,L|236:124,1,23.75
456,72,68621,2,0,L|464:48,1,23.75
152,84,68814,2,0,L|144:60,1,23.75
296,44,69008,5,0,0:0:0:0:
318,50,69056,1,0,0:0:0:0:
337,64,69104,1,0,0:0:0:0:
350,84,69153,1,0,0:0:0:0:
356,107,69201,1,0,0:0:0:0:
354,130,69249,1,0,0:0:0:0:
344,151,69298,1,0,0:0:0:0:
144,196,69395,2,0,L|40:256,1,95
352,232,69782,6,0,L|360:208,1,23.75
140,136,69975,2,0,L|132:112,1,23.75
360,72,70169,2,0,P|424:100|464:172,1,142.5
276,256,70556,2,0,L|268:232,1,23.75
388,168,70750,2,0,L|396:144,1,23.75
176,76,70943,2,0,L|184:52,1,23.75
460,76,71137,2,0,L|452:52,1,23.75
184,40,71330,5,0,0:0:0:0:
340,100,71524,2,0,L|348:76,1,23.75
140,104,71717,2,0,L|132:80,1,23.75
252,44,71911,2,0,L|260:20,1,23.75
56,40,72104,5,0,0:0:0:0:
36,53,72152,1,0,0:0:0:0:
24,73,72200,1,0,0:0:0:0:
22,97,72249,1,0,0:0:0:0:
29,119,72297,1,0,0:0:0:0:
45,136,72345,1,0,0:0:0:0:
67,146,72394,1,0,0:0:0:0:
236,180,72492,2,0,L|352:192,1,95
68,228,72879,6,0,L|76:204,1,23.75
292,136,73072,2,0,L|284:112,1,23.75
68,56,73266,2,0,L|164:76,1,95
216,76,73556,1,0,0:0:0:0:
436,72,73653,1,0,0:0:0:0:
284,104,73846,1,0,0:0:0:0:
440,160,74040,1,0,0:0:0:0:
284,184,74234,1,0,0:0:0:0:
16,196,74427,6,0,P|76:244|152:224,1,142.5
336,172,74814,2,0,P|288:136|192:144,1,142.5
52,136,75201,2,0,L|28:40,1,95
140,40,75588,1,0,0:0:0:0:
452,48,75782,2,0,P|452:108|340:188,1,190
72,184,76363,6,0,P|112:216|272:232,1,190
96,104,76943,2,0,L|104:80,1,23.75
320,72,77137,2,0,L|312:48,1,23.75
108,56,77330,2,0,P|184:96|284:80,1,190
440,100,77911,6,0,P|392:148|256:164,1,190
200,116,78396,1,0,0:0:0:0:
284,88,78492,6,0,L|296:40,1,47.5
192,40,78685,2,0,L|172:92,1,47.5
336,136,78879,2,0,L|360:196,1,47.5
180,168,79072,2,0,L|128:196,1,47.5
352,240,79266,2,0,L|408:244,1,47.5
164,260,79459,2,0,L|104:288,1,47.5
360,312,79653,2,0,L|388:240,1,47.5
116,208,79846,2,0,L|96:108,1,95
260,112,80234,1,0,0:0:0:0:
96,76,80427,1,0,0:0:0:0:
392,56,80621,6,0,P|352:96|240:80,1,142.5
432,140,81008,2,0,P|472:196|436:276,1,142.5
180,276,81395,1,0,0:0:0:0:
328,276,81588,1,0,0:0:0:0:
180,276,81782,1,0,0:0:0:0:
468,112,81975,2,0,P|416:76|284:104,1,190
144,112,82556,6,0,P|192:160|120:236,1,190
416,104,83137,2,0,L|408:80,1,23.75
196,64,83330,2,0,L|204:40,1,23.75
348,28,83524,2,0,P|400:44|368:152,1,190
320,152,84008,1,0,0:0:0:0:
92,168,84104,6,0,P|120:216|256:244,1,190
404,200,84685,1,0,0:0:0:0:
248,180,84879,2,0,L|212:80,1,95
368,60,85266,6,0,L|376:36,1,23.75
156,56,85459,2,0,L|164:32,1,23.75
292,40,85653,2,0,L|284:16,1,23.75
72,60,85846,2,0,L|64:36,1,23.75
404,96,86040,1,0,0:0:0:0:
136,132,86234,2,0,L|36:144,2,95
296,128,86814,6,0,P|352:156|320:248,1,142.5
96,244,87201,2,0,P|88:184|120:92,1,142.5
264,52,87588,2,0,L|392:72,1,95
452,136,87975,1,0,0:0:0:0:
180,168,88169,2,0,P|160:224|276:220,1,190
424,208,88750,6,0,P|404:136|280:92,1,190
40,64,89330,2,0,L|32:40,1,23.75
264,44,89524,2,0,L|272:20,1,23.75
60,112,89717,2,0,P|112:152|232:116,1,190
380,72,90298,6,0,L|476:100,1,95
200,192,90685,1,0,0:0:0:0:
344,240,90879,6,0,L|364:304,1,47.5
256,284,91072,2,0,L|236:348,1,47.5
436,204,91266,2,0,L|480:188,1,47.5
236,172,91459,2,0,L|196:112,1,47.5
420,112,91653,2,0,L|444:68,1,47.5
244,80,91846,2,0,L|192:60,1,47.5
404,44,92040,2,0,L|456:28,1,47.5
144,68,92234,6,0,P|116:136|304:144,1,332.5
128,252,93008,2,0,L|120:228,1,23.75
352,152,93201,2,0,L|360:128,1,23.75
88,164,93395,2,0,L|80:140,1,23.75
332,68,93588,2,0,L|324:44,1,23.75
116,40,93782,5,0,0:0:0:0:
95,50,93830,1,0,0:0:0:0:
80,69,93878,1,0,0:0:0:0:
76,92,93927,1,0,0:0:0:0:
81,115,93975,1,0,0:0:0:0:
96,133,94023,1,0,0:0:0:0:
117,143,94072,1,0,0:0:0:0:
364,192,94169,2,0,L|356:168,1,23.75
144,96,94363,2,0,L|136:72,1,23.75
380,80,94556,6,0,L|388:56,1,23.75
176,64,94750,2,0,L|168:40,1,23.75
372,36,94943,2,0,L|468:80,1,95
404,104,95234,1,0,0:0:0:0:
196,144,95330,2,0,L|188:120,1,23.75
400,168,95524,2,0,L|392:144,1,23.75
132,200,95717,2,0,L|124:176,1,23.75
416,88,95911,2,0,L|424:64,1,23.75
184,80,96104,5,0,0:0:0:0:
336,68,96298,2,0,L|344:44,1,23.75
104,104,96492,2,0,L|96:80,1,23.75
360,164,96685,2,0,L|368:140,1,23.75
128,196,96879,2,0,L|136:172,6,23.75
392,224,97266,2,0,L|384:200,1,23.75
160,160,97459,2,0,L|168:136,1,23.75
372,96,97653,6,0,L|380:72,1,23.75
56,36,97846,1,0,0:0:0:0:
324,44,98040,2,0,L|220:76,1,95
276,112,98330,1,0,0:0:0:0:
464,132,98427,2,0,L|428:236,1,95
116,192,98814,2,0,L|120:288,1,95
256,192,99201,12,0,103846,0:0:0:0:
