osu file format v14

[General]
AudioFilename: Virtual Riot - Shindeiru.mp3
AudioLeadIn: 0
PreviewTime: -1
Countdown: 1
SampleSet: None
StackLeniency: 0.7
Mode: 0
LetterboxInBreaks: 1
WidescreenStoryboard: 0

[Editor]
Bookmarks: 24818,43251,51332
DistanceSpacing: 1.5
BeatDivisor: 6
GridSize: 16
TimelineZoom: 1

[Metadata]
Title:Shindeiru
TitleUnicode:Shindeiru
Artist:Virtual Riot
ArtistUnicode:Virtual Riot
Creator:razetime
Version:You Are Already Dead
Source:
Tags:dubstep edm german meme kenshiro fist of the north star nani
BeatmapID:1563215
BeatmapSetID:741032

[Difficulty]
HPDrainRate:6
CircleSize:5
OverallDifficulty:8
ApproachRate:8.4
SliderMultiplier:2
SliderTickRate:1

[Events]
//Background and Video events
//Break Periods
//Storyboard Layer 0 (Background)
//Storyboard Layer 1 (Fail)
//Storyboard Layer 2 (Pass)
//Storyboard Layer 3 (Foreground)
//Storyboard Sound Samples

[TimingPoints]
1175.45092339065,400.721298337007,4,2,0,100,1,0
14299,-80,4,2,0,100,0,0
14699,-66.6666666666667,4,2,0,100,0,0
15601,-100,4,2,0,100,0,0
25519,-66.6666666666667,4,2,0,100,0,0
25719,-200,4,2,0,100,0,0
26320,-50,4,2,0,100,0,0
28023,-100,4,2,0,100,0,0
28758,-50,4,2,0,100,0,0
30027,-62.5,4,2,0,100,0,0
30828,-300,4,2,0,100,0,0
31363,-50,4,2,0,100,0,0
32030,-50,4,2,0,100,0,0
32298,-100,4,2,0,100,0,0
32832,-50,4,2,0,100,0,0
35370,-200,4,2,0,100,0,0
36038,-50,4,2,0,100,0,0
36572,-200,4,2,0,100,0,0
36839,-50,4,2,0,100,0,0
38642,-200,4,2,0,100,0,0
39243,-50,4,2,0,100,0,0
42049,-200,4,2,0,100,0,0
42316,-50,4,2,0,100,0,0
46056,-200,4,2,0,100,0,0
46456,-50,4,2,0,100,0,0
46857,-200,4,2,0,100,0,0
47458,-50,4,2,0,100,0,0
48527,-200,4,2,0,100,0,0
48861,-50,4,2,0,100,0,0
51866,-100,4,2,0,100,0,0

[HitObjects]
224,160,6384,5,0,0:0:0:0:
224,224,6785,1,0,0:0:0:0:
288,224,7186,1,0,0:0:0:0:
288,160,7586,1,0,0:0:0:0:
256,103,7987,5,0,0:0:0:0:
167,192,8388,1,0,0:0:0:0:
256,280,8789,1,0,0:0:0:0:
344,192,9189,1,0,0:0:0:0:
343,102,9590,5,0,0:0:0:0:
166,102,9991,1,0,0:0:0:0:
166,279,10392,1,0,0:0:0:0:
343,279,10792,1,0,0:0:0:0:
432,288,11193,6,0,B|468:193|468:193|430:99|430:99,1,200
80,288,11994,2,0,B|43:193|43:193|81:99|81:99,1,200
293,322,12796,6,0,P|338:309|378:221,1,150
373,145,13197,2,0,B|304:145|304:145|287:127|287:127|270:145|270:145|184:145,1,200
74,134,13998,6,0,P|86:203|136:289,1,166.666666666667
74,134,14399,2,0,P|78:203|148:328,1,208.333333333333
74,134,14799,2,0,P|78:203|156:371,1,250.000009536744
151,365,15200,1,0,0:0:0:0:
458,30,15601,6,0,L|383:19,1,50
359,29,16002,2,0,L|434:18,1,50
459,161,16402,6,0,L|406:106,1,50
340,58,16803,2,0,L|405:95,1,50
383,246,17204,6,0,L|365:172,1,50
312,86,17605,2,0,L|350:151,1,50
253,304,18005,6,0,L|274:231,1,50
276,101,18406,2,0,L|276:176,1,50
92,294,18807,6,0,L|146:241,1,50
240,97,19207,1,0,0:0:0:0:
81,257,19508,1,0,0:0:0:0:
136,207,19608,2,0,L|121:196,2,12.5
240,85,20009,5,0,0:0:0:0:
117,371,20410,2,0,L|102:360,2,12.5
302,186,20810,1,0,0:0:0:0:
16,278,21211,2,0,L|1:267,10,12.5
16,278,21612,1,0,0:0:0:0:
16,203,21745,1,0,0:0:0:0:
81,240,21879,1,0,0:0:0:0:
16,203,22012,5,0,0:0:0:0:
129,270,22146,1,0,0:0:0:0:
132,136,22280,1,0,0:0:0:0:
133,70,22346,1,0,0:0:0:0:
134,3,22413,1,0,0:0:0:0:
256,192,24818,6,0,L|241:181,16,12.5
80,32,25469,1,0,0:0:0:0:
80,32,25619,2,0,B|96:80|96:80|80:128|80:128|80:128|80:128,1,75.0000028610231
70,135,25919,2,0,L|48:192,1,50
17,259,26220,1,0,0:0:0:0:
97,288,26420,6,0,B|131:266|131:266|216:304|216:304|281:224|280:329|340:230,1,266.666666666667
432,44,26821,2,0,L|483:33,3,50
431,163,27222,6,0,B|335:109|335:109|228:122|228:122|136:78|175:155,1,266.666666666667
192,345,27623,2,0,L|228:379,3,50
449,264,28023,6,0,B|429:215|429:215|429:215,1,50
352,32,28290,1,0,0:0:0:0:
339,41,28424,6,0,L|324:7,3,25
406,279,28691,1,0,0:0:0:0:
337,346,28825,2,0,B|325:258|325:258|229:279|229:279|221:228|171:186,1,266.666666666667
52,24,29225,2,0,L|37:-10,3,25
186,32,29626,6,0,B|189:89|189:89|154:75|224:121|109:128|109:128|62:174|106:276,1,266.666666666667
108,129,30027,2,0,P|86:174|100:244,2,106.666666666667
297,30,30428,2,0,B|260:75|332:83|332:83|331:154|331:154|411:220|379:195,1,213.333333333333
498,358,30828,2,0,L|463:350,1,33.3333333333333
405,320,31229,1,0,0:0:0:0:
372,291,31295,1,0,0:0:0:0:
332,284,31363,2,0,P|304:285|226:213,1,133.333333333333
91,320,31630,6,0,P|93:279|105:254,3,66.6666666666667
104,257,32097,2,0,L|106:185,1,66.6666666666667
101,188,32298,2,0,P|94:139|70:92,1,100
102,224,32632,1,0,0:0:0:0:
129,353,32832,6,0,B|172:274|149:226|149:225|227:188,1,200
129,353,33166,2,0,P|148:308|154:269,2,66.6666666666667
198,368,33633,2,0,B|218:307|218:307|179:238|179:237|234:178,1,200
198,368,34034,6,0,L|221:292,2,66.6666666666667
267,343,34435,2,0,B|280:269|280:269|247:221|247:221|299:158,1,200
267,343,34836,2,0,P|383:248|439:318,1,266.666666666667
437,309,35236,6,0,P|451:261|432:228,1,66.6666666666667
431,212,35503,2,0,L|418:156,1,50
385,33,35837,1,0,0:0:0:0:
303,40,36038,2,0,P|221:78|135:298,1,333.333333333333
385,33,36572,6,0,L|359:63,1,33.3333333333333
332,92,36839,2,0,B|279:131|279:131|261:179|261:179|218:206|218:206|201:253|201:253,1,200
124,195,37240,2,0,L|23:100,2,133.333333333333
353,331,37641,2,0,L|408:284,1,66.6666666666667
286,222,37774,2,0,L|243:159,1,66.6666666666667
161,257,38041,5,0,0:0:0:0:
146,0,38175,1,0,0:0:0:0:
374,117,38308,1,0,0:0:0:0:
374,117,38442,6,0,L|373:188,1,66.6666666666667
372,207,38709,2,0,P|367:249|354:264,1,50
265,346,39043,1,0,0:0:0:0:
71,322,39243,6,0,B|87:267|134:282|134:282|191:252|191:252|199:215|199:214|226:228|227:228|286:190,1,266.666666666667
418,47,39644,2,0,L|479:22,3,66.6666666666667
453,190,40045,2,0,B|407:140|407:140|331:160|212:84,1,266.666666666667
28,275,40446,2,0,L|-43:302,3,66.6666666666667
364,286,40846,6,0,B|344:237|344:237|344:237,1,50
267,54,41113,1,0,0:0:0:0:
321,47,41247,6,0,L|315:10,3,25
319,294,41514,1,0,0:0:0:0:
444,57,41648,2,0,B|371:74|371:74|372:145|299:95|299:95|239:174,1,266.666666666667
51,343,42049,2,0,L|88:343,1,33.3333333333333
284,343,42316,1,0,0:0:0:0:
284,343,42449,2,0,B|295:274|295:274|202:308|202:309|272:171,1,266.666666666667
369,5,42850,6,0,L|402:-55,3,66.6666666666667
261,29,43251,2,0,B|279:118|377:132|377:132|469:262,1,266.666666666667
284,343,44052,1,0,0:0:0:0:
277,299,44118,1,0,0:0:0:0:
251,268,44186,2,0,P|228:250|215:145,1,133.333333333333
43,141,44453,6,0,P|70:110|96:99,3,66.6666666666667
391,59,44854,2,0,B|304:84|304:84|412:143|412:143|389:192,1,266.666666666667
240,323,45321,1,0,0:0:0:0:
240,323,45455,1,0,0:0:0:0:
148,278,45655,6,0,P|257:219|343:313,1,266.666666666667
365,338,46056,2,0,L|433:309,1,66.6666666666667
364,278,46456,6,0,P|255:219|169:313,1,266.666666666667
147,338,46857,2,0,L|67:306,1,83.3333333333333
69,307,47458,1,0,0:0:0:0:
110,215,47592,2,0,B|139:157|139:157|170:161|170:161|156:124|156:124|141:83|141:83|180:87|180:87|199:54,1,250
435,278,48059,6,0,L|286:133,1,200
291,138,48527,2,0,L|262:119,1,33.3333333333333
311,51,48861,2,0,P|198:61|220:185,1,266.666666666667
402,261,49395,1,0,0:0:0:0:
344,226,49662,2,0,L|417:270,1,66.6666666666667
433,172,50931,6,0,B|380:211|380:211|362:259|362:259|319:286|319:286|302:333|302:333,1,200
309,317,51332,1,0,0:0:0:0:
308,316,51600,1,0,0:0:0:0:
308,182,51733,1,0,0:0:0:0:
423,249,51866,1,0,0:0:0:0:
423,249,52000,2,0,L|343:250,1,66.6666666666667
