osu file format v14

[General]
AudioFilename: Paper Planes.mp3
AudioLeadIn: 0
PreviewTime: 40604
Countdown: 0
SampleSet: Soft
StackLeniency: 0.7
Mode: 0
LetterboxInBreaks: 1
WidescreenStoryboard: 1

[Editor]
DistanceSpacing: 1
BeatDivisor: 2
GridSize: 8
TimelineZoom: 1.5

[Metadata]
Title:Paper Planes
TitleUnicode:Paper Planes
Artist:Virtual Riot
ArtistUnicode:Virtual Riot
Creator:Soggypancake
Version:Normal
Source:
Tags:Drum N Bass DnB Liquid
BeatmapID:496901
BeatmapSetID:210179

[Difficulty]
HPDrainRate:0
CircleSize:2.5
OverallDifficulty:0
ApproachRate:1
SliderMultiplier:0.800000005960464
SliderTickRate:2

[Events]
//Background and Video events
0,0,"o1688748.jpg",0,0
//Break Periods
2,87960,97050
//Storyboard Layer 0 (Background)
//Storyboard Layer 1 (Fail)
//Storyboard Layer 2 (Pass)
//Storyboard Layer 3 (Foreground)
//Storyboard Sound Samples

[TimingPoints]
10979,342.778793418647,4,2,0,10,1,0
14920,-100,4,2,0,20,0,0
17663,-100,4,2,0,30,0,0
21947,-100,4,2,0,50,0,0
25889,-100,4,2,0,60,0,0
30003,-100,4,2,0,70,0,0
32916,-100,4,2,0,80,0,0
35659,-100,4,2,0,90,0,0
37030,-100,4,2,0,100,0,0
43885,-80,4,1,0,55,0,1
49541,-80,4,1,0,65,0,1
55026,-80,4,1,0,75,0,1
65823,-80,4,1,0,60,0,0
86390,-133.333333333333,4,2,0,60,0,0
87247,-100,4,2,0,25,0,0
87418,-50,4,2,0,45,0,0
87761,-100,4,1,0,80,0,0
98730,-100,4,2,0,50,0,0
109699,-100,4,1,0,45,0,0
142777,-100,4,2,0,60,0,0
164592,342.778793418647,4,2,0,60,1,0
175560,-80,4,1,0,60,0,1
197498,-100,4,2,0,100,0,0
198355,-100,4,2,0,80,0,0
202469,-100,4,2,0,70,0,0
205554,-100,4,2,0,60,0,0
208467,-100,4,2,0,50,0,0
209667,-100,4,2,0,45,0,0
210695,-100,4,2,0,35,0,0
217894,-100,4,2,0,25,0,0

[Colours]
Combo1 : 255,255,0
Combo2 : 0,255,0
Combo3 : 0,0,149
Combo4 : 185,11,37

[HitObjects]
96,144,10978,6,0,B|112:72|112:72|232:72,1,160.000001192093
336,72,12178,2,0,B|392:64|432:80|440:88|440:88|416:192,1,200.000001490116
408,232,13207,1,0,0:0:0:0:
320,304,13549,2,0,B|288:344|200:272|168:272|120:256,1,200.000001490116
88,136,14920,6,0,B|116:61|116:61|168:38|193:39|190:46|238:56,1,200.000001490116
280,48,15949,1,0,0:0:0:0:
400,80,16292,2,0,B|478:93|478:93|511:140|514:165|507:163|506:212,1,200.000001490116
376,272,17663,6,0,B|288:272|256:264|240:224|320:184|256:144,1,200.000001490116
216,160,18691,1,0,0:0:0:0:
80,168,19034,2,0,B|77:134|22:99|59:-7|141:31,1,200.000001490116
272,24,20405,2,0,B|312:8|368:8|392:48|344:160,1,200.000001490116
152,336,21947,6,0,L|320:336,1,160.000001192093
456,336,23147,2,0,B|456:256|456:208|456:208|368:176,1,200.000001490116
336,176,24175,1,0,0:0:0:0:
208,160,24518,2,0,B|128:112|128:112|224:24,1,200.000001490116
368,56,25889,6,0,B|408:144|408:144|352:240,1,200.000001490116
320,272,26918,1,0,0:0:0:0:
200,320,27260,2,0,B|136:256|136:256|184:144,1,200.000001490116
176,48,28632,6,0,B|248:24|264:72|336:64|336:64|384:48,1,200.000001490116
408,80,29660,1,0,0:0:0:0:
360,216,30003,2,0,B|256:176|200:144|136:184,1,200.000001490116
96,80,31374,2,0,B|40:112|40:216|80:272,1,200.000001490116
216,344,32916,1,0,0:0:0:0:
320,304,33259,2,0,L|408:304,2,80.0000005960464
320,216,34287,1,0,0:0:0:0:
312,128,34630,2,0,L|232:128,2,80.0000005960464
392,128,35659,5,0,0:0:0:0:
392,216,36001,2,0,L|392:304,2,80.0000005960464
288,216,37030,1,0,0:0:0:0:
200,216,37372,2,0,L|104:216,2,80.0000005960464,0|0|0,0:0|0:0|0:0,0:0:0:0:
256,192,38401,12,0,42857,0:0:0:0:
80,240,43885,5,0,0:0:0:0:
112,176,44057,2,0,L|152:104,2,50.000000372529,0|0|0,0:0|0:0|0:0,0:0:0:0:
168,216,44571,2,0,L|288:216,1,100.000000745058
336,216,45085,2,0,L|336:144,2,50.000000372529,0|0|0,0:0|0:0|0:0,0:0:0:0:
408,208,45599,2,0,P|472:144|464:112,1,100.000000745058
440,88,46113,1,0,0:0:0:0:
336,40,46456,1,0,0:0:0:0:
232,64,46799,6,0,L|144:64,2,50.000000372529,0|0|0,0:0|0:0|0:0,0:0:0:0:
216,112,47313,2,0,P|176:184|192:224,1,100.000000745058
136,248,47827,2,0,L|56:248,2,50.000000372529,0|0|0,0:0|0:0|0:0,0:0:0:0:
184,304,48341,2,0,P|248:344|304:336,1,100.000000745058
344,336,48856,1,0,0:0:0:0:
416,336,49198,6,0,L|456:240,1,100.000000745058
384,168,49713,2,0,L|296:128,2,50.000000372529,0|0|0,0:0|0:0|0:0,0:0:0:0:
424,112,50227,2,0,L|464:64,1,50.000000372529
360,56,50569,2,0,P|328:40|296:32,3,50.000000372529,0|0|0|0,0:0|0:0|0:0|0:0,0:0:0:0:
272,152,51426,6,0,L|360:152,2,50.000000372529,0|0|0,0:0|0:0|0:0,0:0:0:0:
272,256,51941,2,0,L|352:256,2,50.000000372529,0|0|0,0:0|0:0|0:0,0:0:0:0:
168,256,52455,2,0,L|80:256,2,50.000000372529,0|0|0,0:0|0:0|0:0,0:0:0:0:
168,152,52969,2,0,L|88:152,2,50.000000372529,0|0|0,0:0|0:0|0:0,0:0:0:0:
112,64,53483,2,0,P|48:104|24:168,1,100.000000745058,0|0,0:0|0:0,0:0:0:0:
48,224,54169,2,0,L|48:256,8,25.0000001862645,0|0|0|0|0|0|0|0|0,0:0|0:0|0:0|0:0|0:0|0:0|0:0|0:0|0:0,0:0:0:0:
120,240,55026,6,0,L|168:256,2,50.000000372529,0|0|0,0:0|0:0|0:0,0:0:0:0:
120,320,55540,2,0,P|168:352|224:344,1,100.000000745058
288,352,56054,2,0,L|288:280,2,50.000000372529,0|0|0,0:0|0:0|0:0,0:0:0:0:
376,344,56568,2,0,P|376:304|344:248,1,100.000000745058,0|0,0:0|0:0,0:0:0:0:
304,184,57082,1,0,0:0:0:0:
200,184,57425,1,0,0:0:0:0:
88,184,57768,6,0,L|32:184,2,50.000000372529,0|0|0,0:0|0:0|0:0,0:0:0:0:
112,112,58282,2,0,P|128:56|176:40,1,100.000000745058
240,48,58796,2,0,L|240:104,2,50.000000372529,0|0|0,0:0|0:0|0:0,0:0:0:0:
320,40,59310,2,0,P|376:64|376:112,1,100.000000745058
448,144,59824,1,0,0:0:0:0:
456,248,60167,6,0,L|456:312,2,50.000000372529,0|0|0,0:0|0:0|0:0,0:0:0:0:
392,272,60681,1,0,0:0:0:0:
328,320,60853,2,0,L|264:320,1,50.000000372529
216,320,61196,2,0,L|168:320|144:320,1,50.000000372529
80,312,61538,2,0,L|80:248,3,50.000000372529,0|0|0|0,0:0|0:0|0:0|0:0,0:0:0:0:
88,168,62395,6,0,L|32:168,2,50.000000372529,0|0|0,0:0|0:0|0:0,0:0:0:0:
168,168,62909,2,0,L|168:224,2,50.000000372529,0|0|0,0:0|0:0|0:0,0:0:0:0:
256,168,63424,2,0,L|256:96,2,50.000000372529,0|0|0,0:0|0:0|0:0,0:0:0:0:
344,168,63938,2,0,L|344:232,2,50.000000372529,0|0|0,0:0|0:0|0:0,0:0:0:0:
344,88,64452,1,0,0:0:0:0:
424,88,64623,2,0,L|496:88,2,50.000000372529,0|0|0,0:0|0:0|0:0,0:0:0:0:
424,168,65138,2,0,L|424:200,8,25.0000001862645,0|0|0|0|0|0|0|0|0,0:0|0:0|0:0|0:0|0:0|0:0|0:0|0:0|0:0,0:0:0:0:
184,296,66680,6,0,L|120:296,2,50.000000372529,0|0|0,0:0|0:0|0:0,0:0:0:0:
256,296,67194,1,0,0:0:0:0:
330,294,67366,2,0,L|402:294,2,50.000000372529,0|0|0,0:0|0:0|0:0,0:0:0:0:
336,192,68051,5,0,0:0:0:0:
424,152,68394,2,0,L|488:152,2,50.000000372529,0|0|0,0:0|0:0|0:0,0:0:0:0:
448,88,68908,1,0,0:0:0:0:
288,48,69422,6,0,L|360:48,2,50.000000372529,0|0|0,0:0|0:0|0:0,0:0:0:0:
208,48,69936,1,0,0:0:0:0:
128,48,70108,2,0,L|56:48,2,50.000000372529,0|0|0,0:0|0:0|0:0,0:0:0:0:
112,176,70793,5,0,0:0:0:0:
72,232,70965,1,0,0:0:0:0:
96,304,71136,1,0,0:0:0:0:
152,344,71308,2,0,L|224:344,2,50.000000372529
368,352,72165,6,0,L|432:352,2,50.000000372529,0|0|0,0:0|0:0|0:0,0:0:0:0:
400,280,72679,1,0,0:0:0:0:
448,208,72850,2,0,L|392:208,2,50.000000372529
216,208,73536,6,0,L|216:144,1,50.000000372529
216,88,73878,1,0,0:0:0:0:
136,88,74050,2,0,L|16:88,2,100.000000745058,0|0|0,0:0|0:0|0:0,0:0:0:0:
40,224,75250,2,0,L|152:224,2,100.000000745058,0|0|0,0:0|0:0|0:0,0:0:0:0:
72,336,76278,5,0,0:0:0:0:
152,368,76449,1,0,0:0:0:0:
224,344,76621,1,0,0:0:0:0:
288,304,76792,2,0,L|368:216,2,100.000000745058
304,176,77649,1,0,0:0:0:0:
296,64,77992,2,0,L|424:64,2,100.000000745058
168,64,79020,5,0,0:0:0:0:
104,96,79191,1,0,0:0:0:0:
64,152,79363,2,0,L|88:216,1,50.000000372529
56,264,79706,2,0,L|16:320,2,50.000000372529,0|0|0,0:0|0:0|0:0,0:0:0:0:
144,328,80391,1,0,0:0:0:0:
248,328,80734,6,0,L|336:264,2,100.000000745058
192,216,81762,2,0,L|144:160,1,50.000000372529
248,160,82105,2,0,L|360:160,2,100.000000745058
288,64,83133,5,0,0:0:0:0:
392,40,83476,2,0,L|504:40,2,100.000000745058
448,152,84505,1,0,0:0:0:0:
408,264,84847,6,0,L|408:336,1,50.000000372529,0|0,0:0|0:0,0:0:0:0:
336,312,85190,2,0,L|336:368,1,50.000000372529,0|0,0:0|0:0,0:0:0:0:
192,328,86390,6,0,B|160:320|128:296|48:344,1,150.000006839633
72,232,87418,2,0,P|120:208|208:112,1,160.000001192093
144,304,98730,6,0,L|184:304,2,40.0000002980232
80,216,99415,2,0,L|40:216,2,40.0000002980232,0|0|0,0:0|0:0|0:0,0:0:0:0:
128,128,100101,2,0,L|176:56,1,80.0000005960464
272,48,100787,2,0,L|368:48,1,80.0000005960464
432,112,101472,6,0,L|480:112,2,40.0000002980232
360,200,102158,2,0,L|312:200,2,40.0000002980232
432,264,102843,2,0,L|368:328,1,80.0000005960464
288,328,103529,2,0,L|192:328,1,80.0000005960464
192,248,104214,6,0,L|192:192,2,40.0000002980232,0|0|0,0:0|0:0|0:0,0:0:0:0:
272,200,104900,2,0,L|272:144,2,40.0000002980232,0|0|0,0:0|0:0|0:0,0:0:0:0:
168,128,105585,2,0,L|168:40,1,80.0000005960464
256,0,106271,2,0,L|256:96,1,80.0000005960464
384,104,106957,2,0,L|352:136,2,40.0000002980232,0|0|0,0:0|0:0|0:0,0:0:0:0:
424,224,107642,6,0,L|464:256,2,40.0000002980232,0|0|0,0:0|0:0|0:0,0:0:0:0:
328,288,108328,2,0,L|240:288,1,80.0000005960464
64,256,109699,6,0,L|64:176,1,80.0000005960464
56,48,110556,2,0,L|144:48,1,80.0000005960464,0|0,0:0|0:0,0:0:0:0:
184,168,111413,1,0,0:0:0:0:
232,48,111927,5,0,0:0:0:0:
312,56,112098,1,0,0:0:0:0:
368,112,112270,1,0,0:0:0:0:
416,176,112441,2,0,P|392:216|360:232,1,80.0000005960464
256,256,113298,2,0,P|184:240|176:240,1,80.0000005960464
80,176,114155,1,0,0:0:0:0:
120,320,114840,1,0,0:0:0:0:
216,320,115183,6,0,P|256:312|296:320,1,80.0000005960464
400,320,116040,2,0,P|384:264|360:240,1,80.0000005960464
288,176,116726,1,0,0:0:0:0:
152,96,117411,2,0,L|200:72,1,40.0000002980232
272,48,117754,1,0,0:0:0:0:
368,32,117925,2,0,P|400:64|416:96,1,80.0000005960464
472,208,118782,6,0,L|448:288,1,80.0000005960464
352,336,119639,1,0,0:0:0:0:
248,328,119982,2,0,L|256:296,8,20.0000001490116,0|0|0|0|0|0|0|0|0,0:0|0:0|0:0|0:0|0:0|0:0|0:0|0:0|0:0,0:0:0:0:
176,280,120839,6,0,L|152:232,1,40.0000002980232
56,152,121525,2,0,L|136:104,1,80.0000005960464
224,56,122382,1,0,0:0:0:0:
344,64,122896,1,0,0:0:0:0:
416,104,123067,1,0,0:0:0:0:
456,176,123239,1,0,0:0:0:0:
416,240,123410,6,0,L|328:200,1,80.0000005960464
160,160,124267,2,0,L|160:256,1,80.0000005960464,0|0,0:0|0:0,0:0:0:0:
232,328,125124,1,0,0:0:0:0:
352,296,125467,2,0,L|400:296,2,40.0000002980232,0|0|0,0:0|0:0|0:0,0:0:0:0:
424,200,126152,2,0,L|472:136,1,80.0000005960464
408,48,127009,2,0,L|328:48,1,80.0000005960464
168,48,127866,5,0,0:0:0:0:
56,224,128723,5,0,0:0:0:0:
48,288,128894,2,0,L|144:288,1,80.0000005960464
288,288,129751,2,0,L|232:224,1,80.0000005960464
440,72,131637,6,0,P|368:56|272:88,1,160.000001192093
136,80,132836,1,0,0:0:0:0:
80,120,133008,2,0,P|56:160|64:272,1,160.000001192093
112,320,133865,1,0,0:0:0:0:
288,320,134207,6,0,B|240:256|192:248|224:144,1,200.000001490116
328,56,135579,1,0,0:0:0:0:
392,48,135750,2,0,B|456:48|456:48|408:136,1,160.000001192093
456,152,136607,1,0,0:0:0:0:
432,264,136950,6,0,B|496:336|496:336|392:344,1,200.000001490116
256,272,138321,1,0,0:0:0:0:
320,248,138492,2,0,B|344:184|312:120|312:120|296:80,1,160.000001192093
256,56,139349,1,0,0:0:0:0:
128,48,139692,2,0,B|80:48|16:24|40:176,1,200.000001490116
184,192,141063,5,0,0:0:0:0:
128,240,141234,2,0,P|104:304|144:352,1,120.00000089407
192,344,141920,2,0,L|216:344,8,20.0000001490116,0|0|0|0|0|0|0|0|0,0:0|0:0|0:0|0:0|0:0|0:0|0:0|0:0|0:0,0:0:0:0:
248,272,142777,6,0,B|296:272|344:280|344:280|392:264,1,140.000001043081
512,336,143805,1,0,0:0:0:0:
480,288,143977,2,0,B|496:184|496:184|448:152,1,160.000001192093
424,96,144834,1,0,0:0:0:0:
296,56,145176,2,0,B|128:56|128:56|104:88,1,200.000001490116
72,224,146548,5,0,0:0:0:0:
104,280,146719,2,0,B|152:304|152:304|216:312|240:304|256:296,1,160.000001192093
312,320,147576,1,0,0:0:0:0:
448,304,147919,2,0,B|472:240|392:160|440:96,1,200.000001490116
288,32,149290,5,0,0:0:0:0:
216,40,149461,2,0,P|208:112|256:200,1,160.000001192093
312,168,150318,1,0,0:0:0:0:
296,336,150661,2,0,B|256:296|232:264|232:264|128:264,1,200.000001490116
80,104,152032,5,0,0:0:0:0:
128,64,152203,2,0,B|168:40|168:40|288:40,1,160.000001192093
384,48,153574,5,0,0:0:0:0:
440,112,153917,1,0,0:0:0:0:
456,192,154260,1,0,0:0:0:0:
432,264,154603,2,0,P|416:288|336:312,1,80.0000005960464
272,320,155288,1,0,0:0:0:0:
216,248,155631,1,0,0:0:0:0:
144,304,155974,2,0,P|88:272|40:288,1,80.0000005960464
96,184,156659,5,0,0:0:0:0:
40,112,157002,1,0,0:0:0:0:
112,48,157345,2,0,P|176:56|208:40,1,80.0000005960464
288,64,158031,1,0,0:0:0:0:
232,136,158373,1,0,0:0:0:0:
208,232,158716,2,0,L|288:336,1,80.0000005960464
352,288,159402,5,0,0:0:0:0:
328,192,159744,1,0,0:0:0:0:
384,112,160087,2,0,L|320:48,1,80.0000005960464
232,40,160773,1,0,0:0:0:0:
128,40,161116,1,0,0:0:0:0:
104,136,161458,2,0,L|72:232,1,80.0000005960464
176,232,162144,5,0,0:0:0:0:
152,320,162487,1,0,0:0:0:0:
264,328,162830,2,0,L|360:328,1,80.0000005960464
432,320,163515,1,0,0:0:0:0:
464,232,163858,1,0,0:0:0:0:
432,136,164201,1,0,0:0:0:0:
368,56,164592,5,0,0:0:0:0:
272,56,164934,2,0,L|152:56,2,80.0000005960464,0|0|0,0:0|0:0|0:0,0:0:0:0:
280,136,165963,1,0,0:0:0:0:
280,216,166305,2,0,L|280:328,2,80.0000005960464,0|0|0,0:0|0:0|0:0,0:0:0:0:
192,216,167334,5,0,0:0:0:0:
112,216,167677,2,0,L|8:216,2,80.0000005960464,0|0|0,0:0|0:0|0:0,0:0:0:0:
192,136,168705,1,0,0:0:0:0:
120,80,169048,2,0,L|40:16,2,80.0000005960464,0|0|0,0:0|0:0|0:0,0:0:0:0:
200,48,170076,5,0,0:0:0:0:
256,192,170419,12,0,174361,0:0:0:0:
72,288,175560,5,0,0:0:0:0:
112,248,175732,2,0,L|168:248,2,50.000000372529,0|0|0,0:0|0:0|0:0,0:0:0:0:
128,192,176246,2,0,L|248:192,1,100.000000745058
152,128,176760,2,0,L|88:88,2,50.000000372529,0|0|0,0:0|0:0|0:0,0:0:0:0:
200,80,177274,2,0,P|280:64|312:88,1,100.000000745058
352,112,177788,1,0,0:0:0:0:
464,200,178131,1,0,0:0:0:0:
344,256,178474,6,0,L|256:256,2,50.000000372529,0|0|0,0:0|0:0|0:0,0:0:0:0:
304,192,178988,2,0,P|256:176|200:200,1,100.000000745058,0|0,0:0|0:0,0:0:0:0:
192,256,179502,2,0,L|112:256,2,50.000000372529,0|0|0,0:0|0:0|0:0,0:0:0:0:
216,328,180017,2,0,P|288:336|328:304,1,100.000000745058
368,320,180531,1,0,0:0:0:0:
472,240,180873,6,0,L|400:168,1,100.000000745058
336,136,181388,2,0,L|288:176,2,50.000000372529,0|0|0,0:0|0:0|0:0,0:0:0:0:
376,72,181902,2,0,L|296:72,1,50.000000372529
280,24,182245,1,0,0:0:0:0:
208,56,182416,2,0,L|208:0,3,50.000000372529,0|0|0|0,0:0|0:0|0:0|0:0,0:0:0:0:
128,64,183102,6,0,L|88:32,2,50.000000372529,0|0|0,0:0|0:0|0:0,0:0:0:0:
184,120,183616,2,0,L|248:120,2,50.000000372529,0|0|0,0:0|0:0|0:0,0:0:0:0:
120,144,184130,2,0,L|56:144,2,50.000000372529,0|0|0,0:0|0:0|0:0,0:0:0:0:
184,192,184644,2,0,L|224:224,2,50.000000372529,0|0|0,0:0|0:0|0:0,0:0:0:0:
112,224,185158,2,0,P|96:296|128:320,1,100.000000745058
208,320,185844,2,0,L|240:320,8,25.0000001862645,0|0|0|0|0|0|0|0|0,0:0|0:0|0:0|0:0|0:0|0:0|0:0|0:0|0:0,0:0:0:0:
288,264,186701,6,0,L|240:216,2,50.000000372529,0|0|0,0:0|0:0|0:0,0:0:0:0:
320,176,187215,2,0,P|288:136|288:72,1,100.000000745058
296,32,187729,2,0,L|360:32,2,50.000000372529
408,56,188243,2,0,P|432:96|432:160,1,100.000000745058
440,216,188757,1,0,0:0:0:0:
432,312,189100,1,0,0:0:0:0:
328,304,189443,6,0,L|256:304,2,50.000000372529,0|0|0,0:0|0:0|0:0,0:0:0:0:
272,232,189957,2,0,P|256:192|192:168,1,100.000000745058
160,232,190471,2,0,L|104:192,2,50.000000372529,0|0|0,0:0|0:0|0:0,0:0:0:0:
96,272,190985,2,0,P|40:232|24:184,1,100.000000745058
32,136,191500,1,0,0:0:0:0:
136,56,191842,6,0,L|256:56,1,100.000000745058
264,120,192357,2,0,L|264:192,2,50.000000372529
320,96,192871,2,0,L|384:96,1,50.000000372529
392,32,193214,1,0,0:0:0:0:
456,64,193385,2,0,L|504:24,3,50.000000372529
464,168,194070,6,0,L|488:232,2,50.000000372529,0|0|0,0:0|0:0|0:0,0:0:0:0:
392,200,194585,2,0,L|416:272,2,50.000000372529,0|0|0,0:0|0:0|0:0,0:0:0:0:
320,232,195099,2,0,L|336:288,2,50.000000372529,0|0|0,0:0|0:0|0:0,0:0:0:0:
248,256,195613,2,0,L|264:320,2,50.000000372529,0|0|0,0:0|0:0|0:0,0:0:0:0:
176,280,196127,2,0,L|192:352,2,50.000000372529,0|0|0,0:0|0:0|0:0,0:0:0:0:
88,272,196641,2,0,L|88:200,1,50.000000372529
56,128,196984,2,0,L|96:128,6,25.0000001862645,0|0|0|0|0|0|0,0:0|0:0|0:0|0:0|0:0|0:0|0:0,0:0:0:0:
256,176,198355,6,0,L|304:176,2,40.0000002980232,0|0|0,0:0|0:0|0:0,0:0:0:0:
288,96,198869,1,0,0:0:0:0:
328,40,199041,1,0,0:0:0:0:
392,32,199212,2,0,L|440:32,1,40.0000002980232
480,144,199726,6,0,L|480:192,1,40.0000002980232
480,240,200069,2,0,L|480:296,2,40.0000002980232,0|0|0,0:0|0:0|0:0,0:0:0:0:
408,208,200583,1,0,0:0:0:0:
352,296,201097,2,0,L|352:344,2,40.0000002980232,0|0|0,0:0|0:0|0:0,0:0:0:0:
280,264,201612,1,0,0:0:0:0:
216,224,201783,2,0,L|168:184,2,40.0000002980232
144,320,202469,6,0,L|104:336,1,40.0000002980232
40,344,202811,1,0,0:0:0:0:
32,272,202983,2,0,P|8:216|56:112,1,160.000001192093
176,40,204182,2,0,P|272:16|336:56,1,160.000001192093
472,72,205211,2,0,L|472:128,1,40.0000002980232
456,184,205554,2,0,P|376:168|256:200,1,200.000001490116
128,240,206925,2,0,P|176:312|296:336,1,200.000001490116
440,224,208467,6,0,P|384:160|296:136,1,160.000001192093
144,80,209667,2,0,P|200:40|288:40,1,160.000001192093
408,40,210695,1,0,0:0:0:0:
456,136,211038,2,0,P|424:240|448:304,1,160.000001192093
328,320,212409,6,0,P|256:280|144:288,1,160.000001192093
64,240,213437,1,0,0:0:0:0:
88,128,213780,2,0,P|144:168|240:176,1,160.000001192093
328,56,215151,2,0,B|384:104|384:104|376:184|464:232,1,200.000001490116
408,288,216180,1,0,0:0:0:0:
272,344,216522,2,0,B|248:296|240:280|240:280|160:272|168:168,1,200.000001490116,0|0,0:0|0:0,0:0:0:0:
288,128,217894,2,0,B|256:8|344:-48|560:48|312:240|336:56,1,360.000002682209
