osu file format v14

[General]
AudioFilename: Paper Planes.mp3
AudioLeadIn: 0
PreviewTime: 40604
Countdown: 0
SampleSet: Normal
StackLeniency: 0.7
Mode: 0
LetterboxInBreaks: 1
WidescreenStoryboard: 1

[Editor]
DistanceSpacing: 1.8
BeatDivisor: 4
GridSize: 8
TimelineZoom: 1.5

[Metadata]
Title:Paper Planes
TitleUnicode:Paper Planes
Artist:Virtual Riot
ArtistUnicode:Virtual Riot
Creator:Soggypancake
Version:Insane
Source:
Tags:Drum N Bass DnB Liquid
BeatmapID:494497
BeatmapSetID:210179

[Difficulty]
HPDrainRate:7
CircleSize:4
OverallDifficulty:7
ApproachRate:9
SliderMultiplier:1.8
SliderTickRate:1

[Events]
//Background and Video events
0,0,"o1688748.jpg",0,0
//Break Periods
2,87960,98130
//Storyboard Layer 0 (Background)
//Storyboard Layer 1 (Fail)
//Storyboard Layer 2 (Pass)
//Storyboard Layer 3 (Foreground)
//Storyboard Sound Samples

[TimingPoints]
10979,342.778793418647,4,2,0,25,1,0
16292,-100,4,2,0,30,0,0
17663,-100,4,2,0,35,0,0
19205,-100,4,2,0,40,0,0
21947,-100,4,2,0,45,0,0
27432,-100,4,2,0,50,0,0
30003,-100,4,2,0,55,0,0
32916,-100,4,2,0,60,0,0
34287,-100,4,2,0,65,0,0
35659,-100,4,2,0,75,0,0
37030,-100,4,2,0,85,0,0
38401,-100,4,2,0,95,0,0
43885,-80,4,1,0,70,0,1
65737,-80,4,1,0,70,0,0
68051,-80,4,1,0,75,0,0
86390,-133.333333333333,4,1,0,60,0,0
87247,-100,4,1,0,25,0,0
87418,-50,4,1,0,60,0,0
87761,-100,4,1,0,35,0,0
98730,-100,4,2,0,35,0,0
109699,-100,4,2,0,35,0,0
131637,-100,4,2,0,45,0,0
137292,-100,4,2,0,50,0,0
140035,-100,4,2,0,55,0,0
145519,-100,4,2,0,60,0,0
151004,-100,4,2,0,65,0,0
153574,-100,4,2,0,25,0,0
158888,-100,4,2,0,35,0,0
161630,-100,4,2,0,45,0,0
164592,342.778793418647,4,2,0,55,1,0
165963,-100,4,2,0,60,0,0
167334,-100,4,2,0,65,0,0
168705,-100,4,2,0,75,0,0
175560,-80,4,1,0,70,0,1
197450,-100,4,2,0,60,0,0
199726,-100,4,2,0,50,0,0
202469,-100,4,2,0,40,0,0
205211,-100,4,2,0,30,0,0

[Colours]
Combo1 : 255,255,0
Combo2 : 0,255,0
Combo3 : 0,0,149
Combo4 : 185,11,37

[HitObjects]
200,320,10978,5,0,0:0:0:0:
104,280,11150,1,0,0:0:0:0:
48,208,11321,2,0,P|104:184|136:200,1,90
216,224,11664,1,0,0:0:0:0:
304,256,11835,1,0,0:0:0:0:
384,208,12007,2,0,P|352:168|288:160,1,90
224,152,12350,5,0,0:0:0:0:
144,104,12521,1,0,0:0:0:0:
200,24,12692,2,0,P|248:8|304:32,1,90
352,64,13035,1,0,0:0:0:0:
400,136,13207,1,0,0:0:0:0:
376,216,13378,2,0,P|336:256|280:264,1,90
224,240,13721,5,0,0:0:0:0:
160,176,13892,1,0,0:0:0:0:
152,88,14064,2,0,P|112:128|96:176,1,90
48,224,14406,1,0,0:0:0:0:
16,304,14578,1,0,0:0:0:0:
80,376,14749,2,0,P|128:360|176:384,1,90
224,296,15092,5,0,0:0:0:0:
296,360,15263,1,0,0:0:0:0:
376,312,15435,2,0,L|312:240,1,90
248,176,15777,1,0,0:0:0:0:
272,88,15949,1,0,0:0:0:0:
360,112,16120,2,0,L|272:184,1,90
96,304,16463,5,0,0:0:0:0:
48,224,16634,1,0,0:0:0:0:
0,144,16806,2,0,L|96:168,1,90
272,232,17149,1,0,0:0:0:0:
288,140,17320,1,0,0:0:0:0:
304,48,17491,2,0,L|222:104,1,90
104,208,17834,5,0,0:0:0:0:
160,264,18005,1,0,0:0:0:0:
224,312,18177,2,0,P|304:280|320:248,1,90
304,144,18520,1,0,0:0:0:0:
368,96,18691,1,0,0:0:0:0:
448,96,18862,2,0,P|480:160|480:208,1,90
416,272,19205,5,0,0:0:0:0:
376,320,19377,1,0,0:0:0:0:
320,336,19548,2,0,P|288:288|296:248,1,90
232,136,19891,1,0,0:0:0:0:
176,152,20062,1,0,0:0:0:0:
136,200,20234,1,0,0:0:0:0:
296,184,20576,5,0,0:0:0:0:
352,160,20748,1,0,0:0:0:0:
384,112,20919,1,0,0:0:0:0:
488,256,21262,1,0,0:0:0:0:
432,288,21433,1,0,0:0:0:0:
408,344,21605,1,0,0:0:0:0:
104,288,21947,5,0,0:0:0:0:
144,216,22119,1,0,0:0:0:0:
216,176,22290,1,0,0:0:0:0:
64,160,22462,1,0,0:0:0:0:
58,166,22547,1,0,0:0:0:0:
53,172,22633,1,0,0:0:0:0:
112,56,22804,1,0,0:0:0:0:
224,32,22976,2,0,P|280:32|344:72,1,90
456,128,23319,5,0,0:0:0:0:
325,156,23490,1,0,0:0:0:0:
427,258,23661,1,0,0:0:0:0:
208,160,23833,1,0,0:0:0:0:
208,160,23918,1,0,0:0:0:0:
208,160,24004,1,0,0:0:0:0:
144,264,24175,1,0,0:0:0:0:
101,165,24347,2,0,P|64:208|56:248,1,90
200,352,24690,6,0,P|224:304|208:248,1,90
208,160,25032,1,0,0:0:0:0:
304,48,25204,1,0,0:0:0:0:
312,40,25290,1,0,0:0:0:0:
320,32,25375,1,0,0:0:0:0:
184,72,25547,1,0,0:0:0:0:
48,80,25718,2,0,P|96:32|104:8,1,90
128,160,26061,5,0,0:0:0:0:
48,304,26232,1,0,0:0:0:0:
192,368,26404,1,0,0:0:0:0:
264,232,26575,1,0,0:0:0:0:
264,232,26661,1,0,0:0:0:0:
264,232,26746,1,0,0:0:0:0:
408,328,26918,1,0,0:0:0:0:
432,320,27089,2,0,P|464:264|456:224,1,90
440,112,27432,6,0,P|392:72|384:8,1,90
304,176,27775,2,0,P|216:168|200:136,1,90
208,168,28032,1,0,0:0:0:0:
192,176,28117,1,0,0:0:0:0:
16,232,28289,1,0,0:0:0:0:
40,248,28460,2,0,L|120:336,1,90
240,344,28803,5,0,0:0:0:0:
328,256,28974,1,0,0:0:0:0:
240,344,29146,1,0,0:0:0:0:
200,200,29317,1,0,0:0:0:0:
189,194,29403,1,0,0:0:0:0:
168,200,29489,2,0,L|72:248,1,90
256,80,29831,1,0,0:0:0:0:
368,56,30003,2,0,P|432:56|472:80,2,90,0|0|0,0:0|0:0|0:0,0:0:0:0:
256,80,30517,5,0,0:0:0:0:
136,32,30688,1,0,0:0:0:0:
136,32,30774,1,0,0:0:0:0:
136,32,30860,1,0,0:0:0:0:
40,104,31031,1,0,0:0:0:0:
104,208,31202,2,0,L|208:224,1,90
320,160,31545,5,0,0:0:0:0:
408,208,31717,1,0,0:0:0:0:
448,304,31888,1,0,0:0:0:0:
456,144,32059,1,0,0:0:0:0:
456,136,32145,1,0,0:0:0:0:
464,128,32231,1,0,0:0:0:0:
320,160,32402,1,0,0:0:0:0:
240,208,32574,2,0,P|200:272|160:272,1,90
288,336,32916,5,0,0:0:0:0:
432,192,33259,1,0,0:0:0:0:
256,40,33602,1,0,0:0:0:0:
72,192,33945,1,0,0:0:0:0:
302,336,34287,5,0,0:0:0:0:
423,137,34630,1,0,0:0:0:0:
209,47,34973,1,0,0:0:0:0:
81,248,35316,1,0,0:0:0:0:
349,311,35659,5,0,0:0:0:0:
394,83,36001,1,0,0:0:0:0:
162,72,36344,1,0,0:0:0:0:
111,305,36687,1,0,0:0:0:0:
388,265,37030,5,0,0:0:0:0:
341,38,37372,1,0,0:0:0:0:
123,118,37715,1,0,0:0:0:0:
166,352,38058,1,0,0:0:0:0:
344,224,38401,5,0,0:0:0:0:
192,128,38744,1,0,0:0:0:0:
256,192,39086,12,0,42857,0:0:0:0:
232,192,43885,5,0,0:0:0:0:
256,128,44057,2,0,L|368:48,1,112.5
424,64,44399,1,0,0:0:0:0:
408,144,44571,2,0,L|208:296,1,225
168,336,45085,1,0,0:0:0:0:
96,272,45256,2,0,L|0:176,1,112.5
64,48,45599,2,0,L|296:48,1,225
240,184,46113,1,0,0:0:0:0:
416,320,46456,1,0,0:0:0:0:
256,256,46799,6,0,L|144:328,1,112.5,0|0,0:0|0:0,0:0:0:0:
88,320,47142,1,0,0:0:0:0:
96,232,47313,2,0,L|312:96,1,225
368,72,47827,1,0,0:0:0:0:
432,136,47999,2,0,L|520:224,1,112.5
448,336,48341,2,0,L|224:336,1,225
272,200,48856,1,0,0:0:0:0:
128,80,49198,1,0,0:0:0:0:
32,168,49370,6,0,P|72:240|112:248,2,112.5,0|0|0,0:0|0:0|0:0,0:0:0:0:
112,40,49884,1,0,0:0:0:0:
264,32,50055,2,0,P|320:64|328:128,1,112.5
376,224,50398,1,0,0:0:0:0:
288,344,50569,1,0,0:0:0:0:
136,320,50741,2,0,P|80:336|40:392,2,112.5
240,192,51255,1,0,0:0:0:0:
120,144,51426,5,0,0:0:0:0:
240,256,51598,2,0,P|290:213|304:168,1,112.5,0|0,0:0|0:0,0:0:0:0:
248,32,51941,1,0,0:0:0:0:
136,136,52112,2,0,P|142:198|184:232,1,112.5,0|0,0:0|0:0,0:0:0:0:
288,320,52455,1,0,0:0:0:0:
352,160,52626,2,0,P|309:109|256:104,1,112.5,0|0,0:0|0:0,0:0:0:0:
144,176,52969,1,0,0:0:0:0:
256,304,53140,2,0,P|308:325|376:304,1,112.5
424,296,53483,5,0,0:0:0:0:
496,224,53654,1,0,0:0:0:0:
400,192,53826,1,0,0:0:0:0:
480,120,53997,1,0,0:0:0:0:
418,74,54169,2,0,L|362:26,1,56.25,0|0,0:0|0:0,0:0:0:0:
366,78,54340,2,0,L|306:34,1,56.25
320,72,54511,2,0,L|266:34,1,56.25
280,71,54683,2,0,L|226:34,1,56.25
240,70,54854,1,0,0:0:0:0:
104,96,55026,6,0,L|176:192,1,112.5,0|0,0:0|0:0,0:0:0:0:
120,224,55368,1,0,0:0:0:0:
48,312,55540,2,0,P|136:280|248:344,1,225
344,336,56054,1,0,0:0:0:0:
440,336,56225,2,0,P|416:272|360:232,1,112.5
280,256,56568,2,0,P|288:152|400:112,1,225
408,184,57082,2,0,P|464:152|464:96,1,112.5
344,48,57425,2,0,P|296:56|272:120,1,112.5
272,272,57768,6,0,L|160:272,1,112.5
64,272,58111,1,0,0:0:0:0:
16,136,58282,2,0,P|88:104|248:152,1,225
168,232,58796,1,0,0:0:0:0:
176,360,58968,2,0,P|224:384|304:360,1,112.5
368,288,59310,2,0,P|368:224|208:136,1,225
128,144,59824,1,0,0:0:0:0:
192,320,60167,1,0,0:0:0:0:
328,200,60339,6,0,L|456:272,2,112.5,0|0|0,0:0|0:0|0:0,0:0:0:0:
200,128,60853,1,0,0:0:0:0:
96,184,61024,2,0,L|16:264,1,112.5
128,360,61367,1,0,0:0:0:0:
280,320,61538,1,0,0:0:0:0:
216,192,61710,2,0,L|328:88,2,112.5,0|0|0,0:0|0:0|0:0,0:0:0:0:
80,136,62224,1,0,0:0:0:0:
192,32,62395,5,0,0:0:0:0:
320,48,62567,2,0,L|432:152,1,112.5
424,256,62909,1,0,0:0:0:0:
304,240,63081,2,0,L|200:136,1,112.5
104,176,63424,1,0,0:0:0:0:
208,224,63595,2,0,L|312:136,1,112.5
400,64,63938,1,0,0:0:0:0:
464,176,64109,1,0,0:0:0:0:
352,264,64281,2,0,L|240:352,1,112.5,0|0,0:0|0:0,0:0:0:0:
160,296,64623,1,0,0:0:0:0:
96,112,64795,5,0,0:0:0:0:
176,40,64966,1,0,0:0:0:0:
288,32,65138,2,0,L|376:32,1,56.25
304,72,65309,2,0,L|368:72,1,56.25
320,112,65480,2,0,L|376:112,1,56.25
336,144,65652,2,0,L|400:144,1,56.25
416,256,65823,6,0,L|280:256,1,112.5
104,344,66166,2,0,L|240:344,1,112.5
112,184,66680,2,0,L|24:96,1,112.5
216,104,67023,2,0,L|320:24,1,112.5
242,238,67366,1,0,0:0:0:0:
448,208,67537,2,0,L|352:280,1,112.5,0|0,0:0|0:0,0:0:0:0:
184,312,68051,6,0,P|104:256|64:264,1,112.5
128,128,68394,1,0,0:0:0:0:
128,128,68480,1,0,0:0:0:0:
128,128,68565,2,0,P|184:80|184:40,1,112.5
368,80,68908,2,0,P|384:136|448:160,1,112.5
448,88,69251,1,0,0:0:0:0:
328,232,69422,6,0,L|224:312,1,112.5
48,232,69765,2,0,L|144:160,1,112.5
248,88,70108,1,0,0:0:0:0:
368,48,70279,2,0,P|440:120|432:160,2,112.5
248,40,70793,2,0,P|176:56|152:112,1,112.5
96,240,71136,5,0,0:0:0:0:
96,240,71222,1,0,0:0:0:0:
96,240,71308,2,0,P|160:272|168:328,1,112.5
344,304,71650,2,0,P|392:272|464:296,1,112.5
408,352,71993,1,0,0:0:0:0:
472,48,72165,6,0,L|352:48,1,112.5
96,64,72507,2,0,L|208:168,1,112.5
285,145,72850,1,0,0:0:0:0:
352,240,73021,2,0,P|280:280|280:336,1,112.5
352,320,73364,1,0,0:0:0:0:
176,160,73536,2,0,P|240:128|248:64,1,112.5
456,128,73878,5,0,0:0:0:0:
456,128,73964,1,0,0:0:0:0:
456,128,74050,2,0,P|424:176|336:168,1,112.5
192,184,74393,2,0,P|256:136|312:152,1,112.5
368,184,74735,1,0,0:0:0:0:
448,344,74907,6,0,L|312:344,1,112.5
192,352,75250,2,0,L|96:280,1,112.5
32,208,75592,1,0,0:0:0:0:
32,104,75764,2,0,L|152:104,1,112.5
352,96,76278,2,0,B|424:80|392:136|480:112,2,112.5,0|0|0,0:0|0:0|0:0,0:0:0:0:
432,240,76792,6,0,L|272:240,1,112.5
96,312,77135,2,0,L|232:312,1,112.5
320,256,77478,1,0,0:0:0:0:
432,152,77649,6,0,P|392:88|344:80,1,112.5
288,136,77992,2,0,P|232:112|216:48,1,112.5
312,48,78335,1,0,0:0:0:0:
120,144,78506,2,0,P|168:176|192:256,1,112.5
200,320,78849,1,0,0:0:0:0:
312,352,79020,5,0,0:0:0:0:
200,320,79191,2,0,P|248:264|312:264,2,112.5,0|0|0,0:0|0:0|0:0,0:0:0:0:
168,232,79706,1,0,0:0:0:0:
280,256,79877,2,0,P|216:184|168:192,1,112.5
64,144,80220,1,0,0:0:0:0:
120,48,80391,6,0,L|256:48,1,112.5,0|0,0:0|0:0,0:0:0:0:
408,96,80734,2,0,L|328:208,1,112.5
272,280,81077,1,0,0:0:0:0:
200,368,81248,2,0,L|96:288,1,112.5
64,192,81591,5,0,0:0:0:0:
136,112,81762,2,0,P|216:88|240:104,1,112.5
336,160,82105,1,0,0:0:0:0:
216,272,82276,2,0,P|160:320|112:304,1,112.5
216,272,82619,2,0,P|264:320|344:304,1,112.5
416,248,82962,5,0,0:0:0:0:
448,152,83133,2,0,L|368:72,1,112.5
176,72,83476,2,0,L|280:168,1,112.5
360,168,83819,1,0,0:0:0:0:
288,256,83990,2,0,P|184:240|176:208,1,112.5,0|0,0:0|0:0,0:0:0:0:
96,192,84333,5,0,0:0:0:0:
24,104,84505,2,0,L|168:104,1,112.5
248,104,84847,1,0,0:0:0:0:
192,216,85019,1,0,0:0:0:0:
104,352,85361,1,0,0:0:0:0:
352,304,85876,6,0,P|296:256|240:256,1,112.5
168,240,86218,1,0,0:0:0:0:
32,200,86390,2,0,B|94:195|120:88|200:152|256:112|312:232,1,337.500012874604
208,288,87418,2,0,B|240:416|-24:272|360:176,1,360
32,248,98730,5,0,0:0:0:0:
80,160,98901,2,0,L|32:120,1,45
152,96,99073,2,0,L|128:48,1,45
256,80,99244,2,0,L|256:16,1,45
360,112,99415,2,0,P|400:88|472:96,1,90
408,296,99758,2,0,L|344:320,1,45
184,320,100101,2,0,L|96:248,1,90,0|0,0:0|0:0,0:0:0:0:
120,152,100444,2,0,L|200:80,2,90,0|0|0,0:0|0:0|0:0,0:0:0:0:
432,152,101643,6,0,L|400:120,2,45,0|0|0,0:0|0:0|0:0,0:0:0:0:
256,40,102158,2,0,L|200:80,1,45
56,192,102500,2,0,L|104:232,1,45
248,328,102843,2,0,P|296:304|320:248,1,90
272,96,103186,2,0,P|216:136|216:176,2,90,0|0|0,0:0|0:0|0:0,0:0:0:0:
368,48,103700,1,0,0:0:0:0:
416,144,103872,2,0,P|384:200|352:208,1,90
272,328,104386,6,0,L|200:288,1,45
184,336,104557,2,0,L|128:304,1,45
88,336,104728,2,0,L|40:312,1,45
16,224,104900,2,0,P|56:200|128:208,1,90
240,192,105243,2,0,L|200:160,1,45
112,80,105585,2,0,P|160:32|208:40,1,90
288,128,105928,2,0,P|336:104|352:56,2,90,0|0|0,0:0|0:0|0:0,0:0:0:0:
160,120,107128,6,0,L|120:88,1,45,0|0,0:0|0:0,0:0:0:0:
232,112,107299,2,0,L|264:72,1,45
256,176,107471,2,0,L|312:216,1,45
192,176,107642,2,0,P|120:184|88:224,1,90
48,304,107985,2,0,L|104:336,1,45
208,320,108328,2,0,L|320:320,1,90
432,248,108670,2,0,P|376:200|336:200,1,90,0|0,0:0|0:0,0:0:0:0:
280,128,109013,1,0,0:0:0:0:
176,104,109185,1,0,0:0:0:0:
64,112,109356,2,0,P|88:64|152:56,1,90
256,312,109699,5,0,0:0:0:0:
176,360,109870,2,0,L|120:344,1,45
80,328,110042,2,0,L|120:288,1,45
176,280,110213,2,0,L|128:240,1,45
80,240,110384,2,0,L|160:184,1,90,0|0,0:0|0:0,0:0:0:0:
272,120,110727,2,0,L|384:120,1,90
448,152,111070,2,0,P|432:80|384:64,1,90
240,48,111413,6,0,L|288:32,1,45
256,112,111584,2,0,L|320:136,1,45,0|0,0:0|0:0,0:0:0:0:
192,104,111755,2,0,L|136:120,1,45
176,48,111927,1,0,0:0:0:0:
72,112,112098,1,0,0:0:0:0:
176,48,112270,1,0,0:0:0:0:
184,352,112441,5,0,0:0:0:0:
264,304,112612,2,0,L|312:312,1,45
264,224,112784,2,0,L|272:176,1,45
192,264,112955,2,0,L|144:232,1,45
176,168,113127,1,0,0:0:0:0:
200,80,113298,1,0,0:0:0:0:
280,120,113469,2,0,L|376:128,1,90
464,224,113812,2,0,L|400:288,1,90
112,360,114155,6,0,L|72:328,1,45
40,256,114326,2,0,L|80:288,1,45
152,280,114498,2,0,L|104:312,1,45
96,256,114669,2,0,L|112:200,1,45,0|0,0:0|0:0,0:0:0:0:
152,136,114840,2,0,P|224:104|264:112,1,90
456,112,115183,5,0,0:0:0:0:
384,232,115355,2,0,L|344:272,1,45
328,152,115526,2,0,L|368:112,1,45
256,96,115697,2,0,L|216:128,1,45
208,248,115869,2,0,P|248:312|288:320,1,90
400,304,116212,2,0,P|384:256|336:240,1,90
200,136,116554,2,0,L|88:168,1,90
176,48,116897,2,0,L|288:16,1,90
376,56,117240,1,0,0:0:0:0:
472,144,117411,5,0,0:0:0:0:
368,216,117583,1,0,0:0:0:0:
472,144,117754,1,0,0:0:0:0:
272,280,117925,1,0,0:0:0:0:
128,120,118097,6,0,L|80:152,1,45
184,176,118268,2,0,L|232:144,1,45
240,232,118440,2,0,L|192:272,1,45
304,312,118611,2,0,P|344:296|360:240,1,90
400,176,118954,2,0,P|328:136|312:144,1,90
232,248,119297,2,0,P|184:248|152:200,2,90,0|0|0,0:0|0:0|0:0,0:0:0:0:
232,120,119811,1,0,0:0:0:0:
336,96,119982,5,0,0:0:0:0:
352,88,120068,1,0,0:0:0:0:
360,72,120154,1,0,0:0:0:0:
376,72,120239,1,0,0:0:0:0:
384,56,120325,1,0,0:0:0:0:
392,72,120411,1,0,0:0:0:0:
400,56,120496,1,0,0:0:0:0:
400,56,120582,1,0,0:0:0:0:
416,48,120668,1,0,0:0:0:0:
384,288,120839,6,0,L|328:296,1,45
336,240,121010,2,0,L|264:256,1,45
288,192,121182,2,0,L|240:208,1,45
240,152,121353,2,0,L|144:184,1,90
16,256,121696,2,0,P|32:312|72:336,1,90
192,328,122039,2,0,P|184:272|144:240,1,90
56,168,122382,6,0,L|24:112,1,45
136,112,122553,2,0,L|128:64,1,45
232,88,122724,2,0,L|232:192,1,90
232,264,123067,2,0,L|176:240,2,45,0|0|0,0:0|0:0|0:0,0:0:0:0:
128,304,123410,5,0,0:0:0:0:
200,352,123581,2,0,L|256:328,1,45
336,360,123753,2,0,L|288:328,1,45
232,264,123924,1,0,0:0:0:0:
152,192,124096,2,0,L|240:144,1,90,0|0,0:0|0:0,0:0:0:0:
336,96,124438,2,0,L|384:176,1,90
328,256,124781,5,0,0:0:0:0:
160,320,124952,1,0,0:0:0:0:
96,144,125124,1,0,0:0:0:0:
264,80,125295,1,0,0:0:0:0:
304,208,125467,5,0,0:0:0:0:
136,272,125638,1,0,0:0:0:0:
72,96,125809,2,0,L|176:64,1,90
304,48,126152,5,0,0:0:0:0:
376,144,126324,2,0,L|424:176,1,45
392,200,126495,2,0,L|344:248,1,45
408,256,126666,2,0,L|440:296,1,45
392,304,126838,2,0,L|288:304,1,90
136,312,127181,2,0,P|72:288|48:248,1,90
240,160,127523,2,0,P|288:152|336:184,1,90
384,312,127866,6,0,P|432:296|456:248,2,90
360,312,128295,1,0,0:0:0:0:
296,248,128380,1,0,0:0:0:0:
280,248,128466,1,0,0:0:0:0:
232,184,128552,1,0,0:0:0:0:
216,184,128637,1,0,0:0:0:0:
176,96,128723,1,0,0:0:0:0:
160,96,128809,1,0,0:0:0:0:
144,96,128894,1,0,0:0:0:0:
32,112,129066,6,0,L|80:152,1,45
8,168,129237,2,0,L|48:208,1,45
0,232,129409,2,0,L|88:256,1,90,0|0,0:0|0:0,0:0:0:0:
112,272,129666,1,0,0:0:0:0:
136,296,129751,1,0,0:0:0:0:
144,328,129837,1,0,0:0:0:0:
136,360,129923,6,0,L|240:360,1,90
336,336,130266,2,0,L|264:272,1,90
208,128,130608,5,0,2:0:0:0:
192,128,130694,1,0,0:0:0:0:
312,128,130780,1,0,0:0:0:0:
328,128,130865,1,0,0:0:0:0:
208,208,130951,1,0,0:0:0:0:
192,208,131037,1,0,0:0:0:0:
312,208,131122,1,0,0:0:0:0:
328,208,131208,1,0,0:0:0:0:
424,216,131294,2,0,P|424:288|416:304,1,90
328,344,131637,5,0,0:0:0:0:
296,248,131808,2,0,L|352:240,1,45
320,192,131979,2,0,L|368:176,1,45
320,144,132151,2,0,L|360:88,1,45
432,32,132322,2,0,P|472:64|472:112,1,90
384,128,132665,2,0,P|368:184|400:208,1,90
472,272,133008,2,0,P|424:320|376:320,1,90
256,256,133351,1,0,0:0:0:0:
168,208,133522,1,0,0:0:0:0:
144,112,133693,1,0,0:0:0:0:
216,32,133865,6,0,L|320:32,1,90
424,88,134207,2,0,L|352:176,1,90
264,256,134550,6,0,L|208:240,2,45,0|0|0,0:0|0:0|0:0,0:0:0:0:
40,88,135064,2,0,L|64:128,1,45
160,320,135407,2,0,L|240:320,2,45,0|0|0,0:0|0:0|0:0,0:0:0:0:
352,320,135750,1,0,0:0:0:0:
432,160,135921,1,0,0:0:0:0:
288,88,136093,1,0,0:0:0:0:
200,232,136264,1,0,0:0:0:0:
384,280,136436,1,0,0:0:0:0:
464,120,136607,1,0,0:0:0:0:
320,48,136778,2,0,L|216:48,2,90,0|0|0,0:0|0:0|0:0,0:0:0:0:
392,80,137292,6,0,L|456:80,1,45
352,128,137464,2,0,L|304:128,1,45
384,184,137635,2,0,L|448:184,1,45,0|0,0:0|0:0,0:0:0:0:
336,224,137807,2,0,P|288:264|240:248,1,90
160,144,138149,2,0,P|224:128|256:168,1,90
144,312,138492,2,0,P|88:304|56:256,1,90
176,128,138835,1,0,0:0:0:0:
320,232,139006,2,0,L|424:200,1,90
512,72,139349,6,0,L|424:40,1,90
296,112,139692,2,0,L|408:160,1,90
424,304,140035,2,0,L|368:320,1,45
472,344,140206,2,0,L|520:312,1,45
480,280,140377,2,0,L|448:240,1,45
392,240,140549,2,0,L|304:208,1,90
208,216,140892,2,0,P|168:272|120:272,1,90
32,168,141234,2,0,P|56:120|96:104,1,90
240,48,141577,1,0,0:0:0:0:
344,104,141749,1,0,0:0:0:0:
264,184,141920,5,2,0:0:0:0:
240,184,142006,1,0,0:0:0:0:
248,200,142091,1,0,0:0:0:0:
224,208,142177,1,0,0:0:0:0:
200,200,142263,1,0,0:0:0:0:
208,224,142348,1,0,0:0:0:0:
184,224,142434,1,0,0:0:0:0:
184,248,142520,1,0,0:0:0:0:
160,256,142606,1,0,0:0:0:0:
264,368,142777,6,0,L|304:392,1,45
320,328,142948,2,0,L|296:288,1,45
376,288,143120,2,0,L|432:296,1,45
408,224,143291,2,0,P|376:184|320:160,1,90
208,200,143634,2,0,P|168:160|168:96,1,90
256,8,143977,2,0,P|296:40|304:96,1,90
248,168,144319,1,0,0:0:0:0:
168,88,144491,1,0,0:0:0:0:
64,80,144662,1,0,0:0:0:0:
48,200,144834,1,0,0:0:0:0:
104,288,145005,6,0,L|160:288,2,45,0|0|0,0:0|0:0|0:0,0:0:0:0:
248,256,145348,1,0,0:0:0:0:
328,168,145519,2,0,L|304:128,1,45
352,224,145691,2,0,L|328:264,1,45
392,184,145862,2,0,L|440:168,1,45
376,120,146033,2,0,P|336:80|296:88,1,90
168,136,146376,2,0,P|128:168|112:232,1,90
88,320,146719,1,0,0:0:0:0:
200,264,146890,5,0,0:0:0:0:
256,72,147062,1,0,0:0:0:0:
312,264,147233,1,0,0:0:0:0:
160,144,147404,1,0,0:0:0:0:
360,144,147576,1,0,0:0:0:0:
256,72,147747,2,0,L|144:96,1,90
72,160,148090,5,0,0:0:0:0:
88,264,148261,2,0,L|152:264,1,45
120,304,148433,2,0,L|176:304,1,45
160,336,148604,2,0,L|216:336,1,45
336,280,148776,2,0,P|288:224|248:224,1,90
168,256,149118,2,0,P|136:208|152:160,1,90
256,80,149461,2,0,P|320:80|360:112,1,90
376,216,149804,1,0,0:0:0:0:
296,288,149975,1,0,0:0:0:0:
176,304,150147,1,0,0:0:0:0:
88,240,150318,6,0,L|16:152,1,90
40,56,150661,2,0,L|144:56,1,90
256,56,151004,6,0,L|320:56,1,45
256,112,151175,2,0,L|192:112,1,45
256,168,151346,2,0,L|320:168,1,45
256,224,151518,2,0,P|192:248|176:280,1,90
256,352,151861,2,0,P|312:320|328:288,1,90
376,160,152203,2,0,P|336:120|288:120,1,90
160,112,152546,2,0,L|88:120,2,45,0|0|0,0:0|0:0|0:0,0:0:0:0:
144,304,153574,5,0,0:0:0:0:
88,272,153746,1,0,0:0:0:0:
64,216,153917,1,0,0:0:0:0:
152,32,154260,1,0,0:0:0:0:
208,40,154431,1,0,0:0:0:0:
248,72,154603,1,0,0:0:0:0:
272,240,154946,1,0,0:0:0:0:
272,296,155117,1,0,0:0:0:0:
304,344,155288,1,0,0:0:0:0:
464,240,155631,5,0,0:0:0:0:
480,184,155803,1,0,0:0:0:0:
448,136,155974,2,0,P|424:96|352:72,1,90
328,56,156317,1,0,0:0:0:0:
272,72,156488,1,0,0:0:0:0:
240,120,156659,1,0,0:0:0:0:
160,328,157002,1,0,0:0:0:0:
96,328,157174,1,0,0:0:0:0:
48,288,157345,1,0,0:0:0:0:
56,96,157688,5,0,0:0:0:0:
104,56,157859,1,0,0:0:0:0:
168,56,158031,1,0,0:0:0:0:
360,72,158373,1,0,0:0:0:0:
408,112,158545,1,0,0:0:0:0:
416,168,158716,2,0,P|408:224|368:272,1,90
336,288,159059,5,0,0:0:0:0:
392,312,159230,1,0,0:0:0:0:
456,304,159402,1,0,0:0:0:0:
184,280,159744,1,0,0:0:0:0:
120,272,159916,1,0,0:0:0:0:
64,296,160087,1,0,0:0:0:0:
264,104,160430,1,0,0:0:0:0:
304,64,160601,1,0,0:0:0:0:
360,40,160773,1,0,0:0:0:0:
184,96,161116,5,0,0:0:0:0:
128,64,161287,1,0,0:0:0:0:
72,64,161458,2,0,P|56:128|80:176,1,90
112,200,161801,1,0,0:0:0:0:
160,232,161973,1,0,0:0:0:0:
200,272,162144,1,0,0:0:0:0:
416,64,162487,5,0,0:0:0:0:
432,184,162658,1,0,0:0:0:0:
328,136,162830,1,0,0:0:0:0:
296,328,163172,1,0,0:0:0:0:
184,240,163344,1,0,0:0:0:0:
160,376,163515,1,0,0:0:0:0:
48,160,163858,1,0,0:0:0:0:
32,32,164029,1,0,0:0:0:0:
160,56,164201,1,0,0:0:0:0:
112,304,164592,5,0,0:0:0:0:
400,304,164934,1,0,0:0:0:0:
112,80,165277,1,0,0:0:0:0:
400,80,165620,1,0,0:0:0:0:
161,348,165963,5,0,0:0:0:0:
430,244,166306,1,0,0:0:0:0:
81,139,166648,1,0,0:0:0:0:
350,35,166991,1,0,0:0:0:0:
223,371,167334,5,0,0:0:0:0:
437,178,167677,1,0,0:0:0:0:
74,205,168020,1,0,0:0:0:0:
288,12,168362,1,0,0:0:0:0:
296,369,168705,5,0,0:0:0:0:
418,108,169048,1,0,0:0:0:0:
93,275,169391,1,0,0:0:0:0:
215,14,169733,1,0,0:0:0:0:
256,192,170076,12,0,174532,0:0:0:0:
64,192,175561,5,0,0:0:0:0:
168,104,175732,2,0,P|232:120|272:168,1,112.5
168,224,176075,1,0,0:0:0:0:
104,336,176246,2,0,P|208:360|336:328,1,225
408,264,176760,1,0,0:0:0:0:
440,176,176932,2,0,P|360:144|312:168,1,112.5
176,240,177275,2,0,P|112:192|144:56,1,225
248,32,177789,1,0,0:0:0:0:
424,96,178132,1,0,0:0:0:0:
448,272,178474,6,0,L|336:192,1,112.5
264,136,178817,1,0,0:0:0:0:
96,48,178989,2,0,P|128:112|88:272,1,225
32,352,179503,1,0,0:0:0:0:
192,344,179674,2,0,P|232:304|304:288,1,112.5
400,336,180017,2,0,P|440:264|384:144,1,225
288,192,180531,2,0,P|232:144|232:96,1,112.5
376,80,180874,2,0,P|432:136|416:200,1,112.5
352,264,181217,5,0,0:0:0:0:
256,328,181388,1,0,0:0:0:0:
248,72,181559,1,0,0:0:0:0:
152,112,181731,2,0,L|40:104,2,112.5,0|0|0,0:0|0:0|0:0,0:0:0:0:
248,72,182245,1,0,0:0:0:0:
360,96,182416,2,0,P|408:56|480:48,2,112.5,0|0|0,0:0|0:0|0:0,0:0:0:0:
352,256,182930,1,0,0:0:0:0:
256,200,183102,5,0,0:0:0:0:
80,168,183273,2,0,P|80:256|136:304,1,112.5,0|0,0:0|0:0,0:0:0:0:
256,200,183616,1,0,0:0:0:0:
280,24,183787,2,0,P|192:24|144:80,1,112.5,0|0,0:0|0:0,0:0:0:0:
256,200,184130,1,0,0:0:0:0:
440,280,184302,2,0,P|440:192|384:144,1,112.5,0|0,0:0|0:0,0:0:0:0:
256,200,184644,1,0,0:0:0:0:
176,368,184816,2,0,P|264:368|312:312,1,112.5,0|0,0:0|0:0,0:0:0:0:
256,200,185159,1,0,0:0:0:0:
64,224,185330,6,0,P|48:160|80:112,2,112.5,0|0|0,0:0|0:0|0:0,0:0:0:0:
128,328,185844,2,0,L|176:280,1,56.25
176,328,186015,2,0,L|216:280,1,56.25
224,328,186187,2,0,L|272:272,1,56.25
272,328,186358,2,0,L|312:288,1,56.25
312,328,186530,1,0,0:0:0:0:
416,256,186701,6,0,L|288:216,1,112.5
184,176,187044,1,0,0:0:0:0:
80,72,187215,2,0,B|144:56|192:24|288:48|264:104,1,225
184,176,187729,1,0,0:0:0:0:
80,256,187901,2,0,B|48:304|88:328|136:320,1,112.5
256,320,188244,2,0,B|320:336|368:368|464:344|440:288,1,225
312,216,188758,2,0,P|272:168|296:96,1,112.5
368,48,189100,2,0,B|424:96|416:136|392:176,1,112.5
216,296,189443,5,0,0:0:0:0:
152,224,189615,2,0,L|72:136,1,112.5
32,40,189957,2,0,L|256:40,1,225
368,48,190472,1,0,0:0:0:0:
288,136,190643,2,0,L|184:200,1,112.5
88,320,190986,2,0,L|336:320,1,225
440,312,191500,1,0,0:0:0:0:
400,120,191843,5,0,0:0:0:0:
304,80,192014,1,0,0:0:0:0:
208,56,192185,1,0,0:0:0:0:
104,48,192357,2,0,P|32:56|-8:88,2,112.5,0|0|0,0:0|0:0|0:0,0:0:0:0:
208,56,192871,1,0,0:0:0:0:
304,80,193042,2,0,P|240:160|256:200,1,112.5
328,200,193385,1,0,0:0:0:0:
392,272,193557,2,0,P|344:360|312:368,2,112.5,0|0|0,0:0|0:0|0:0,0:0:0:0:
328,200,194071,5,0,0:0:0:0:
192,336,194242,2,0,L|80:232,1,112.5
88,152,194585,1,0,0:0:0:0:
208,144,194756,2,0,L|312:248,1,112.5
408,184,195099,1,0,0:0:0:0:
304,160,195271,2,0,L|200:248,1,112.5
128,312,195613,1,0,0:0:0:0:
40,224,195785,1,0,0:0:0:0:
160,120,195956,2,0,L|272:32,1,112.5,0|0,0:0|0:0,0:0:0:0:
352,72,196299,1,0,0:0:0:0:
416,184,196470,5,0,0:0:0:0:
320,280,196642,1,0,0:0:0:0:
240,200,196813,2,0,L|200:256,1,56.25
184,152,196984,2,0,L|104:152,1,56.25
232,96,197156,2,0,L|192:48,1,56.25
280,144,197327,2,0,L|336:144,1,56.25
416,152,197499,6,0,P|424:208|392:240,1,90
328,320,197841,2,0,P|264:328|232:304,1,90
16,320,198356,2,0,L|80:224,1,90
160,216,198698,2,0,L|224:128,1,90
272,56,199041,1,0,0:0:0:0:
368,72,199212,1,0,0:0:0:0:
448,136,199384,1,0,0:0:0:0:
416,256,199727,6,0,L|304:256,1,90
176,248,200069,1,0,0:0:0:0:
72,256,200241,2,0,P|80:312|136:344,1,90
272,280,200584,2,0,P|272:240|240:192,1,90
104,104,201098,6,0,L|224:104,1,90
400,104,201441,2,0,L|288:104,1,90
192,104,201783,1,0,0:0:0:0:
96,176,201955,1,0,0:0:0:0:
48,272,202126,1,0,0:0:0:0:
440,296,202469,6,0,B|424:248|384:224|360:216,1,90
264,216,202812,1,0,0:0:0:0:
104,256,202983,2,0,P|120:312|168:336,1,90
256,264,203326,2,0,P|224:208|192:192,1,90
80,112,203840,6,0,P|152:96|200:112,1,90
272,168,204183,2,0,P|288:216|256:256,1,90
184,320,204526,1,0,0:0:0:0:
296,344,204697,1,0,0:0:0:0:
376,272,204868,1,0,0:0:0:0:
440,32,205211,6,0,L|328:56,1,90
216,96,205554,1,0,0:0:0:0:
248,224,205725,2,0,P|328:280|432:272,1,180
472,224,206582,6,0,L|368:192,1,90
440,88,206925,2,0,L|328:64,1,90
240,48,207268,1,0,0:0:0:0:
112,120,207439,1,0,0:0:0:0:
248,192,207611,1,0,0:0:0:0:
368,304,207953,2,0,L|472:304,2,90
120,288,208810,6,0,L|64:248,1,45
128,112,209153,2,0,L|176:56,1,45
288,160,209496,2,0,L|336:200,2,45
400,240,209839,1,0,0:0:0:0:
184,160,210181,1,0,0:0:0:0:
256,72,210353,1,0,0:0:0:0:
392,80,210524,1,0,0:0:0:0:
392,312,211381,6,0,L|296:312,1,90
296,288,211895,2,0,L|240:248,1,45
248,120,212238,2,0,L|288:80,2,45,0|0|0,0:0|0:0|0:0,0:0:0:0:
104,272,212752,1,0,0:0:0:0:
136,304,212924,1,0,0:0:0:0:
472,224,213266,1,0,0:0:0:0:
416,256,213438,1,0,0:0:0:0:
352,256,213609,1,0,0:0:0:0:
424,48,214123,6,0,P|360:48|328:72,1,90
296,176,214466,1,0,0:0:0:0:
184,160,214638,2,0,P|152:120|160:72,1,90,0|0,0:0|0:0,0:0:0:0:
264,24,214980,2,0,P|296:72|296:104,1,90
192,240,215323,2,0,P|192:296|216:328,1,90
320,352,215666,1,0,0:0:0:0:
432,296,215837,1,0,0:0:0:0:
392,200,216009,5,0,0:0:0:0:
376,200,216094,1,0,0:0:0:0:
336,128,216180,1,0,0:0:0:0:
320,128,216266,1,0,0:0:0:0:
232,128,216351,1,0,0:0:0:0:
216,128,216437,1,0,0:0:0:0:
184,200,216523,1,0,0:0:0:0:
168,200,216608,1,0,0:0:0:0:
152,200,216694,5,0,0:0:0:0:
120,200,216866,1,0,0:0:0:0:
256,56,217208,1,0,0:0:0:0:
256,56,217380,1,0,0:0:0:0:
416,160,217723,1,0,0:0:0:0:
416,160,217894,1,0,0:0:0:0:
392,288,218237,1,0,0:0:0:0:
192,304,218579,1,0,0:0:0:0:
48,96,218922,1,0,0:0:0:0:
