osu file format v13

[General]
AudioFilename: Paper Planes.mp3
AudioLeadIn: 0
PreviewTime: 40604
Countdown: 0
SampleSet: Normal
StackLeniency: 0.7
Mode: 0
LetterboxInBreaks: 1
WidescreenStoryboard: 1

[Editor]
Bookmarks: 6608
DistanceSpacing: 1.4
BeatDivisor: 4
GridSize: 8
TimelineZoom: 1.5

[Metadata]
Title:Paper Planes
TitleUnicode:Paper Planes
Artist:Virtual Riot
ArtistUnicode:Virtual Riot
Creator:Soggypancake
Version:Hard
Source:
Tags:Drum N Bass DnB Liquid
BeatmapID:496902
BeatmapSetID:210179

[Difficulty]
HPDrainRate:6
CircleSize:4
OverallDifficulty:6
ApproachRate:8
SliderMultiplier:1.80000000596046
SliderTickRate:1

[Events]
//Background and Video events
0,0,"o1688748.jpg",0,0
//Break Periods
2,87960,97980
//Storyboard Layer 0 (Background)
//Storyboard Layer 1 (Fail)
//Storyboard Layer 2 (Pass)
//Storyboard Layer 3 (Foreground)
//Storyboard Sound Samples

[TimingPoints]
10979,342.778793418647,4,2,0,25,1,0
16292,-100,4,2,0,30,0,0
17663,-100,4,2,0,35,0,0
19205,-100,4,2,0,40,0,0
21947,-100,4,2,0,50,0,0
34287,-100,4,2,0,65,0,0
35659,-100,4,2,0,75,0,0
37030,-100,4,2,0,85,0,0
38401,-100,4,2,0,95,0,0
43885,-80,4,1,0,70,0,1
65823,-80,4,1,0,60,0,0
68051,-80,4,1,0,75,0,0
86390,-166.666666666667,4,2,0,60,0,0
87247,-100,4,2,0,60,0,0
87418,-66.6666666666667,4,2,0,60,0,0
87761,-100,4,2,0,60,0,0
98730,-100,4,2,0,35,0,0
131637,-100,4,2,0,40,0,0
137292,-100,4,2,0,50,0,0
140035,-100,4,2,0,55,0,0
145519,-100,4,2,0,60,0,0
151004,-100,4,2,0,65,0,0
153574,-100,4,2,0,25,0,0
158888,-100,4,2,0,35,0,0
161630,-100,4,2,0,45,0,0
164592,342.778793418647,4,2,0,55,1,0
165963,-100,4,2,0,60,0,0
167334,-100,4,2,0,65,0,0
168705,-100,4,2,0,75,0,0
175560,-80,4,1,0,60,0,1
197450,-100,4,2,0,60,0,0
199726,-100,4,2,0,50,0,0
202469,-100,4,2,0,40,0,0
205211,-100,4,2,0,30,0,0

[Colours]
Combo1 : 255,255,0
Combo2 : 0,255,0
Combo3 : 0,0,149
Combo4 : 185,11,37

[HitObjects]
168,336,10978,6,0,P|192:248|216:240,1,90.000000298023
256,240,11321,1,0,0:0:0:0:
400,168,11664,2,0,P|368:80|344:64,1,90.000000298023
304,56,12007,1,0,0:0:0:0:
144,144,12350,2,0,P|152:192|176:232,1,90.000000298023
224,272,12692,1,0,0:0:0:0:
480,344,13035,2,0,L|480:240,1,90.000000298023,0|0,0:0|0:0,0:0:0:0:
480,176,13378,1,0,0:0:0:0:
496,64,13549,6,0,L|392:32,1,90.000000298023
336,24,13892,2,0,L|304:128,1,90.000000298023,0|0,0:0|0:0,0:0:0:0:
320,232,14406,2,0,P|264:272|232:272,1,90.000000298023,0|0,0:0|0:0,0:0:0:0:
168,272,14749,1,0,0:0:0:0:
16,336,15092,2,0,L|16:224,1,90.000000298023
16,176,15435,1,0,0:0:0:0:
40,56,15777,2,0,P|144:48|160:56,1,90.000000298023
216,80,16120,1,0,0:0:0:0:
320,64,16292,6,0,P|408:40|424:48,1,90.000000298023
456,120,16634,2,0,P|408:152|352:152,1,90.000000298023
80,288,17149,2,0,L|200:288,1,90.000000298023
240,288,17491,1,0,0:0:0:0:
400,256,17834,2,0,L|296:184,1,90.000000298023
264,168,18177,1,0,0:0:0:0:
104,64,18520,2,0,L|64:152,1,90.000000298023
88,216,18862,1,0,0:0:0:0:
168,176,19034,6,0,L|216:80,1,90.000000298023
296,56,19377,2,0,L|400:48,1,90.000000298023
368,224,19891,2,0,L|440:280,2,90.000000298023,0|0|0,0:0|0:0|0:0,0:0:0:0:
224,112,20576,2,0,L|112:24,2,90.000000298023,0|0|0,0:0|0:0|0:0,0:0:0:0:
216,280,21262,2,0,L|160:352,2,90.000000298023,0|0|0,0:0|0:0|0:0,0:0:0:0:
65,180,21947,5,0,0:0:0:0:
125,349,22290,1,0,0:0:0:0:
304,333,22633,1,0,0:0:0:0:
245,162,22976,1,0,0:0:0:0:
103,50,23319,5,0,0:0:0:0:
282,42,23661,1,0,0:0:0:0:
343,211,24004,1,0,0:0:0:0:
163,228,24347,1,0,0:0:0:0:
295,350,24690,5,0,0:0:0:0:
458,275,25032,1,0,0:0:0:0:
393,106,25375,1,0,0:0:0:0:
227,176,25718,1,0,0:0:0:0:
349,44,26061,5,0,0:0:0:0:
459,186,26404,1,0,0:0:0:0:
279,191,26746,1,0,0:0:0:0:
162,53,27089,1,0,0:0:0:0:
62,202,27432,5,0,0:0:0:0:
191,77,27775,1,0,0:0:0:0:
216,254,28117,1,0,0:0:0:0:
353,137,28460,1,0,0:0:0:0:
362,316,28803,5,0,0:0:0:0:
182,305,29146,1,0,0:0:0:0:
57,174,29489,1,0,0:0:0:0:
129,9,29831,1,0,0:0:0:0:
308,19,30174,5,0,0:0:0:0:
467,103,30517,1,0,0:0:0:0:
498,280,30860,1,0,0:0:0:0:
331,347,31202,1,0,0:0:0:0:
191,232,31545,5,0,0:0:0:0:
236,120,31888,1,0,0:0:0:0:
333,165,32231,1,0,0:0:0:0:
287,275,32574,1,0,0:0:0:0:
85,229,32916,5,0,0:0:0:0:
119,128,33259,1,0,0:0:0:0:
177,56,33602,1,0,0:0:0:0:
201,46,33687,1,0,0:0:0:0:
226,35,33773,2,0,P|308:25|337:40,1,90.000000298023
379,67,34116,1,0,0:0:0:0:
446,121,34287,5,0,0:0:0:0:
385,206,34630,1,0,0:0:0:0:
321,289,34973,1,0,0:0:0:0:
301,308,35059,1,0,0:0:0:0:
278,325,35144,2,0,P|235:348|171:332,1,90.000000298023
236,246,35487,5,0,0:0:0:0:
208,140,35659,1,0,0:0:0:0:
371,148,36001,1,0,0:0:0:0:
208,140,36344,1,0,0:0:0:0:
208,140,36430,1,0,0:0:0:0:
208,140,36516,2,0,P|130:148|103:144,1,90.000000298023
61,88,36858,5,0,0:0:0:0:
160,32,37030,1,0,0:0:0:0:
291,133,37372,1,0,0:0:0:0:
138,233,37715,1,0,0:0:0:0:
138,233,37801,1,0,0:0:0:0:
138,233,37887,2,0,P|112:290|116:319,1,90.000000298023
205,347,38229,5,0,0:0:0:0:
323,355,38401,1,0,0:0:0:0:
436,225,38744,1,0,0:0:0:0:
403,98,39086,1,0,0:0:0:0:
403,98,39172,1,0,0:0:0:0:
403,98,39258,2,0,L|354:190,1,90.000000298023
307,254,39601,5,0,0:0:0:0:
224,193,39772,1,0,0:0:0:0:
256,192,39943,12,0,42857,0:0:0:0:
40,304,43885,5,0,0:0:0:0:
80,232,44057,1,0,0:0:0:0:
136,288,44228,1,0,0:0:0:0:
168,216,44399,2,0,L|280:184,1,112.500000372529,0|0,0:0|0:0,0:0:0:0:
400,288,44914,5,0,0:0:0:0:
440,224,45085,1,0,0:0:0:0:
416,152,45256,2,0,L|304:88,2,112.500000372529,0|0|0,0:0|0:0|0:0,0:0:0:0:
200,120,46113,6,0,P|128:152|120:232,1,112.500000372529
144,312,46456,2,0,P|232:280|240:240,1,112.500000372529
248,184,46799,1,0,0:0:0:0:
200,120,46970,1,0,0:0:0:0:
248,56,47142,2,0,P|328:40|376:72,1,112.500000372529
432,232,47827,5,0,0:0:0:0:
384,296,47999,1,0,0:0:0:0:
312,336,48170,2,0,P|224:344|176:296,1,112.500000372529
66,144,48856,6,0,P|90:80|162:72,1,112.500000372529
216,56,49198,1,0,0:0:0:0:
298,137,49370,1,0,0:0:0:0:
216,138,49541,1,0,0:0:0:0:
298,56,49713,1,0,0:0:0:0:
388,57,49884,2,0,P|440:80|440:160,2,112.500000372529,0|0|0,0:0|0:0|0:0,0:0:0:0:
298,56,50398,5,0,0:0:0:0:
216,138,50569,1,0,0:0:0:0:
298,137,50741,1,0,0:0:0:0:
216,56,50912,1,0,0:0:0:0:
136,56,51084,2,0,P|72:88|64:144,1,112.500000372529
64,216,51426,6,0,P|112:264|184:248,1,112.500000372529
240,224,51769,2,0,P|192:176|128:192,1,112.500000372529
224,296,52112,2,0,P|304:312|352:280,1,112.500000372529
432,184,52455,2,0,P|376:192|336:240,1,112.500000372529
424,272,52798,2,0,P|504:232|512:184,1,112.500000372529
504,120,53140,2,0,P|448:80|376:104,1,112.500000372529
328,136,53483,5,0,0:0:0:0:
264,96,53654,1,0,0:0:0:0:
192,128,53826,1,0,0:0:0:0:
112,112,53997,1,0,0:0:0:0:
56,160,54169,2,0,L|8:208,2,56.2500001862644,0|0|0,0:0|0:0|0:0,0:0:0:0:
112,208,54426,2,0,L|152:256,4,56.2500001862644,0|0|0|0|0,0:0|0:0|0:0|0:0|0:0,0:0:0:0:
56,256,54854,1,0,0:0:0:0:
112,320,55026,5,0,0:0:0:0:
184,312,55197,2,0,L|272:216,1,112.500000372529
288,144,55540,2,0,L|144:144,1,112.500000372529
56,112,56054,1,0,0:0:0:0:
120,40,56225,2,0,L|240:40,1,112.500000372529
344,40,56568,2,0,P|416:56|448:120,1,112.500000372529
408,208,57082,6,0,P|352:256|296:240,1,112.500000372529
256,176,57425,2,0,P|160:200|144:224,1,112.500000372529
96,272,57768,1,0,0:0:0:0:
184,312,57939,1,0,0:0:0:0:
160,232,58111,2,0,L|88:104,1,112.500000372529
248,32,58796,5,0,0:0:0:0:
328,32,58968,1,0,0:0:0:0:
392,80,59139,2,0,L|456:192,1,112.500000372529
368,320,59824,6,0,L|288:208,1,112.500000372529
232,184,60167,1,0,0:0:0:0:
176,136,60339,1,0,0:0:0:0:
160,208,60510,1,0,0:0:0:0:
104,160,60681,1,0,0:0:0:0:
72,224,60853,2,0,P|104:288|160:296,1,112.500000372529
192,232,61196,2,0,P|248:240|264:312,1,112.500000372529
272,360,61538,5,0,0:0:0:0:
336,296,61710,1,0,0:0:0:0:
320,216,61881,1,0,0:0:0:0:
264,152,62053,2,0,P|296:96|352:96,1,112.500000372529
448,184,62395,6,0,L|336:184,1,112.500000372529
248,184,62738,1,0,0:0:0:0:
168,184,62909,2,0,L|48:184,2,112.500000372529,0|0|0,0:0|0:0|0:0,0:0:0:0:
248,184,63424,1,0,0:0:0:0:
248,112,63595,2,0,L|248:-8,2,112.500000372529,0|0|0,0:0|0:0|0:0,0:0:0:0:
248,184,64109,1,0,0:0:0:0:
248,256,64281,2,0,L|248:376,2,112.500000372529,0|0|0,0:0|0:0|0:0,0:0:0:0:
248,184,64795,2,0,P|200:144|128:160,1,112.500000372529
168,216,65138,6,0,L|168:240|168:272,3,56.2500001862644,0|0|0|0,0:0|0:0|0:0|0:0,0:0:0:0:
96,208,65480,2,0,L|56:264,3,56.2500001862644,0|0|0|0,0:0|0:0|0:0|0:0,0:0:0:0:
96,208,65823,2,0,P|72:136|112:96,1,112.500000372529
136,48,66166,2,0,P|200:16|248:32,1,112.500000372529
384,48,66680,6,0,L|280:128,1,112.500000372529
344,168,67023,2,0,L|456:80,1,112.500000372529
488,144,67366,1,0,0:0:0:0:
432,192,67537,2,0,L|432:312,1,112.500000372529
240,312,68051,6,0,L|104:312,1,112.500000372529
56,312,68394,1,0,0:0:0:0:
56,232,68565,2,0,L|56:88,2,112.500000372529,0|0|0,0:0|0:0|0:0,0:0:0:0:
184,80,69422,6,0,P|256:48|312:72,1,112.500000372529
296,136,69765,2,0,P|368:128|400:72,1,112.500000372529
448,32,70108,1,0,0:0:0:0:
480,112,70279,1,0,0:0:0:0:
432,184,70451,1,0,0:0:0:0:
272,264,70793,5,0,0:0:0:0:
224,328,70965,1,0,0:0:0:0:
304,352,71136,1,0,0:0:0:0:
392,328,71308,2,0,L|328:200,1,112.500000372529
296,160,71650,2,0,L|176:160,1,112.500000372529
152,48,72165,6,0,P|88:96|72:152,1,112.500000372529
176,144,72507,2,0,P|176:216|112:272,1,112.500000372529
80,224,72850,1,0,0:0:0:0:
48,304,73021,1,0,0:0:0:0:
120,344,73193,1,0,0:0:0:0:
240,344,73536,6,0,L|376:344,2,112.500000372529,0|0|0,0:0|0:0|0:0,0:0:0:0:
240,264,74050,2,0,P|256:200|328:184,1,112.500000372529
336,256,74393,2,0,P|384:192|368:144,1,112.500000372529
328,48,74907,2,0,P|240:32|200:56,1,112.500000372529
256,136,75250,2,0,P|336:152|384:120,1,112.500000372529
328,48,75592,1,0,0:0:0:0:
248,32,75764,1,0,0:0:0:0:
176,64,75935,1,0,0:0:0:0:
80,136,76278,5,0,0:0:0:0:
24,208,76449,1,0,0:0:0:0:
80,136,76621,1,0,0:0:0:0:
152,192,76792,2,0,L|248:272,1,112.500000372529
320,264,77135,2,0,L|400:168,1,112.500000372529,0|0,0:0|0:0,0:0:0:0:
448,104,77649,5,0,0:0:0:0:
480,224,77992,1,0,0:0:0:0:
464,304,78163,1,0,0:0:0:0:
400,352,78335,1,0,0:0:0:0:
312,352,78506,2,0,L|168:352,1,112.500000372529
104,320,79020,6,0,L|32:216,1,112.500000372529
40,144,79363,2,0,L|144:80,2,112.500000372529,0|0|0,0:0|0:0|0:0,0:0:0:0:
40,224,79877,2,0,L|176:224,1,112.500000372529
312,224,80391,2,0,P|256:192|232:136,1,112.500000372529
240,64,80734,1,0,0:0:0:0:
328,120,80905,1,0,0:0:0:0:
328,16,81077,1,0,0:0:0:0:
240,64,81248,2,0,P|176:96|104:80,1,112.500000372529
64,224,81762,5,0,0:0:0:0:
80,312,81934,1,0,0:0:0:0:
168,344,82105,1,0,0:0:0:0:
272,344,82276,2,0,P|288:288|256:232,1,112.500000372529
168,240,82619,2,0,P|176:168|256:144,1,112.500000372529
256,40,83133,6,0,P|320:24|368:56,1,112.500000372529
448,48,83476,1,0,0:0:0:0:
480,144,83648,1,0,0:0:0:0:
384,128,83819,1,0,0:0:0:0:
416,216,83990,2,0,P|384:288|424:328,1,112.500000372529
480,352,84505,6,0,P|408:336|328:360,1,112.500000372529
296,344,84847,1,0,0:0:0:0:
208,336,85019,2,0,P|136:328|80:360,2,112.500000372529,0|0|0,0:0|0:0|0:0,0:0:0:0:
296,344,85533,1,0,0:0:0:0:
256,232,85876,1,0,0:0:0:0:
360,232,86218,1,0,0:0:0:0:
400,160,86390,2,0,B|392:224|224:32|176:200,1,269.999992654323
272,208,87418,2,0,B|320:176|336:248|184:288|184:128|416:88,1,270.000011193752
208,312,98730,6,0,L|320:312,2,90.000000298023,0|0|0,0:0|0:0|0:0,0:0:0:0:
112,272,99415,2,0,L|48:200,1,90.000000298023
80,136,99758,1,0,0:0:0:0:
208,56,100101,2,0,P|152:16|104:16,2,90.000000298023,0|0|0,0:0|0:0|0:0,0:0:0:0:
360,96,100787,6,0,P|392:56|464:56,2,90.000000298023,0|0|0,0:0|0:0|0:0,0:0:0:0:
304,160,101301,1,0,0:0:0:0:
232,216,101472,2,0,P|160:208|128:240,2,90.000000298023,0|0|0,0:0|0:0|0:0,0:0:0:0:
376,272,102158,2,0,P|440:288|464:328,2,90.000000298023,0|0|0,0:0|0:0|0:0,0:0:0:0:
280,336,102843,2,0,P|248:296|112:280,1,180.000000596046
184,328,103529,2,0,L|280:128,1,180.000000596046
248,96,104214,6,0,P|288:96|328:136,1,90.000000298023
368,192,104557,1,0,0:0:0:0:
216,232,104900,2,0,P|176:224|144:168,1,90.000000298023
136,112,105243,1,0,0:0:0:0:
24,144,105585,1,0,0:0:0:0:
168,192,105928,1,0,0:0:0:0:
304,240,106271,5,0,0:0:0:0:
280,336,106614,2,0,P|216:328|192:304,2,90.000000298023,0|0|0,0:0|0:0|0:0,0:0:0:0:
352,288,107128,1,0,0:0:0:0:
384,216,107299,1,0,0:0:0:0:
304,96,107642,2,0,P|264:72|200:64,1,90.000000298023
144,88,107985,1,0,0:0:0:0:
272,160,108328,2,0,P|336:160|368:128,1,90.000000298023
392,72,108670,1,0,0:0:0:0:
328,344,109699,5,0,0:0:0:0:
240,352,109870,1,0,0:0:0:0:
160,320,110042,1,0,0:0:0:0:
88,264,110213,2,0,P|128:232|184:232,1,90.000000298023,0|0,0:0|0:0,0:0:0:0:
288,216,110727,1,0,0:0:0:0:
424,104,111070,6,0,P|376:80|320:72,1,90.000000298023
264,40,111413,1,0,0:0:0:0:
176,32,111584,1,0,0:0:0:0:
104,72,111755,2,0,L|136:160,1,90.000000298023
176,216,112098,5,0,0:0:0:0:
256,232,112270,1,0,0:0:0:0:
336,208,112441,1,0,0:0:0:0:
440,224,112612,6,0,P|424:280|368:288,1,90.000000298023,0|0,0:0|0:0,0:0:0:0:
272,168,113127,1,0,0:0:0:0:
152,48,113469,2,0,P|96:96|96:136,1,90.000000298023
136,192,113812,2,0,P|160:232|128:280,1,90.000000298023
80,256,114155,1,0,0:0:0:0:
144,320,114326,1,0,0:0:0:0:
192,256,114498,1,0,0:0:0:0:
272,256,114669,2,0,L|376:256,2,90.000000298023,0|0|0,0:0|0:0|0:0,0:0:0:0:
136,192,115355,5,0,0:0:0:0:
112,112,115526,1,0,0:0:0:0:
192,128,115697,1,0,0:0:0:0:
176,48,115869,2,0,P|272:48|280:72,1,90.000000298023
288,104,116212,2,0,P|352:88|376:48,1,90.000000298023
424,24,116554,2,0,P|456:88|392:200,1,180.000000596046
344,200,117069,1,0,0:0:0:0:
400,256,117240,1,0,0:0:0:0:
336,304,117411,5,0,0:0:0:0:
256,344,117583,1,0,0:0:0:0:
168,328,117754,1,0,0:0:0:0:
96,288,117925,1,0,0:0:0:0:
80,200,118097,6,0,P|168:176|192:184,1,90.000000298023
232,152,118440,1,0,0:0:0:0:
296,112,118611,1,0,0:0:0:0:
440,80,118954,2,0,P|418:40|356:22,1,90.000000298023
303,90,119297,2,0,P|330:131|376:152,1,90.000000298023
464,192,119639,5,0,0:0:0:0:
432,272,119811,1,0,0:0:0:0:
360,328,119982,2,0,L|304:328,8,45.0000001490115,0|0|0|0|0|0|0|0|0,0:0|0:0|0:0|0:0|0:0|0:0|0:0|0:0|0:0,0:0:0:0:
368,248,120839,6,0,P|304:216|256:240,1,90.000000298023,0|0,0:0|0:0,0:0:0:0:
224,272,121182,1,0,0:0:0:0:
128,240,121353,2,0,L|88:136,1,90.000000298023
48,88,121696,1,0,0:0:0:0:
160,64,122039,6,0,P|208:56|256:72,1,90.000000298023
288,136,122382,1,0,0:0:0:0:
352,80,122553,1,0,0:0:0:0:
280,32,122724,2,0,P|248:80|192:128,1,90.000000298023
160,176,123067,2,0,L|208:176,2,45.0000001490115,0|0|0,0:0|0:0|0:0,0:0:0:0:
248,248,123581,6,0,L|360:248,1,90.000000298023
480,248,124096,1,0,0:0:0:0:
400,344,124438,2,0,L|288:344,1,90.000000298023
216,344,124781,1,0,0:0:0:0:
144,272,124952,5,0,0:0:0:0:
240,248,125124,1,0,0:0:0:0:
152,200,125295,1,0,0:0:0:0:
248,176,125467,1,0,0:0:0:0:
160,128,125638,1,0,0:0:0:0:
256,104,125809,1,0,0:0:0:0:
416,56,126324,6,0,L|312:48,1,90.000000298023
224,32,126666,1,0,0:0:0:0:
144,40,126838,1,0,0:0:0:0:
32,160,127181,2,0,P|88:184|96:216,1,90.000000298023
40,272,127523,5,0,0:0:0:0:
80,344,127695,1,0,0:0:0:0:
128,272,127866,1,0,0:0:0:0:
176,200,128037,1,0,0:0:0:0:
232,152,128209,2,0,L|288:152,1,45.0000001490115
248,192,128380,2,0,L|296:192,1,45.0000001490115
272,232,128552,2,0,L|328:232,1,45.0000001490115
288,272,128723,2,0,L|336:272,1,45.0000001490115
400,272,129066,6,0,P|440:256|488:264,1,90.000000298023
456,336,129409,1,0,0:0:0:0:
368,328,129580,1,0,0:0:0:0:
88,328,130266,6,0,L|168:280,1,90.000000298023
128,176,130608,2,0,L|184:176,1,45.0000001490115
232,144,130865,2,0,L|160:144,1,45.0000001490115
120,96,131122,2,0,L|184:96,1,45.0000001490115
232,64,131380,1,0,0:0:0:0:
416,48,131808,6,0,P|432:96|408:160,1,90.000000298023
352,168,132151,1,0,0:0:0:0:
264,136,132322,1,0,0:0:0:0:
120,160,132665,2,0,P|180:154|205:123,1,90.000000298023
165,31,133008,2,0,P|81:46|61:72,1,90.000000298023
24,120,133351,1,0,0:0:0:0:
8,200,133522,1,0,0:0:0:0:
16,288,133693,2,0,P|96:336|112:328,1,90.000000298023
192,320,134550,6,0,L|288:280,1,90.000000298023
448,224,135064,2,0,L|360:192,1,90.000000298023
264,152,135407,2,0,L|208:96,2,45.0000001490115,0|0|0,0:0|0:0|0:0,0:0:0:0:
304,248,135750,1,0,0:0:0:0:
384,352,135921,1,0,0:0:0:0:
384,352,136093,1,0,0:0:0:0:
256,328,136264,1,0,0:0:0:0:
256,328,136436,1,0,0:0:0:0:
144,280,136607,1,0,0:0:0:0:
144,280,136778,1,0,0:0:0:0:
56,112,137292,6,0,P|128:72|160:64,1,90.000000298023
208,40,137635,1,0,0:0:0:0:
296,48,137807,1,0,0:0:0:0:
376,104,138149,2,0,L|424:136,2,45.0000001490115,0|0|0,0:0|0:0|0:0,0:0:0:0:
296,48,138492,2,0,P|264:96|288:136,1,90.000000298023
352,168,138835,1,0,0:0:0:0:
376,256,139006,1,0,0:0:0:0:
312,328,139178,1,0,0:0:0:0:
80,176,140035,6,0,P|24:128|24:80,1,90.000000298023
56,40,140377,1,0,0:0:0:0:
144,64,140549,2,0,P|192:120|184:168,1,90.000000298023
128,256,140892,2,0,L|80:288,2,45.0000001490115,0|0|0,0:0|0:0|0:0,0:0:0:0:
224,216,141234,2,0,P|272:168|272:128,1,90.000000298023
264,48,141577,1,0,0:0:0:0:
440,48,141920,2,0,L|512:48,8,45.0000001490115,0|0|0|0|0|0|0|0|0,0:0|0:0|0:0|0:0|0:0|0:0|0:0|0:0|0:0,0:0:0:0:
424,168,142777,6,0,P|432:216|400:272,1,90.000000298023
384,168,143120,1,0,0:0:0:0:
320,112,143291,1,0,0:0:0:0:
128,40,143634,2,0,L|96:8,2,45.0000001490115,0|0|0,0:0|0:0|0:0,0:0:0:0:
104,112,143977,2,0,P|104:168|64:192,1,90.000000298023
16,120,144319,1,0,0:0:0:0:
104,112,144491,1,0,0:0:0:0:
184,160,144662,1,0,0:0:0:0:
304,280,145005,2,0,L|352:312,2,45.0000001490115,0|0|0,0:0|0:0|0:0,0:0:0:0:
184,160,145519,6,0,P|240:112|280:120,1,90.000000298023
336,112,145862,1,0,0:0:0:0:
416,144,146033,1,0,0:0:0:0:
400,336,146376,2,0,P|304:320|288:328,1,90.000000298023
232,344,146719,1,0,0:0:0:0:
144,312,146890,5,0,0:0:0:0:
208,264,147062,1,0,0:0:0:0:
144,312,147233,1,0,0:0:0:0:
136,232,147404,1,0,0:0:0:0:
144,312,147576,1,0,0:0:0:0:
72,288,147747,1,0,0:0:0:0:
72,128,148261,6,0,P|136:96|192:112,1,90.000000298023
232,120,148604,1,0,0:0:0:0:
304,192,148776,2,0,P|240:224|208:216,1,90.000000298023
136,192,149118,2,0,L|88:144,2,45.0000001490115,0|0|0,0:0|0:0|0:0,0:0:0:0:
176,296,149461,2,0,P|248:336|368:312,1,180.000000596046
400,272,149975,1,0,0:0:0:0:
456,208,150147,1,0,0:0:0:0:
184,56,151004,6,0,P|120:80|104:112,1,90.000000298023
72,160,151346,1,0,0:0:0:0:
40,232,151518,2,0,P|128:248|136:240,1,90.000000298023
192,208,151861,2,0,L|176:144,2,45.0000001490115,0|0|0,0:0|0:0|0:0,0:0:0:0:
272,272,152203,2,0,P|304:192|256:88,1,180.000000596046
448,128,153574,6,0,L|352:176,1,90.000000298023
296,200,153917,1,0,0:0:0:0:
120,256,154260,2,0,L|72:168,1,90.000000298023
48,112,154603,1,0,0:0:0:0:
224,32,154946,2,0,L|264:120,1,90.000000298023
296,200,155288,1,0,0:0:0:0:
448,304,155631,6,0,P|416:336|352:344,1,90.000000298023
304,304,155974,1,0,0:0:0:0:
192,256,156145,2,0,P|248:216|296:224,1,90.000000298023
368,192,156488,2,0,P|360:136|328:104,1,90.000000298023
160,48,157002,6,0,L|88:128,1,90.000000298023
40,200,157345,1,0,0:0:0:0:
152,304,157688,2,0,L|256:192,1,90.000000298023,0|0,0:0|0:0,0:0:0:0:
272,176,158031,1,0,0:0:0:0:
312,64,158373,6,0,L|432:64,1,90.000000298023
480,64,158716,1,0,0:0:0:0:
472,168,158888,2,0,L|360:168,1,90.000000298023
296,160,159230,2,0,P|264:248|288:264,1,90.000000298023
336,304,159744,6,0,P|232:336|224:328,1,90.000000298023,0|0,0:0|0:0,0:0:0:0:
176,344,160087,1,0,0:0:0:0:
96,208,160430,2,0,P|128:160|128:112,1,90.000000298023
48,128,160773,1,0,0:0:0:0:
240,144,161116,6,0,L|312:72,1,90.000000298023
360,24,161458,1,0,0:0:0:0:
448,32,161630,2,0,L|448:144,1,90.000000298023
424,224,161973,2,0,L|312:240,1,90.000000298023
168,280,162487,6,0,L|96:336,2,90.000000298023,0|0|0,0:0|0:0|0:0,0:0:0:0:
336,112,163172,2,0,L|416:48,2,90.000000298023,0|0|0,0:0|0:0|0:0,0:0:0:0:
192,144,163858,2,0,L|112:64,2,90.000000298023,0|0|0,0:0|0:0|0:0,0:0:0:0:
376,288,164592,5,0,0:0:0:0:
208,344,164934,1,0,0:0:0:0:
48,256,165277,1,0,0:0:0:0:
216,200,165620,1,0,0:0:0:0:
360,88,165963,5,0,0:0:0:0:
488,208,166305,1,0,0:0:0:0:
312,240,166648,1,0,0:0:0:0:
176,128,166991,1,0,0:0:0:0:
32,24,167334,5,0,0:0:0:0:
208,8,167677,1,0,0:0:0:0:
352,120,168019,1,0,0:0:0:0:
176,128,168362,1,0,0:0:0:0:
48,256,168705,5,0,0:0:0:0:
216,320,169048,1,0,0:0:0:0:
384,256,169390,1,0,0:0:0:0:
432,80,169733,1,0,0:0:0:0:
256,192,170076,12,0,174532,0:0:0:0:
56,208,175560,5,0,0:0:0:0:
112,152,175732,1,0,0:0:0:0:
104,72,175903,1,0,0:0:0:0:
152,8,176075,2,0,P|208:48|208:112,1,112.500000372529
176,272,176760,1,0,0:0:0:0:
104,304,176932,2,0,P|56:328|24:392,2,112.500000372529,0|0|0,0:0|0:0|0:0,0:0:0:0:
384,312,177788,6,0,P|432:264|424:208,1,112.500000372529
368,128,178131,2,0,P|320:208|328:232,1,112.500000372529,0|0,0:0|0:0,0:0:0:0:
424,200,178474,1,0,0:0:0:0:
368,128,178645,1,0,0:0:0:0:
288,80,178817,2,0,P|224:80|168:136,1,112.500000372529
112,176,179502,5,0,0:0:0:0:
104,256,179673,1,0,0:0:0:0:
144,328,179845,2,0,P|208:320|232:272,1,112.500000372529
312,128,180531,6,0,L|416:192,1,112.500000372529
456,128,180873,2,0,L|344:56,1,112.500000372529
288,32,181216,1,0,0:0:0:0:
208,32,181388,1,0,0:0:0:0:
128,32,181559,2,0,P|56:88|48:152,1,112.500000372529
96,176,181902,1,0,0:0:0:0:
168,120,182073,1,0,0:0:0:0:
256,64,182245,6,0,P|312:144|288:192,1,112.500000372529
224,192,182587,1,0,0:0:0:0:
280,240,182759,1,0,0:0:0:0:
360,360,183102,6,0,L|440:264,1,112.500000372529
480,192,183444,1,0,0:0:0:0:
416,128,183616,2,0,L|320:40,1,112.500000372529,0|0,0:0|0:0,0:0:0:0:
264,8,183959,1,0,0:0:0:0:
178,51,184130,2,0,L|96:128,1,112.500000372529
32,192,184473,1,0,0:0:0:0:
80,264,184644,2,0,L|168:352,1,112.500000372529
224,384,184987,1,0,0:0:0:0:
288,312,185158,5,0,0:0:0:0:
344,232,185330,1,0,0:0:0:0:
312,144,185501,1,0,0:0:0:0:
256,72,185672,1,0,0:0:0:0:
176,40,185844,2,0,L|112:8,2,56.2500001862644,0|0|0,0:0|0:0|0:0,0:0:0:0:
256,72,186101,2,0,L|312:56,5,56.2500001862644,0|0|0|0|0|0,0:0|0:0|0:0|0:0|0:0|0:0,0:0:0:0:
408,32,186701,6,0,P|440:88|400:152,1,112.500000372529
336,112,187044,2,0,P|328:176|368:224,1,112.500000372529
464,264,187558,1,0,0:0:0:0:
408,336,187729,2,0,P|328:320|304:288,1,112.500000372529
360,224,188072,2,0,P|280:176|232:192,1,112.500000372529
128,288,188757,2,0,L|32:192,1,112.500000372529,0|0,0:0|0:0,0:0:0:0:
80,120,189100,2,0,L|160:200,1,112.500000372529
224,248,189443,5,0,0:0:0:0:
288,192,189614,1,0,0:0:0:0:
256,112,189786,2,0,P|216:64|152:64,1,112.500000372529
128,240,190471,2,0,P|200:256|248:224,1,112.500000372529
256,160,190814,1,0,0:0:0:0:
320,96,190985,1,0,0:0:0:0:
432,72,191500,6,0,L|456:192,1,112.500000372529
384,232,191842,1,0,0:0:0:0:
368,312,192014,1,0,0:0:0:0:
288,328,192185,1,0,0:0:0:0:
248,256,192357,1,0,0:0:0:0:
304,192,192528,2,0,L|376:96,2,112.500000372529,0|0|0,0:0|0:0|0:0,0:0:0:0:
248,256,193042,5,0,0:0:0:0:
288,328,193214,1,0,0:0:0:0:
368,312,193385,1,0,0:0:0:0:
384,232,193556,1,0,0:0:0:0:
304,192,193728,2,0,L|200:128,1,112.500000372529
192,32,194070,6,0,P|160:112|200:152,1,112.500000372529
216,184,194413,1,0,0:0:0:0:
272,240,194585,2,0,P|336:208|352:160,1,112.500000372529
216,184,194927,1,0,0:0:0:0:
144,224,195099,2,0,P|112:264|128:328,1,112.500000372529
216,184,195442,1,0,0:0:0:0:
152,136,195613,2,0,P|88:104|40:136,1,112.500000372529
216,184,195956,1,0,0:0:0:0:
208,256,196127,2,0,P|224:312|288:320,1,112.500000372529
336,288,196470,5,0,0:0:0:0:
376,224,196641,2,0,L|440:224,2,56.2500001862644,0|0|0,0:0|0:0|0:0,0:0:0:0:
376,168,196898,2,0,L|440:120,7,56.2500001862644,0|0|0|0|0|0|0|0,0:0|0:0|0:0|0:0|0:0|0:0|0:0|0:0,0:0:0:0:
464,88,197670,1,0,0:0:0:0:
512,40,197841,1,0,0:0:0:0:
64,64,198355,6,0,P|56:112|96:160,1,90.000000298023
144,128,198698,1,0,0:0:0:0:
224,104,198869,1,0,0:0:0:0:
216,184,199041,1,0,0:0:0:0:
304,152,199212,2,0,P|312:224|280:248,1,90.000000298023
64,304,199726,6,0,P|104:344|144:344,1,90.000000298023
208,304,200069,1,0,0:0:0:0:
288,312,200240,1,0,0:0:0:0:
368,288,200412,1,0,0:0:0:0:
448,224,200583,2,0,P|496:152|448:72,1,180.000000596046
368,104,201097,6,0,P|360:56|400:24,1,90.000000298023
360,216,201440,1,0,0:0:0:0:
272,200,201612,1,0,0:0:0:0:
272,112,201783,1,0,0:0:0:0:
224,40,201954,2,0,P|160:88|168:128,1,90.000000298023
72,200,202469,6,0,L|0:272,2,90.000000298023,0|0|0,0:0|0:0|0:0,0:0:0:0:
136,136,202983,1,0,0:0:0:0:
224,32,203326,1,0,0:0:0:0:
384,88,203840,6,0,L|464:160,1,90.000000298023
496,224,204182,1,0,0:0:0:0:
440,288,204354,1,0,0:0:0:0:
352,272,204525,1,0,0:0:0:0:
400,200,204697,2,0,L|304:112,1,90.000000298023
264,80,205211,6,0,L|160:80,1,90.000000298023
104,80,205554,1,0,0:0:0:0:
32,80,205725,1,0,0:0:0:0:
128,216,206068,1,0,0:0:0:0:
264,288,206582,6,0,P|328:232|328:192,1,90.000000298023
288,112,206925,2,0,P|224:192|232:216,1,90.000000298023
200,248,207267,1,0,0:0:0:0:
128,296,207439,1,0,0:0:0:0:
56,256,207610,1,0,0:0:0:0:
40,104,207953,5,0,0:0:0:0:
80,32,208124,1,0,0:0:0:0:
128,104,208296,1,0,0:0:0:0:
368,48,208810,2,0,L|464:48,2,90.000000298023,0|0|0,0:0|0:0|0:0,0:0:0:0:
232,48,209496,2,0,L|168:48,2,45.0000001490115,0|0|0,0:0|0:0|0:0,0:0:0:0:
304,112,209838,2,0,P|368:160|368:280,1,180.000000596046
312,312,210352,1,0,0:0:0:0:
264,240,210524,1,0,0:0:0:0:
136,56,211381,6,0,P|72:80|64:128,1,90.000000298023
24,224,211895,2,0,L|88:288,1,90.000000298023
152,336,212238,2,0,L|152:392,2,45.0000001490115,0|0|0,0:0|0:0|0:0,0:0:0:0:
208,224,212752,5,0,0:0:0:0:
208,224,212923,1,0,0:0:0:0:
328,296,213266,1,0,0:0:0:0:
384,320,213437,1,0,0:0:0:0:
440,304,213609,1,0,0:0:0:0:
464,64,214123,6,0,L|352:64,1,90.000000298023
304,64,214466,1,0,0:0:0:0:
224,64,214637,1,0,0:0:0:0:
88,96,214980,2,0,L|40:40,2,45.0000001490115,0|0|0,0:0|0:0|0:0,0:0:0:0:
144,160,215323,2,0,L|224:232,1,90.000000298023
216,296,215666,1,0,0:0:0:0:
288,232,215837,1,0,0:0:0:0:
312,320,216008,1,0,0:0:0:0:
416,120,216694,5,0,0:0:0:0:
416,120,216865,1,0,0:0:0:0:
304,48,217208,1,0,0:0:0:0:
304,48,217379,1,0,0:0:0:0:
192,96,217722,1,0,0:0:0:0:
192,96,217894,1,0,0:0:0:0:
288,176,218065,2,0,B|176:400|400:488|536:392|608:136|320:104|112:216|432:440|376:256,1,720.000002384184
