osu file format v14

[General]
AudioFilename: Virtual Riot - Fuck Gravity.mp3
AudioLeadIn: 0
PreviewTime: 34873
Countdown: 0
SampleSet: Soft
StackLeniency: 0.7
Mode: 0
LetterboxInBreaks: 0
WidescreenStoryboard: 0

[Editor]
Bookmarks: 17487,104760,122214,139669,157123
DistanceSpacing: 1.2
BeatDivisor: 4
GridSize: 4
TimelineZoom: 1.4

[Metadata]
Title:Fuck Gravity
TitleUnicode:Fuck Gravity
Artist:Virtual Riot
ArtistUnicode:Virtual Riot
Creator:Axey
Version:Normal
Source:
Tags:giltch hop 100% No Bangers Streliteela jyc-binggan ZZHBOY bakahuang
BeatmapID:853349
BeatmapSetID:390796

[Difficulty]
HPDrainRate:4
CircleSize:3.5
OverallDifficulty:4
ApproachRate:5
SliderMultiplier:1.6
SliderTickRate:1

[Events]
//Background and Video events
0,0,"bg.jpg",0,0
//Break Periods
2,71960,77378
//Storyboard Layer 0 (Background)
//Storyboard Layer 1 (Fail)
//Storyboard Layer 2 (Pass)
//Storyboard Layer 3 (Foreground)
//Storyboard Sound Samples

[TimingPoints]
33,545.454545454546,4,2,0,60,1,0
17487,-100,4,2,0,35,0,0
30578,-100,4,2,0,45,0,0
34942,-100,4,2,0,50,0,0
52396,-100,4,2,0,50,0,0
78578,-100,4,2,1,40,0,0
87305,-100,4,2,0,35,0,0
104760,-100,4,2,0,45,0,1
105305,-100,4,2,1,45,0,1
106942,-100,4,2,0,45,0,1
107214,-100,4,2,1,45,0,1
109123,-100,4,2,0,45,0,1
109396,-100,4,2,1,45,0,1
111305,-100,4,2,0,45,0,1
111851,-100,4,2,1,45,0,1
113487,-100,4,2,0,45,0,1
114033,-100,4,2,1,45,0,1
115669,-100,4,2,0,45,0,1
115942,-100,4,2,1,45,0,1
116623,-100,4,2,0,45,0,1
117033,-100,4,2,1,45,0,1
117714,-100,4,2,0,45,0,1
118260,-100,4,2,1,45,0,1
122214,-100,4,2,0,45,0,0
124396,-100,4,2,0,50,0,1
137487,-100,4,2,0,60,0,1
139669,-100,4,2,0,60,0,0

[Colours]
Combo1 : 117,225,89
Combo2 : 18,124,255
Combo3 : 0,227,216
Combo4 : 242,24,57

[HitObjects]
32,128,17487,6,2,B|76:132|120:132|120:132,1,80,8|2,0:1|0:0,0:0:0:0:
208,120,18033,2,0,L|192:84,1,40,8|2,0:1|0:0,0:0:0:0:
288,72,18442,2,0,L|295:32,1,40,2|8,0:0|0:1,0:0:0:0:
384,68,18851,2,0,L|412:32,2,40,0|8|8,0:0|0:0|0:1,0:0:0:0:
452,136,19396,2,0,L|448:176,1,40,2|2,0:0|0:0,0:0:0:0:
452,224,19669,6,0,P|416:220|364:228,1,80,8|2,0:1|0:0,0:0:0:0:
304,292,20214,2,0,P|280:296|248:292,1,40,8|2,0:1|0:0,0:0:0:0:
200,224,20623,2,0,P|172:224|132:228,1,40,0|8,0:0|0:1,0:0:0:0:
64,232,21033,1,2,0:0:0:0:
64,232,21305,2,0,L|28:64,1,160,8|8,0:1|0:1,0:0:0:0:
128,84,22123,1,0,0:0:0:0:
128,84,22396,6,0,P|192:88|228:84,1,80,8|0,0:1|0:0,0:0:0:0:
300,64,22942,2,0,P|364:60|400:64,1,80,8|2,0:1|0:0,0:0:0:0:
464,104,23487,2,0,P|468:160|464:272,1,160,8|8,0:1|0:1,0:0:0:0:
400,336,24305,5,2,0:0:0:0:
304,352,24578,2,0,P|260:356|184:348,2,120,8|2|2,0:1|0:0|0:0,0:0:0:0:
400,336,25669,1,8,0:1:0:0:
348,256,25942,1,8,0:0:0:0:
348,256,26214,6,0,L|352:168,1,80,8|2,0:1|0:0,0:0:0:0:
444,204,26760,2,0,L|436:28,1,160,8|8,0:1|0:1,0:0:0:0:
344,72,27578,1,0,0:0:0:0:
252,48,27851,2,0,L|168:52,1,80,8|2,0:1|0:0,0:0:0:0:
76,56,28396,6,0,L|80:148,1,80,8|2,0:1|0:0,0:0:0:0:
24,216,28942,2,0,L|28:276,1,40,8|2,0:1|0:0,0:0:0:0:
88,328,29351,2,0,P|148:320|208:324,1,120,2|2,0:0|0:0,0:0:0:0:
300,348,30033,2,0,P|340:352|380:344,1,80,8|0,0:1|0:0,0:0:0:0:
456,288,30578,6,0,P|464:236|468:168,2,120,0|0|0,0:0|0:0|0:0,0:0:0:0:
372,336,31669,2,0,P|358:298|353:258,1,80,2|0,2:0|0:0,0:0:0:0:
372,164,32214,2,0,P|384:124|384:72,1,80,8|0,0:1|0:0,0:0:0:0:
296,48,32760,6,0,L|152:28,2,120,0|0|0,0:0|0:0|0:0,0:0:0:0:
260,136,33851,2,0,L|180:152,1,80,0|2,0:0|3:0,0:0:0:0:
112,88,34396,1,0,0:0:0:0:
112,88,34669,1,0,0:0:0:0:
88,180,34942,6,0,P|92:224|88:268,1,80,2|2,0:1|0:0,0:0:0:0:
4,216,35487,2,0,P|-4:156|4:96,2,120,0|0|0,1:0|1:0|1:0,0:0:0:0:
12,312,36578,1,4,1:2:0:0:
89,259,36851,2,0,L|132:260,1,40,2|2,0:0|0:0,0:0:0:0:
164,292,37123,6,0,L|252:284,1,80,0|2,1:0|0:0,0:0:0:0:
336,316,37669,2,0,L|472:320,2,120,0|0|0,1:0|1:0|1:0,0:0:0:0:
320,220,38760,1,4,1:2:0:0:
320,220,39033,2,0,L|332:168,1,40,2|2,0:0|0:0,0:0:0:0:
308,140,39305,6,0,P|300:92|300:40,1,80,0|4,0:0|0:0,0:0:0:0:
392,88,39851,2,0,P|440:96|520:100,2,120,4|0|0,1:2|0:0|0:0,0:0:0:0:
298,60,40942,2,0,L|132:72,1,160,4|0,0:0|1:0,0:0:0:0:
44,48,41760,1,2,0:0:0:0:
60,144,42033,2,0,P|50:196|60:264,2,120,4|0|0,1:2|1:0|1:0,0:0:0:0:
152,172,43123,2,0,L|272:156,1,120,4|2,1:2|0:0,0:0:0:0:
270,156,43669,6,0,P|266:196|278:248,1,80,0|2,1:0|0:0,0:0:0:0:
324,316,44214,2,0,P|380:324|444:312,2,120,4|0|0,1:2|1:0|0:0,0:0:0:0:
376,236,45305,1,4,1:2:0:0:
376,236,45578,2,0,L|376:192,1,40,2|2,0:0|0:0,0:0:0:0:
400,156,45851,6,0,L|392:40,1,80,0|0,1:0|0:0,0:0:0:0:
312,128,46396,2,0,P|256:140|180:128,2,120,4|0|0,1:2|1:0|1:0,0:0:0:0:
344,36,47487,1,4,1:2:0:0:
344,36,47760,2,0,L|280:40,1,40,2|2,0:0|0:0,0:0:0:0:
260,56,48033,6,0,L|164:52,1,80,0|4,1:0|0:0,0:0:0:0:
120,128,48578,2,0,L|0:128,2,120,4|0|0,1:2|1:0|1:0,0:0:0:0:
212,148,49669,2,0,P|216:192|208:244,1,80,4|0,1:2|0:0,0:0:0:0:
188,268,50078,6,0,L|132:272,1,40,2|0,0:0|1:0,0:0:0:0:
56,240,50487,1,2,0:0:0:0:
56,240,50760,2,0,P|52:288|60:364,2,120,4|0|0,1:2|1:0|1:0,0:0:0:0:
152,220,51851,2,0,P|160:168|156:124,1,80,4|4,1:2|1:2,0:0:0:0:
160,44,52396,6,2,L|-4:56,1,160,4|0,1:0|0:0,0:0:0:0:
4,152,53214,2,0,P|8:216|28:312,1,160,0|0,0:0|0:0,0:0:0:0:
100,372,54033,1,4,1:2:0:0:
100,372,54305,1,0,0:0:0:0:
120,280,54578,6,0,P|176:292|212:296,1,80,0|0,1:0|0:0,0:0:0:0:
296,292,55124,2,0,P|344:284|384:268,1,80,4|2,1:2|3:0,0:0:0:0:
456,224,55669,2,0,P|480:192|488:144,1,80,0|0,0:0|1:0,0:0:0:0:
388,156,56214,2,0,P|396:112|392:68,1,80,4|2,1:2|0:0,0:0:0:0:
304,116,56760,6,0,L|220:108,1,80,0|0,1:0|0:0,0:0:0:0:
156,40,57305,2,0,L|36:52,2,120,4|0|0,1:2|1:0|1:0,0:0:0:0:
128,132,58396,2,0,P|112:200|148:288,1,160,0|0,0:0|1:0,0:0:0:0:
220,340,59214,5,0,0:0:0:0:
220,340,59487,2,0,L|352:344,2,120,4|0|0,1:2|1:0|1:0,0:0:0:0:
140,288,60578,1,4,1:2:0:0:
44,296,60851,1,2,2:1:0:0:
32,200,61123,6,0,L|28:116,1,80,0|2,1:0|0:2,0:0:0:0:
124,132,61669,2,0,L|140:0,2,120,4|0|0,1:2|1:0|1:0,0:0:0:0:
208,180,62760,2,0,P|260:180|304:176,1,80,4|2,1:2|0:0,0:0:0:0:
288,80,63305,6,0,P|364:76|416:80,1,120,0|2,1:0|0:0,0:0:0:0:
456,88,63851,2,0,L|476:208,2,120,4|0|0,1:2|1:0|1:0,0:0:0:0:
364,124,64942,2,0,P|324:128|264:120,1,80,4|2,1:2|0:0,0:0:0:0:
194,78,65487,6,0,B|184:120|184:120|192:156,1,80,0|0,1:0|0:0,0:0:0:0:
96,152,66033,2,0,L|120:272,2,120,4|0|0,1:2|1:0|1:0,0:0:0:0:
96,152,67123,1,4,1:2:0:0:
191,155,67396,1,0,0:0:0:0:
284,132,67669,6,0,P|316:116|344:76,1,80,0|0,1:0|0:0,0:0:0:0:
424,132,68214,2,0,P|440:88|444:12,2,120,4|0|0,1:2|1:0|1:0,0:0:0:0:
472,216,69305,2,0,P|456:260|460:356,1,120,4|0,1:2|1:0,0:0:0:0:
460,380,69851,5,4,1:0:0:0:
256,192,70123,12,0,71760,0:0:0:0:
252,136,78578,6,0,P|240:80|236:16,2,120,0|0|0,0:0|0:0|0:0,0:0:0:0:
306,216,79669,2,0,P|360:234|418:262,2,120,2|0|0,0:0|0:0|0:0,0:0:0:0:
209,223,80760,2,0,P|167:261|113:297,2,120,0|0|0,0:0|0:0|0:0,0:0:0:0:
252,136,81851,6,0,P|299:104|358:78,2,120,2|2|0,0:0|0:0|0:0,0:0:0:0:
340,172,82942,2,0,P|395:182|455:205,2,120,0|4|2,0:0|0:0|0:0,0:0:0:0:
372,264,84033,2,0,P|403:310|429:370,2,120,2|0|0,0:0|0:0|0:0,0:0:0:0:
280,240,85123,6,0,P|249:194|223:134,1,120,0|0,0:0|0:0,0:0:0:0:
332,348,86214,2,0,P|416:356|496:348,2,160,0|2|8,0:0|0:0|0:1,0:0:0:0:
240,324,87578,5,2,0:0:0:0:
240,324,87851,2,0,B|236:280|240:260|240:260,1,40,8|2,0:1|0:0,0:0:0:0:
151,244,88260,1,2,0:0:0:0:
144,196,88397,2,0,B|132:108|128:28,1,160,8|8,0:1|0:1,0:0:0:0:
224,40,89214,2,0,L|280:40,1,40,2|2,0:0|0:0,0:0:0:0:
304,68,89487,6,0,P|352:68|396:64,1,80,8|2,0:1|0:0,0:0:0:0:
476,32,90033,2,0,L|480:80,1,40,8|2,0:1|0:0,0:0:0:0:
420,148,90442,1,0,0:0:0:0:
424,196,90578,2,0,L|432:280,2,80,8|2|8,0:1|0:0|0:1,0:0:0:0:
328,176,91396,2,0,L|272:180,1,40,2|2,0:0|0:0,0:0:0:0:
240,192,91669,6,0,B|204:200|204:200|156:192,1,80,8|0,0:1|0:0,0:0:0:0:
208,108,92214,2,0,B|172:100|172:100|124:108,1,80,8|0,0:1|0:0,0:0:0:0:
36,128,92760,1,8,0:1:0:0:
68,36,93033,1,2,0:0:0:0:
36,128,93305,2,0,L|40:208,1,80,8|0,0:1|0:0,0:0:0:0:
108,276,93851,6,0,L|104:356,2,80,8|2|8,0:1|0:0|0:1,0:0:0:0:
156,192,94669,1,0,0:0:0:0:
156,192,94942,2,0,P|196:184|236:192,1,80,8|2,0:1|0:0,0:0:0:0:
292,268,95487,2,0,P|368:272|472:264,1,160,8|0,0:1|1:0,0:0:0:0:
480,172,96306,5,0,0:0:0:0:
480,172,96578,2,0,L|488:92,1,80,8|0,0:0|0:0,0:0:0:0:
396,124,97123,2,0,L|383:44,1,80,8|0,1:0|1:0,1:1:0:0:
304,100,97669,2,0,L|270:26,2,80,8|8|0,1:0|0:0|1:0,0:0:0:0:
208,100,98487,5,2,0:0:0:0:
208,100,98760,2,0,P|176:96|120:100,1,80,8|0,0:0|0:0,0:0:0:0:
148,192,99305,2,0,P|116:196|62:214,1,80,8|2,0:0|0:0,0:0:0:0:
116,296,99851,2,0,P|86:308|39:340,2,80,8|2|0,0:0|0:0|1:0,0:0:0:0:
192,356,100669,5,2,0:0:0:0:
192,356,100942,2,0,L|272:360,1,80,8|8,0:0|0:0,0:0:0:0:
280,264,101487,2,0,L|356:288,1,80,0|2,1:0|0:0,0:0:0:0:
408,208,102033,2,0,L|475:251,2,80,8|2|0,0:0|0:0|1:0,0:0:0:0:
328,152,102851,1,0,0:0:0:0:
232,148,103123,1,0,1:0:0:0:
140,176,103396,1,0,1:0:0:0:
140,176,103669,6,0,P|72:200|24:284,2,160,0|0|4,0:0|0:0|0:0,0:0:0:0:
192,360,105305,6,0,P|231:357|271:350,1,80,4|2,0:0|0:0,0:0:0:0:
300,312,105714,2,0,L|308:176,1,120,8|8,0:0|0:0,0:0:0:0:
336,100,106396,2,0,L|424:96,1,80,4|2,0:0|0:0,0:0:0:0:
472,176,106942,6,0,L|384:180,1,80,4|0,0:0|0:0,0:0:0:0:
336,100,107487,2,0,L|320:60,2,40,4|2|2,0:0|0:0|0:0,0:0:0:0:
296,128,107896,2,0,P|288:184|300:248,1,120,8|8,3:0|3:0,0:0:0:0:
264,336,108578,2,0,L|180:340,1,80,8|2,0:0|0:0,0:0:0:0:
144,252,109123,5,4,0:0:0:0:
84,328,109396,2,0,L|24:316,1,40,2|0,0:0|0:0,0:0:0:0:
16,280,109669,2,0,P|16:232|28:192,1,80,4|2,0:0|0:0,0:0:0:0:
60,168,110078,2,0,P|72:108|56:44,1,120,4|8,0:1|0:0,0:0:0:0:
156,68,110760,2,0,L|240:68,1,80,8|2,0:0|0:0,0:0:0:0:
324,32,111305,6,0,P|331:71|323:109,1,80,4|0,1:2|0:0,0:0:0:0:
260,184,111851,2,0,P|320:204|383:191,2,120,4|8|0,0:0|0:0|0:0,0:0:0:0:
168,152,112942,2,0,L|172:216,1,40,2|0,0:0|0:0,0:0:0:0:
144,232,113214,2,0,L|144:284,1,40,2|0,0:0|0:0,0:0:0:0:
148,320,113487,6,0,P|204:312|280:324,1,120,4|0,0:0|0:0,0:0:0:0:
312,328,114033,2,0,P|300:276|304:200,2,120,4|8|8,0:0|0:0|0:0,0:0:0:0:
388,272,115123,2,0,L|384:220,1,40,10|0,0:0|0:0,0:0:0:0:
424,204,115396,2,0,L|428:152,1,40,8|0,0:0|0:0,0:0:0:0:
436,116,115669,6,0,P|376:124|316:116,1,120,4|0,0:0|0:0,0:0:0:0:
296,76,116214,2,0,L|208:88,1,80,4|8,0:0|0:0,0:0:0:0:
204,132,116623,2,0,L|76:128,1,120,4|8,0:0|0:0,0:0:0:0:
12,64,117305,2,0,L|4:116,1,40,4|0,0:0|0:0,0:0:0:0:
4,152,117578,2,0,L|12:244,1,80,0|4,0:0|0:0,0:0:0:0:
84,296,118123,6,0,P|128:300|152:304,1,40,2|0,0:0|0:0,0:0:0:0:
172,288,118396,2,0,B|240:280|240:280|300:288,2,120,4|8|8,0:0|0:0|0:0,0:0:0:0:
208,200,119487,2,0,P|196:152|196:108,1,80,4|2,0:0|0:0,0:0:0:0:
280,76,120033,6,0,L|268:32,2,40,0|0|0,1:0|0:0|1:0,0:0:0:0:
368,116,120578,2,0,L|400:84,2,40,0|0|0,1:0|1:0|1:0,0:0:0:0:
344,160,120987,2,0,B|304:152|264:180|216:164,1,120,0|0,1:0|0:0,0:0:0:0:
136,128,121669,2,0,P|128:172|140:208,1,80,0|0,0:0|0:0,0:0:0:0:
212,268,122214,6,0,P|220:312|208:348,1,80,2|8,0:0|0:0,0:0:0:0:
120,304,122760,2,0,P|72:312|0:316,2,120,8|2|2,0:0|0:0|0:3,0:0:0:0:
172,224,123851,2,0,P|164:188|160:152,1,40,4|0,0:0|0:0,0:0:0:0:
124,156,124123,2,0,L|132:112,1,40,0|2,0:0|0:0,0:0:0:0:
148,72,124396,6,0,P|196:76|240:68,1,80,0|0,1:0|0:0,0:0:0:0:
316,108,124942,2,0,P|355:103|395:107,1,80,2|8,0:1|3:0,0:0:0:0:
468,172,125487,2,0,L|472:268,1,80,2|0,0:1|1:0,0:0:0:0:
424,336,126033,2,0,P|376:332|332:340,1,80,0|0,0:1|0:0,0:0:0:0:
256,296,126578,5,0,1:0:0:0:
176,348,126851,1,8,3:0:0:0:
256,296,127123,2,0,L|240:160,2,120,0|0|2,1:0|1:0|3:0,0:0:0:0:
176,348,128214,2,0,P|132:352|84:348,1,80,0|2,1:0|0:1,0:0:0:0:
112,256,128760,6,0,P|151:252|191:255,1,80,0|0,1:0|0:0,0:0:0:0:
264,196,129305,2,0,P|286:250|271:306,2,120,0|0|0,1:0|1:0|1:0,0:0:0:0:
224,108,130396,2,0,L|364:104,1,120,0|2,1:0|0:0,0:0:0:0:
392,100,130942,6,0,P|388:144|396:192,1,80,0|0,1:0|0:0,0:0:0:0:
480,140,131487,2,0,P|484:84|480:12,2,120,4|0|0,1:2|1:0|1:0,0:0:0:0:
420,216,132578,1,4,1:2:0:0:
328,188,132851,2,0,L|272:192,1,40,2|2,3:0|3:0,0:0:0:0:
244,172,133123,6,0,L|256:300,1,120,0|0,1:0|0:0,0:0:0:0:
260,340,133669,2,0,P|300:332|344:340,1,80,4|8,1:2|0:1,0:0:0:0:
384,348,134078,2,0,P|448:356|508:344,1,120,0|0,1:0|1:0,0:0:0:0:
504,248,134760,2,0,L|508:104,1,120,4|2,1:2|0:0,0:0:0:0:
484,84,135305,6,0,P|428:84|348:92,1,120,0|8,1:0|3:0,0:0:0:0:
316,100,135851,2,0,P|260:100|180:92,2,120,0|0|0,1:0|1:0|1:0,0:0:0:0:
332,196,136942,2,0,L|340:248,2,40,4|0|2,1:2|0:0|0:1,0:0:0:0:
416,148,137487,6,0,L|420:20,2,120,4|4|4,1:2|1:2|1:2,0:0:0:0:
224,356,139123,2,0,L|356:364,1,120,2|0,1:3|1:0,0:0:0:0:
343,363,139669,6,0,P|347:319|343:275,1,80,2|2,0:1|0:0,0:0:0:0:
264,228,140214,2,0,P|256:168|264:109,2,120,0|0|0,1:0|1:0|1:0,0:0:0:0:
352,268,141305,1,4,1:2:0:0:
275,321,141578,2,0,L|232:320,1,40,2|2,0:0|0:0,0:0:0:0:
200,288,141850,6,0,L|112:296,1,80,0|2,1:0|0:0,0:0:0:0:
120,200,142396,2,0,L|-16:196,2,120,0|0|0,1:0|1:0|1:0,0:0:0:0:
216,200,143487,1,4,1:2:0:0:
216,200,143760,2,0,L|204:252,1,40,2|2,0:0|0:0,0:0:0:0:
228,280,144032,6,0,P|236:328|236:380,1,80,0|4,0:0|0:0,0:0:0:0:
140,356,144578,2,0,P|92:348|12:344,2,120,4|0|0,1:2|0:0|0:0,0:0:0:0:
236,360,145669,2,0,L|358:352,1,120,4|2,0:0|0:0,0:0:0:0:
356,352,146214,5,0,1:0:0:0:
450,373,146487,1,2,0:0:0:0:
426,281,146760,2,0,P|436:229|426:161,2,120,4|0|0,1:2|1:0|1:0,0:0:0:0:
332,256,147850,2,0,L|208:272,1,120,4|2,1:2|0:0,0:0:0:0:
208,224,148396,6,0,P|212:184|200:132,1,80,0|2,1:0|0:0,0:0:0:0:
128,88,148941,2,0,P|72:80|8:92,2,120,4|0|0,1:2|1:0|0:0,0:0:0:0:
220,112,150032,1,4,1:2:0:0:
220,112,150305,2,0,L|220:156,1,40,2|2,0:0|0:0,0:0:0:0:
196,192,150578,6,0,L|204:308,1,80,0|0,1:0|0:0,0:0:0:0:
128,336,151123,2,0,P|72:324|-4:336,2,120,4|0|0,1:2|1:0|1:0,0:0:0:0:
220,364,152214,1,4,1:2:0:0:
220,364,152487,2,0,L|284:360,1,40,2|2,0:0|0:0,0:0:0:0:
304,344,152760,6,0,L|400:348,1,80,0|4,1:0|0:0,0:0:0:0:
392,252,153305,2,0,L|512:252,2,120,4|0|0,1:2|1:0|1:0,0:0:0:0:
296,232,154396,2,0,P|292:188|300:136,1,80,4|0,1:2|0:0,0:0:0:0:
320,112,154805,6,0,L|376:108,1,40,2|0,0:0|1:0,0:0:0:0:
452,140,155214,1,2,0:0:0:0:
452,140,155487,2,0,P|456:92|448:16,2,120,4|0|0,1:2|1:0|1:0,0:0:0:0:
372,192,156578,2,0,P|364:244|376:324,1,120,4|0,1:2|1:0,0:0:0:0:
384,356,157123,5,4,1:0:0:0:
