osu file format v7

[General]
AudioFilename: b7bc04a7936d.mp3
AudioLeadIn: 0
PreviewTime: 18980
Countdown: 1
SampleSet: Soft
StackLeniency: 0.7
Mode: 0
LetterboxInBreaks: 1
EpilepsyWarning: 1

[Editor]
DistanceSpacing: 0.899999976158142
BeatDivisor: 4
GridSize: 8

[Metadata]
Title:Plohaya Devochka (Bad Girl)
Artist:Vintaj
Creator:[DBF]
Version:Hard
Source:
Tags:russian

[Difficulty]
HPDrainRate:6
CircleSize:4
OverallDifficulty:6
SliderMultiplier:1.4
SliderTickRate:1

[Events]
//Background and Video events
0,0,"bg.jpg"
//Break Periods
2,58998,60203
//Storyboard Layer 0 (Background)
//Storyboard Layer 1 (Fail)
//Storyboard Layer 2 (Pass)
//Storyboard Layer 3 (Foreground)
//Storyboard Sound Samples
//Background Colour Transformations
3,100,163,162,255

[TimingPoints]
1253,545.454545454545,4,2,0,60,1,0
12162,-200,4,2,0,60,0,0
17623,-100,4,2,0,60,0,0
18714,-100,4,1,0,60,0,0
40941,-100,4,1,0,25,0,0
45441,-100,4,1,0,60,0,0
48987,-100,4,1,0,16,0,0
49123,-100,4,1,0,64,0,0
49532,-100,4,1,0,30,0,0
52941,-100,4,1,0,65,0,0
78169,-100,4,1,0,85,0,0
78714,-100,4,1,0,100,0,0
79941,-50,4,1,0,65,0,0
81169,-100,4,1,0,65,0,0
101616,-200,4,1,0,65,0,0
105441,-100,4,1,0,65,0,0
119623,-100,4,1,0,30,0,1
123305,-100,4,1,0,65,0,0
140350,-50,4,1,0,65,0,0
152343,-100,4,1,0,65,0,0
156707,-100,4,1,0,85,0,0
157252,-100,4,1,0,100,0,0
158343,-50,4,1,0,65,0,0
174987,-100,4,1,0,15,0,0

[Colours]
Combo1 : 255,128,0
Combo2 : 0,83,0
Combo3 : 164,209,255

[HitObjects]
128,112,1253,2,0,B|280:72|392:184,2,280
216,176,3980,1,0
328,152,4525,1,0
392,56,5071,2,0,B|240:48|120:160,2,280
328,152,7798,1,0
232,208,8343,1,0
120,232,8889,2,0,B|128:128|224:120|256:184|176:216|96:152|64:128,1,280,0|2
168,80,10525,5,0
272,48,11071,1,0
384,56,11616,1,0
272,48,12162,6,0,B|272:192,1,140,2|0
272,248,13798,1,0
328,248,14343,5,2
384,248,14889,2,0,B|384:168|384:168|320:168,1,140
264,168,16525,6,0,B|192:168|192:168|192:88,1,140,2|0
296,56,18162,1,0
392,112,18707,6,0,B|400:192|312:224,1,140,0|8
216,264,19798,1,0
216,264,20343,2,0,B|144:232|168:136,1,140,8|0
272,104,21434,6,0,B|352:136|320:224,1,140,8|8
280,256,22252,1,0
224,272,22525,1,8
168,256,22798,1,0
128,216,23071,2,0,B|64:160|104:88,1,140,0|8
208,48,24162,6,0,B|280:96|232:176,1,140,0|8
128,216,25252,2,8,B|64:160|104:88,2,140,0|8|8
232,256,26889,1,8
328,192,27434,6,0,B|392:136|352:48,1,140,0|8
248,48,28525,2,0,B|176:104|216:184,1,140,0|8
328,192,29616,2,0,B|392:136|352:48,2,140,0|8|8
280,216,30980,1,0
224,224,31252,1,8
168,216,31525,1,0
120,192,31798,2,0,B|88:112|160:56,2,140,0|8|0
120,192,33434,5,8
232,192,33980,1,0
344,192,34525,1,8
456,192,35071,2,0,B|456:112|456:112|384:112,2,140,0|8|0
368,264,36707,5,8
288,168,37253,2,0,B|192:168|192:80,2,140,0|8|0
320,264,38889,5,8
352,216,39162,1,0
312,176,39434,1,8
352,136,39707,1,0
312,96,39980,1,8
352,56,40253,2,0,B|208:56,1,140
152,56,41071,6,0,B|152:200,1,140
152,196,41889,2,0,B|200:216|240:192,1,70,0|0
220,200,42434,2,0,B|256:224|296:200,1,70
287,204,42980,2,0,B|329:184|361:208,1,70
353,202,43525,2,0,B|376:159|352:127,1,70
304,24,44071,5,0
240,160,44343,5,0
88,160,44616,5,0
312,160,45434,5,8
368,160,45707,1,0
368,104,45980,1,0
368,160,46253,1,0
368,216,46525,2,0,B|368:136|368:136|288:168,1,140,8|0
200,160,47616,6,0,B|144:160|144:104,1,70,8|0
208,64,48162,2,0,B|256:64|256:112,1,70
200,160,48707,2,0,B|144:160|144:104,2,70,8|0|0
312,159,49798,5,0
312,216,50071,1,0
312,272,50343,1,0
144,272,51162,1,0
144,216,51434,1,0
144,104,51980,1,0
200,104,52253,2,0,B|360:104,1,140
340,104,53071,1,0
340,104,53207,1,0
340,104,53343,1,0
340,104,53480,1,0
340,104,53616,1,0
256,192,54162,6,2,B|184:240|112:176,1,140
192,128,54980,1,0
256,80,55253,2,2,B|184:16|104:88,1,140
192,128,56071,1,0
256,192,56343,2,2,B|184:240|112:176,1,140
192,128,57162,1,0
192,128,57434,1,2
320,128,57980,2,8,B|432:128,2,105
256,256,61253,5,8
248,232,61389,1,0
264,208,61525,1,8
248,184,61662,1,0
256,160,61798,1,8
248,136,61934,1,0
256,112,62071,2,8,B|256:40,1,70
368,128,62889,6,0,B|416:200|360:280,2,140,8|0|8
336,88,64253,1,0
288,56,64525,2,0,B|240:128|304:208,1,140,0|8
320,232,65343,5,0
344,280,65616,2,0,B|272:328|200:272,1,140,0|8
160,256,66434,1,0
152,200,66707,2,0,B|216:144|304:200,1,140,0|8
336,216,67525,1,0
368,152,67798,1,0
296,128,68071,1,0
264,192,68343,1,8
336,216,68616,2,0,B|400:160|352:80,1,140
232,56,69707,5,0
192,96,69980,1,8
176,152,70253,1,0
184,208,70525,2,8,B|240:272|320:240,1,140,8|12
352,208,71343,1,0
312,168,71616,1,8
272,208,71889,1,0
232,168,72162,1,8
192,208,72434,1,0
152,168,72707,1,8
152,112,72980,2,0,B|224:112,1,70,0|8
336,112,73525,2,0,B|264:112,1,70,0|8
152,112,74343,5,8
152,112,74480,1,0
152,112,74616,1,8
152,112,74753,1,0
152,112,74889,2,0,B|224:112|224:112|224:184,2,140,8|8|8
152,224,76525,1,8
240,256,76798,1,0
336,256,77071,1,8
424,224,77343,1,0
464,48,77616,5,4
48,48,78162,5,4
256,328,78707,5,4
256,192,79253,5,0
256,192,79389,1,0
256,192,79525,1,0
256,192,79662,1,0
256,192,79798,1,0
256,192,79934,1,0
256,192,80071,2,8,B|192:224|112:192,1,140,0|8
256,192,80616,2,8,B|320:160|400:192,1,140,0|8
256,192,81162,1,0
256,192,81434,2,8,B|272:120|232:48,2,140
240,240,82798,5,0
208,288,83071,2,8,B|128:264|136:176,2,140
232,240,84434,1,8
232,240,84571,1,0
232,240,84707,1,8
256,192,84980,5,8
256,192,85116,1,0
256,192,85253,2,0,B|328:168|400:192,2,140,8|8|8
200,208,86616,1,0
144,224,86889,1,8
88,224,87162,5,0
88,168,87434,2,8,B|144:120|240:152,1,140
272,168,88253,1,0
320,192,88525,2,8,B|368:120|304:40,2,140
272,168,89889,1,0
272,168,90162,1,8
224,144,90434,1,0
224,144,90707,1,8
176,120,90980,1,0
176,120,91252,2,8,B|248:88|320:112,2,140
176,232,92889,6,8,B|248:264|320:224,1,140
400,160,93980,1,8
384,160,94116,1,0
368,160,94252,1,8
352,160,94389,1,0
336,160,94525,1,8
320,160,94662,1,0
304,160,94798,1,8
288,160,94934,1,0
272,160,95071,1,8
256,192,95343,12,0,96162
256,192,96434,5,0
256,192,96571,1,0
256,192,96707,1,0
256,192,96843,1,0
256,192,96980,1,0
256,192,97116,1,0
256,192,97252,6,0,B|336:160|408:200,2,140,0|8|0
208,216,98616,1,0
160,240,98889,2,0,B|128:160|160:88,2,140,8|0|8
208,216,100252,1,0
256,192,100525,6,0,B|256:104,1,70,8|0
256,192,101071,2,0,B|304:128,1,70,8|0
256,192,101616,2,0,B|336:192,2,70,0|8|0
224,192,102980,1,0
192,192,103252,2,0,B|152:192|152:192|152:152,2,70,8|0|8
224,192,104616,1,0
256,192,104889,2,0,B|328:192,1,70,0|8
448,192,105980,6,0,B|472:112|432:48,2,140,0|8|0
424,240,107343,1,0
400,288,107616,2,0,B|320:152,1,140,8|0
296,120,108434,5,0
264,168,108707,2,0,B|200:304,1,140,8|0
160,336,109525,1,0
128,288,109798,2,0,B|96:208|168:136,2,140,8|0|8
184,288,111162,5,0
200,232,111434,1,0
216,176,111707,1,0
232,120,111980,2,0,B|312:120|312:120|368:160,2,140,8|0|8
256,192,113343,12,0,114707
256,192,115252,5,8
192,192,115798,1,0
128,192,116343,1,8
128,128,116889,2,0,B|280:128,1,140,0|8
328,136,117980,2,0,B|328:280,1,140,0|8
272,288,119071,2,0,B|128:288,1,140,0|0
72,288,119889,5,0
72,224,120162,1,0
72,160,120434,2,0,B|144:160,1,70
208,160,120980,1,0
272,160,121252,1,0
336,160,121525,2,0,B|336:240,1,70
336,296,122071,1,0
272,296,122343,1,0
208,296,122616,2,0,B|128:296,2,70
344,152,123980,5,0
296,112,124252,1,0
248,152,124525,1,0
200,112,124798,1,0
152,152,125071,2,0,B|248:272,1,140
352,200,126162,2,0,B|400:144,1,70
328,96,126707,2,0,B|272:160,1,70
208,104,127252,2,0,B|264:40,2,70
256,192,128343,12,0,130798
256,192,131071,12,0,132162
256,192,132707,6,0,B|200:120|256:32,2,140
320,208,134071,2,0,B|408:208|408:312,1,140
280,296,135162,2,0,B|136:296,1,140
136,224,135980,2,0,B|288:224,1,140,0|8
368,224,136934,2,8,B|368:104,1,105
256,192,138707,12,0,140343
256,192,140616,5,0
256,192,140752,1,0
256,192,140889,2,0,B|192:136|232:56,1,140,8|0
256,192,141434,2,0,B|320:248|280:328,1,140,8|0
256,192,141980,2,0,B|312:256|392:216,1,140,8|0
256,192,142525,2,0,B|200:128|120:168,2,140,8|0|8
368,256,143343,1,0
408,136,143616,1,8
304,208,143889,5,0
352,88,144162,2,0,B|296:24|216:48,2,140,8|0|8
304,208,144980,1,0
184,240,145252,2,8,B|144:136|296:48|384:136,2,280
320,240,146616,1,0
368,120,146889,1,8
264,192,147162,1,0
312,72,147434,2,0,B|168:72,1,140,8|0
88,168,147980,2,0,B|232:168,1,140,8|0
352,168,148525,5,8
352,168,148798,1,0
296,280,149071,1,8
296,280,149343,1,0
240,168,149616,1,8
240,168,149889,1,0
184,280,150162,1,8
184,280,150434,1,0
120,168,150707,5,8
120,168,150980,1,0
200,72,151253,1,8
320,96,151525,2,0,B|392:144|352:224,2,140,0|8|0
200,72,152343,2,8,B|200:216,1,140
296,296,153434,5,8
296,280,153571,1,0
296,264,153707,1,8
296,248,153843,1,0
296,232,153980,2,8,B|296:160|208:160|208:240,2,140
296,232,155343,1,0
352,264,155616,1,8
408,296,155889,1,0
464,320,156162,5,4
256,32,156707,5,4
64,320,157253,5,4
256,192,157389,12,4,158343
256,192,158616,6,0,B|256:72|392:72,1,140,0|8
256,192,159162,2,0,B|256:72|120:72,1,140,0|8
256,192,159707,2,0,B|256:312|120:312,1,140,0|8
256,192,160253,2,0,B|256:312|392:312,1,140,0|8
376,184,160798,1,0
280,104,161071,1,8
184,184,161343,5,0
88,104,161616,2,0,B|32:256|200:328,2,280,8|8|8
224,128,162980,1,0
288,232,163253,2,8,B|328:152|408:184|408:184|352:136|376:48,2,280
152,240,164616,5,0
200,120,164889,2,8,B|304:96|320:168|192:272|240:112|248:64|360:200,2,280
120,216,166253,1,2
240,256,166525,1,8
368,232,166798,1,0
456,144,167071,1,10
336,168,167343,1,0
208,192,167616,5,8
88,160,167889,1,2
32,48,168162,1,8
144,112,168434,1,0
272,128,168707,1,10
392,96,168980,1,0
392,96,169253,2,8,B|400:216|256:184|272:96|360:112|328:240|200:264,2,280
136,104,170889,6,8,B|136:224|304:224|304:88,2,280
384,96,172525,6,0,B|384:248,1,140,8|0
168,104,173343,6,0,B|168:224|336:224|336:88,2,280
168,104,174707,1,0
256,192,174980,12,0,175798
256,192,175934,12,0,177980
