osu file format v12

[General]
AudioFilename: vim - No1.mp3
AudioLeadIn: 0
PreviewTime: 15400
Countdown: 1
SampleSet: Normal
StackLeniency: 0.7
Mode: 0
LetterboxInBreaks: 1
WidescreenStoryboard: 1

[Editor]
Bookmarks: 7720
DistanceSpacing: 1
BeatDivisor: 4
GridSize: 4
TimelineZoom: 1

[Metadata]
Title:No
TitleUnicode:No
Artist:Vim!
ArtistUnicode:Vim!
Creator:coltt5
Version:Yes!
Source:
Tags:chiptune eddsworld
BeatmapID:309782
BeatmapSetID:119264

[Difficulty]
HPDrainRate:1
CircleSize:3
OverallDifficulty:1
ApproachRate:3
SliderMultiplier:1
SliderTickRate:2

[Events]
//Background and Video events
0,0,"Vim-No Colour Mixa.jpg",0,0
//Break Periods
2,52080,54280
2,63359,65800
2,97200,100360
2,119280,125320
2,157439,159880
2,176879,179080
2,185999,188680
//Storyboard Layer 0 (Background)
//Storyboard Layer 1 (Fail)
//Storyboard Layer 2 (Pass)
//Storyboard Layer 3 (Foreground)
//Storyboard Sound Samples
//Background Colour Transformations
3,100,163,162,255

[TimingPoints]
40,480,4,1,0,100,1,0
168880,-100,4,1,0,75,0,0
176680,-100,4,1,0,100,0,0

[HitObjects]
184,164,7720,6,0,P|220:128|272:120,1,100,0|0,0:0|0:0,0:0:0:0:
264,220,8680,2,0,P|232:252|184:264,1,75,0|0,0:0|0:0,0:0:0:0:
328,288,9640,6,0,P|372:266|391:221,1,100
300,184,10600,2,0,P|324:144|368:120,1,75
420,148,11320,1,0,0:0:0:0:
436,196,11560,6,0,P|397:233|348:244,1,100
316,152,12520,2,0,P|264:136|228:152,1,75
256,316,13480,6,0,P|200:316|156:284,1,100
228,240,14440,2,0,P|264:208|296:208,1,75
364,208,15160,1,0,0:0:0:0:
372,160,15400,6,0,P|336:120|280:112,1,100,8|0,0:0|0:0,0:0:0:0:
216,48,16360,2,0,P|192:92|196:132,1,75,8|0,0:0|0:0,0:0:0:0:
140,224,17320,6,0,P|176:264|232:272,1,100,8|0,0:0|0:0,0:0:0:0:
296,336,18280,2,0,P|319:292|316:252,1,75,8|0,0:0|0:0,0:0:0:0:
373,214,19000,1,0,0:0:0:0:
328,192,19240,6,0,P|280:176|220:184,1,100,8|0,0:0|0:0,0:0:0:0:
276,268,20200,2,0,P|324:284|368:272,1,75,8|0,0:0|0:0,0:0:0:0:
388,164,21160,6,0,P|352:124|305:103,1,100,8|0,0:0|0:0,0:0:0:0:
212,88,22120,2,0,P|166:100|146:120,1,75,8|0,0:0|0:0,0:0:0:0:
140,192,22840,1,0,0:0:0:0:
256,192,23080,12,0,25000,0:0:0:0:
184,240,26440,6,2,L|236:204,1,50,2|2,0:0|0:0,0:0:0:0:
268,184,26920,2,0,P|304:168|352:180,1,75,2|8,0:0|2:0,0:0:0:0:
272,280,27880,2,0,P|308:296|356:284,1,75,0|8,0:0|0:0,0:0:0:0:
384,232,28600,1,0,0:0:0:0:
404,188,28840,2,2,P|408:132|372:96,1,100,2|8,0:0|0:0,0:0:0:0:
284,92,29800,6,0,L|264:140,1,50
216,132,30280,1,8,0:0:0:0:
116,132,30760,2,2,B|116:232|232:244|280:228,1,200,0|6,0:0|0:0,0:0:0:0:
368,84,32680,5,8,0:0:0:0:
332,152,33040,1,8,0:0:0:0:
324,228,33400,1,8,0:0:0:0:
180,272,34120,6,0,L|176:216,1,50
172,172,34600,2,0,P|200:140|256:128,1,100,8|0,0:0|0:0,0:0:0:0:
332,64,35560,1,8,0:0:0:0:
236,44,36040,1,4,0:0:0:0:
140,72,36520,5,10,0:0:0:0:
140,148,36880,1,2,0:0:0:0:
132,224,37240,1,10,0:0:0:0:
260,312,37960,6,2,L|240:252,1,50
256,216,38440,2,0,P|320:192|364:216,1,100,8|0,0:0|0:0,0:0:0:0:
392,292,39400,1,8,0:0:0:0:
296,320,39880,1,0,0:0:0:0:
196,320,40360,6,0,P|148:308|120:276,1,75,8|0,0:0|0:0,0:0:0:0:
140,216,41080,2,2,P|204:224|280:212,1,125,0|2,0:0|0:0,0:0:0:0:
372,304,42280,6,0,L|396:256,1,50
388,208,42760,2,0,P|372:156|348:128,1,75,8|0,0:0|0:0,0:0:0:0:
236,136,43720,2,0,P|208:176|236:212,1,100,8|0,0:0|0:0,0:0:0:0:
184,264,45160,5,2,0:0:0:0:
284,280,45640,1,2,0:0:0:0:
376,244,46120,2,0,P|404:220|376:72,1,200,10|8,0:0|0:0,0:0:0:0:
308,88,47440,1,0,0:0:0:0:
232,100,47800,2,0,L|208:152,1,50,0|8,0:0|0:0,0:0:0:0:
44,264,49000,6,0,P|84:268|108:296,1,75,8|0,0:0|0:0,0:0:0:0:
200,260,49960,2,0,P|236:280|276:280,1,75,8|0,0:0|0:0,0:0:0:0:
352,224,50920,1,8,0:0:0:0:
352,143,51400,1,0,0:0:0:0:
295,86,51880,1,12,0:0:0:0:
104,156,55720,6,0,P|168:136|212:160,2,100,8|0|8,0:0|0:0|0:0,0:0:0:0:
156,212,57160,1,0,0:0:0:0:
104,268,57640,6,0,P|148:288|212:264,2,100,8|0|8,0:0|0:0|0:0,0:0:0:0:
156,212,59080,2,2,L|208:212,1,50
256,212,59560,6,0,P|320:224|364:192,2,100,8|0|8,0:0|0:0|0:0,0:0:0:0:
300,148,61000,1,0,0:0:0:0:
244,88,61480,6,0,L|200:132,2,50,8|0|0,0:0|0:0|0:0,0:0:0:0:
344,80,62440,2,0,P|392:124|412:128,2,75,8|0|0,0:0|0:0|0:0,0:0:0:0:
388,192,67240,6,2,B|256:64|124:192,1,300,2|8,0:0|0:0,0:0:0:0:
124,192,69160,6,2,B|256:320|388:192,1,300,2|8,0:0|0:0,0:0:0:0:
256,192,71080,6,0,L|256:136,2,50,8|0|0,0:0|0:0|0:0,0:0:0:0:
256,292,72040,1,8,0:0:0:0:
156,296,72520,2,0,L|136:240,1,50
168,208,73000,6,0,L|224:212,1,50,8|0,0:0|0:0,0:0:0:0:
236,256,73480,2,0,L|348:268,1,100,0|8,0:0|0:0,0:0:0:0:
404,348,74440,2,0,B|464:320,1,50
456,276,74920,2,0,L|456:216,1,50,8|0,0:0|0:0,0:0:0:0:
444,176,75400,1,0,0:0:0:0:
396,84,75880,5,8,0:0:0:0:
304,120,76360,1,0,0:0:0:0:
208,84,76840,2,0,P|144:60|92:68,1,100,8|0,0:0|0:0,0:0:0:0:
84,156,77800,1,8,0:0:0:0:
232,172,78520,1,0,0:0:0:0:
248,220,78760,6,0,L|304:204,2,50,8|0|0,0:0|0:0|0:0,0:0:0:0:
256,192,79720,12,0,81640,0:0:0:0:
288,304,83080,6,0,L|348:336,2,50,8|0|0,0:0|0:0|0:0,0:0:0:0:
332,216,84040,1,8,0:0:0:0:
292,124,84520,2,0,L|240:156,1,50
232,196,85000,1,8,0:0:0:0:
140,152,85480,2,0,P|128:204|144:248,1,100,0|8,0:0|0:0,0:0:0:0:
256,192,86200,12,0,88360,0:0:0:0:
392,116,90040,5,0,0:0:0:0:
344,120,90280,2,2,L|288:176,2,75,10|8|10,0:0|0:0|0:0,0:0:0:0:
172,156,91840,5,0,0:0:0:0:
224,100,92200,1,8,0:0:0:0:
236,200,92680,1,0,0:0:0:0:
332,232,93160,2,0,P|372:248|384:284,1,75,8|0,0:0|0:0,0:0:0:0:
456,300,93880,6,0,L|464:240,1,50,0|8,0:0|0:0,0:0:0:0:
416,160,94600,1,0,0:0:0:0:
384,200,94840,2,2,P|416:232|464:240,2,75
296,248,96040,2,0,P|256:208|232:200,1,75,8|0,0:0|0:0,0:0:0:0:
136,276,97000,1,8,0:0:0:0:
180,268,101800,6,0,P|244:260|272:224,1,100,8|0,0:0|0:0,0:0:0:0:
308,144,102760,2,0,P|352:176|360:204,1,75,8|0,0:0|0:0,0:0:0:0:
468,196,103720,6,0,P|460:244|404:280,1,100,8|0,0:0|0:0,0:0:0:0:
352,348,104680,2,0,P|304:336|288:300,1,75,8|0,0:0|0:0,0:0:0:0:
256,268,105400,1,0,0:0:0:0:
200,284,105640,6,0,P|152:268|136:224,1,100,8|0,0:0|0:0,0:0:0:0:
112,128,106600,2,0,P|64:144|56:176,1,75,8|0,0:0|0:0,0:0:0:0:
60,288,107560,6,0,L|112:320,2,50,8|0|0,0:0|0:0|0:0,0:0:0:0:
144,232,108520,2,0,P|188:208|228:216,1,75,8|0,0:0|0:0,0:0:0:0:
228,284,109240,1,0,0:0:0:0:
276,296,109480,6,0,P|328:304|364:272,1,100,8|0,0:0|0:0,0:0:0:0:
360,176,110440,2,0,P|320:184|296:208,1,75,8|0,0:0|0:0,0:0:0:0:
192,140,111400,6,0,P|142:157|125:198,1,100,8|0,0:0|0:0,0:0:0:0:
188,276,112360,2,0,P|242:281|260:267,1,75,8|0,0:0|0:0,0:0:0:0:
312,224,113080,1,0,0:0:0:0:
360,272,113320,6,0,P|416:252|432:204,1,100,8|0,0:0|0:0,0:0:0:0:
404,120,114280,2,0,P|352:132|328:152,1,75,8|0,0:0|0:0,0:0:0:0:
220,96,115240,6,0,L|192:148,2,50,8|0|0,0:0|0:0|0:0,0:0:0:0:
120,92,116200,2,0,P|64:120|56:132,1,75,8|0,0:0|0:0,0:0:0:0:
52,204,116920,1,0,0:0:0:0:
256,192,117160,12,0,119080,0:0:0:0:
256,192,126760,6,10,P|304:200|340:188,2,75,10|10|10,0:0|0:0|0:0,0:0:0:0:
112,232,128200,1,0,0:0:0:0:
140,136,128680,2,0,P|184:148|204:192,1,75,8|0,0:0|0:0,0:0:0:0:
284,264,129640,2,0,P|324:296|360:300,1,75,8|0,0:0|0:0,0:0:0:0:
440,216,130600,6,0,P|424:137|313:110,1,200,8|8,0:0|0:0,0:0:0:0:
220,128,132040,1,0,0:0:0:0:
164,212,132520,2,2,P|200:304|312:312,1,200,10|2,0:0|0:0,0:0:0:0:
224,164,134440,6,10,P|184:160|136:172,2,75
372,156,135880,1,0,0:0:0:0:
332,64,136360,2,0,P|288:76|272:120,1,75,8|0,0:0|0:0,0:0:0:0:
200,200,137320,2,0,P|160:216|128:216,1,75,8|0,0:0|0:0,0:0:0:0:
120,92,138280,6,8,B|192:64|240:124|316:84,1,200
404,128,139720,1,0,0:0:0:0:
380,224,140200,2,2,B|340:268|248:272|172:256,1,200,10|2,0:0|0:0,0:0:0:0:
280,60,142120,5,10,0:0:0:0:
328,116,142480,1,10,0:0:0:0:
356,184,142840,1,10,0:0:0:0:
320,328,143560,6,0,P|268:316|248:260,1,100,0|8,0:0|0:0,0:0:0:0:
148,276,144520,1,0,0:0:0:0:
100,188,145000,1,8,0:0:0:0:
220,56,145960,5,10,0:0:0:0:
172,112,146320,1,10,0:0:0:0:
144,180,146680,1,10,0:0:0:0:
204,316,147400,6,2,P|264:292|280:252,1,100,2|8,0:0|0:0,0:0:0:0:
320,172,148360,2,0,P|392:180|428:208,2,100,0|8|0,0:0|0:0|0:0,0:0:0:0:
220,184,149800,6,0,P|176:204|128:204,1,75,8|0,0:0|0:0,0:0:0:0:
128,136,150520,1,0,0:0:0:0:
248,48,151240,1,8,0:0:0:0:
256,148,151720,6,0,P|288:140|312:116,1,50
320,84,152200,2,0,P|376:76|408:84,1,75,8|0,0:0|0:0,0:0:0:0:
432,144,153160,2,0,P|464:180|424:204,1,100,8|0,0:0|0:0,0:0:0:0:
260,248,154600,5,8,0:0:0:0:
184,308,155080,1,0,0:0:0:0:
88,276,155560,1,8,0:0:0:0:
144,156,156520,6,10,P|188:144|228:160,2,75,10|10|10,0:0|0:0|0:0,0:0:0:0:
220,128,161320,6,0,P|288:136|320:168,3,100,8|0|8|0,0:0|0:0|0:0|0:0,0:0:0:0:
292,256,163240,6,0,P|224:248|192:216,3,100,8|0|8|0,0:0|0:0|0:0|0:0,0:0:0:0:
320,156,165160,6,0,P|312:224|280:256,3,100,8|0|8|0,0:0|0:0|0:0|0:0,0:0:0:0:
192,228,167080,6,0,P|200:160|232:128,3,100,8|0|8|0,0:0|0:0|0:0|0:0,0:0:0:0:
331,171,169000,6,0,P|276:172|232:156,1,100,8|0,0:0|0:0,0:0:0:0:
316,100,169960,2,0,P|268:84|219:86,1,100,8|0,0:0|0:0,0:0:0:0:
176,108,170680,2,2,L|120:96,1,50,2|10,0:0|0:0,0:0:0:0:
124,204,171400,6,0,P|168:216|224:196,2,100,0|8|0,0:0|0:0|0:0,0:0:0:0:
73,204,172600,2,2,L|73:148,1,50,2|10,0:0|0:0,0:0:0:0:
180,160,173320,6,0,P|232:144|292:164,2,100,0|8|0,0:0|0:0|0:0,0:0:0:0:
132,156,174520,2,2,L|132:104,1,50,2|10,0:0|0:0,0:0:0:0:
228,72,175240,6,0,L|336:72,2,100,0|8|0,0:0|0:0|0:0,0:0:0:0:
192,107,176440,2,2,L|192:171,1,50,2|6,0:0|0:0,0:0:0:0:
128,108,180520,6,0,L|188:124,3,50,8|0|8|0,0:0|0:0|0:0|0:0,0:0:0:0:
224,128,181480,2,0,L|284:104,1,50,8|0,0:0|0:0,0:0:0:0:
320,108,181960,2,0,L|376:144,1,50,8|0,0:0|0:0,0:0:0:0:
368,184,182440,6,0,L|320:220,3,50,8|0|8|0,0:0|0:0|0:0|0:0,0:0:0:0:
280,228,183400,2,0,L|232:200,1,50,8|0,0:0|0:0,0:0:0:0:
188,196,183880,2,0,L|132:236,1,50,8|0,0:0|0:0,0:0:0:0:
140,276,184360,6,2,P|245:327|416:272,1,300,10|2,0:0|0:0,0:0:0:0:
208,192,190120,6,2,L|320:192,2,100,2|2|6,0:0|0:0|0:0,0:0:0:0:
