osu file format v13

[General]
AudioFilename: vim - No1.mp3
AudioLeadIn: 0
PreviewTime: 15400
Countdown: 1
SampleSet: Normal
StackLeniency: 0.7
Mode: 0
LetterboxInBreaks: 1
WidescreenStoryboard: 1

[Editor]
Bookmarks: 7720
DistanceSpacing: 1
BeatDivisor: 4
GridSize: 4
TimelineZoom: 1

[Metadata]
Title:No
TitleUnicode:No
Artist:Vim!
ArtistUnicode:Vim!
Creator:coltt5
Version:No.
Source:
Tags:chiptune eddsworld
BeatmapID:392844
BeatmapSetID:119264

[Difficulty]
HPDrainRate:6
CircleSize:5
OverallDifficulty:6
ApproachRate:8
SliderMultiplier:1.7
SliderTickRate:1

[Events]
//Background and Video events
0,0,"Vim-No Colour Mixa.jpg",0,0
//Break Periods
//Storyboard Layer 0 (Background)
//Storyboard Layer 1 (Fail)
//Storyboard Layer 2 (Pass)
//Storyboard Layer 3 (Foreground)
//Storyboard Sound Samples
//Background Colour Transformations
3,100,163,162,255

[TimingPoints]
40,480,4,1,0,100,1,0
169000,-100,4,1,0,75,0,0
176680,-100,4,1,0,100,0,0

[HitObjects]
120,312,7720,5,0,0:0:0:0:
196,272,7960,1,0,0:0:0:0:
256,212,8200,1,0,0:0:0:0:
288,132,8440,1,0,0:0:0:0:
296,48,8680,1,0,0:0:0:0:
256,264,9040,1,0,0:0:0:0:
216,48,9640,5,0,0:0:0:0:
224,132,9880,1,0,0:0:0:0:
256,212,10120,1,0,0:0:0:0:
316,272,10360,1,0,0:0:0:0:
392,312,10600,1,0,0:0:0:0:
392,268,10720,1,0,0:0:0:0:
392,160,10960,1,0,0:0:0:0:
224,92,11200,5,0,0:0:0:0:
236,108,11260,1,0,0:0:0:0:
256,116,11320,1,0,0:0:0:0:
276,108,11380,1,0,0:0:0:0:
288,92,11440,1,0,0:0:0:0:
256,172,11560,5,0,0:0:0:0:
216,248,11800,1,0,0:0:0:0:
300,248,12040,1,0,0:0:0:0:
340,172,12280,1,0,0:0:0:0:
172,172,12520,1,0,0:0:0:0:
256,320,12880,1,0,0:0:0:0:
132,96,13480,5,0,0:0:0:0:
164,68,13600,1,0,0:0:0:0:
196,100,13720,1,0,0:0:0:0:
256,40,13960,1,0,0:0:0:0:
284,120,14200,1,0,0:0:0:0:
316,148,14320,1,0,0:0:0:0:
348,116,14440,1,0,0:0:0:0:
424,152,14680,1,0,0:0:0:0:
456,120,14800,1,0,0:0:0:0:
424,40,15040,1,0,0:0:0:0:
380,40,15160,1,0,0:0:0:0:
336,40,15280,1,0,0:0:0:0:
336,124,15400,5,0,0:0:0:0:
256,96,15640,1,0,0:0:0:0:
176,124,15880,1,0,0:0:0:0:
256,152,16120,2,0,L|296:168,1,42.5
336,180,16360,1,0,0:0:0:0:
176,180,16720,2,0,L|176:228,1,42.5
336,284,17320,5,0,0:0:0:0:
256,256,17560,1,0,0:0:0:0:
176,284,17800,1,0,0:0:0:0:
256,312,18040,2,0,L|256:264,1,42.5
256,228,18280,1,0,0:0:0:0:
256,184,18400,1,0,0:0:0:0:
256,100,18640,2,0,L|256:52,1,42.5
300,144,18880,5,0,0:0:0:0:
282,159,18940,1,0,0:0:0:0:
259,164,19000,1,0,0:0:0:0:
235,160,19060,1,0,0:0:0:0:
215,145,19120,1,0,0:0:0:0:
156,208,19240,5,0,0:0:0:0:
212,272,19480,1,0,0:0:0:0:
300,272,19720,1,0,0:0:0:0:
356,208,19960,2,0,L|304:208,1,42.5
256,208,20200,1,0,0:0:0:0:
256,328,20560,2,0,L|256:280,1,42.5
216,120,21160,5,0,0:0:0:0:
296,120,21280,1,0,0:0:0:0:
256,180,21400,1,0,0:0:0:0:
256,76,21640,1,0,0:0:0:0:
340,76,21880,1,0,0:0:0:0:
368,116,22000,1,0,0:0:0:0:
340,160,22120,1,0,0:0:0:0:
256,152,22360,1,0,0:0:0:0:
256,101,22480,2,0,L|224:69,1,42.5
176,76,22720,1,0,0:0:0:0:
144,116,22840,1,0,0:0:0:0:
172,160,22960,1,0,0:0:0:0:
204,200,23080,5,0,0:0:0:0:
208,179,23140,1,0,0:0:0:0:
214,158,23200,1,0,0:0:0:0:
222,139,23260,1,0,0:0:0:0:
233,121,23320,1,0,0:0:0:0:
246,104,23380,1,0,0:0:0:0:
260,88,23440,1,0,0:0:0:0:
277,74,23500,1,0,0:0:0:0:
294,62,23560,1,0,0:0:0:0:
312,51,23620,1,0,0:0:0:0:
332,42,23680,1,0,0:0:0:0:
351,35,23740,1,0,0:0:0:0:
372,28,23800,1,0,0:0:0:0:
392,23,23860,1,0,0:0:0:0:
413,19,23920,1,0,0:0:0:0:
434,16,23980,1,0,0:0:0:0:
438,35,24040,5,0,0:0:0:0:
439,56,24100,1,0,0:0:0:0:
439,78,24160,1,0,0:0:0:0:
438,99,24220,1,0,0:0:0:0:
435,120,24280,1,0,0:0:0:0:
432,141,24340,1,0,0:0:0:0:
426,161,24400,1,0,0:0:0:0:
419,181,24460,1,0,0:0:0:0:
409,200,24520,1,0,0:0:0:0:
398,219,24580,1,0,0:0:0:0:
386,236,24640,1,0,0:0:0:0:
372,252,24700,1,0,0:0:0:0:
356,266,24760,1,0,0:0:0:0:
340,280,24820,1,0,0:0:0:0:
322,292,24880,1,0,0:0:0:0:
304,303,24940,1,0,0:0:0:0:
280,312,25000,6,0,P|245:326|174:309,1,85
206,270,25360,2,0,P|168:251|119:254,1,85
103,297,25720,2,0,P|63:265|49:206,1,85
71,133,26200,1,0,0:0:0:0:
119,117,26320,1,0,0:0:0:0:
168,108,26440,2,0,L|216:120,1,42.5
224,264,26800,5,0,0:0:0:0:
260,228,26920,2,0,P|320:208|364:220,1,85
388,224,27280,2,0,P|428:260|448:308,1,85
412,328,27640,2,0,L|308:348,2,85
384,284,28240,2,0,P|340:276|292:288,1,85
252,300,28600,1,0,0:0:0:0:
208,328,28720,1,0,0:0:0:0:
168,296,28840,2,0,P|124:264|108:192,1,127.5
107,195,29320,2,0,P|128:140|168:112,1,85
192,100,29680,1,0,0:0:0:0:
240,84,29800,6,0,L|240:168,2,85
288,104,30400,2,0,P|344:116|376:152,1,85
364,184,30760,2,0,P|321:182|236:232,2,127.5
416,184,31600,1,0,0:0:0:0:
416,236,31720,2,0,P|380:260|332:264,1,85
288,264,32080,1,0,0:0:0:0:
236,264,32200,2,0,L|188:264,1,42.5
144,244,32440,2,0,L|144:286,1,42.5
112,192,32680,5,0,0:0:0:0:
256,320,33040,2,0,L|256:368,1,42.5
400,192,33400,2,0,L|444:192,2,42.5
276,192,33880,2,0,L|234:192,1,42.5
256,64,34120,5,0,0:0:0:0:
256,136,34360,1,0,0:0:0:0:
256,236,34600,1,0,0:0:0:0:
228,336,34840,1,0,0:0:0:0:
284,336,34960,2,0,L|304:296,1,42.5
304,216,35200,1,0,0:0:0:0:
256,192,35320,1,0,0:0:0:0:
208,216,35440,2,0,L|180:272,1,42.5
136,340,35800,2,0,L|88:340,1,42.5
93,288,36040,1,0,0:0:0:0:
144,104,36400,5,0,0:0:0:0:
188,72,36520,1,0,0:0:0:0:
336,192,36880,2,0,L|380:192,1,42.5
188,312,37240,2,0,L|144:280,2,42.5
256,192,37720,2,0,L|212:192,1,42.5
148,192,37960,5,0,0:0:0:0:
256,84,38200,1,0,0:0:0:0:
364,192,38440,1,0,0:0:0:0:
256,300,38680,1,0,0:0:0:0:
256,256,38800,1,0,0:0:0:0:
256,128,39040,1,0,0:0:0:0:
256,212,39280,1,0,0:0:0:0:
188,256,39520,5,0,0:0:0:0:
197,222,39640,1,0,0:0:0:0:
221,197,39760,2,0,L|240:212,1,21.25
255,188,39880,1,0,0:0:0:0:
289,196,40000,1,0,0:0:0:0:
314,221,40120,1,0,0:0:0:0:
323,254,40240,1,0,0:0:0:0:
256,300,40360,5,0,0:0:0:0:
256,300,40720,2,0,L|256:232,1,42.5
256,215,41080,2,0,L|256:152,2,42.5
208,132,41440,1,0,0:0:0:0:
256,108,41560,1,0,0:0:0:0:
304,132,41680,1,0,0:0:0:0:
388,84,41920,5,0,0:0:0:0:
412,132,42040,1,0,0:0:0:0:
388,180,42160,1,0,0:0:0:0:
360,132,42280,2,0,L|256:132,2,85
276,60,43000,1,0,0:0:0:0:
220,60,43120,2,0,L|176:60,1,42.5
136,100,43360,5,0,0:0:0:0:
108,148,43480,1,0,0:0:0:0:
136,196,43600,1,0,0:0:0:0:
164,148,43720,1,0,0:0:0:0:
192,196,43840,1,0,0:0:0:0:
164,244,43960,1,0,0:0:0:0:
220,244,44080,5,0,0:0:0:0:
220,244,44200,2,0,L|324:244,1,85
305,201,44560,2,0,L|219:201,1,85
220,201,44920,2,0,L|220:248,1,42.5
220,288,45160,6,0,P|276:312|352:292,1,127.5
372,276,45640,1,0,0:0:0:0:
372,232,45760,1,0,0:0:0:0:
328,232,45880,5,0,0:0:0:0:
308,244,45940,1,0,0:0:0:0:
288,248,46000,1,0,0:0:0:0:
268,248,46060,1,0,0:0:0:0:
248,244,46120,5,0,0:0:0:0:
191,217,46240,1,0,0:0:0:0:
218,159,46360,1,0,0:0:0:0:
276,187,46480,1,0,0:0:0:0:
304,131,46600,1,0,0:0:0:0:
246,103,46720,1,0,0:0:0:0:
218,159,46840,1,0,0:0:0:0:
164,128,46960,1,0,0:0:0:0:
192,72,47080,6,0,P|224:44|280:48,1,85
336,76,47440,1,0,0:0:0:0:
352,88,47500,1,0,0:0:0:0:
364,108,47560,2,0,P|368:136|364:152,1,42.5
332,216,47800,2,0,P|308:240|288:248,1,42.5
259,245,48040,6,0,L|140:248,1,85
132,248,48520,2,0,L|132:332,1,85
132,356,48880,1,0,0:0:0:0:
132,376,49000,2,0,P|184:372|212:320,1,85
228,348,49360,6,0,P|244:364|268:376,1,42.5
304,380,49600,1,0,0:0:0:0:
324,372,49720,1,0,0:0:0:0:
340,360,49840,1,0,0:0:0:0:
356,340,49960,6,0,P|384:288|380:240,1,85
380,240,50320,2,0,L|368:184,1,42.5
328,192,50560,5,0,0:0:0:0:
287,204,50680,1,0,0:0:0:0:
257,233,50800,1,0,0:0:0:0:
231,267,50920,1,0,0:0:0:0:
192,281,51040,1,0,0:0:0:0:
151,271,51160,1,0,0:0:0:0:
119,243,51280,2,0,L|140:216,1,21.25
101,205,51400,1,0,0:0:0:0:
97,163,51520,1,0,0:0:0:0:
107,122,51640,1,0,0:0:0:0:
133,88,51760,1,0,0:0:0:0:
170,68,51880,5,0,0:0:0:0:
188,108,52000,1,0,0:0:0:0:
204,148,52120,2,0,P|184:184|208:236,2,85
244,160,52720,1,0,0:0:0:0:
280,140,52840,1,0,0:0:0:0:
320,160,52960,1,0,0:0:0:0:
352,188,53080,1,0,0:0:0:0:
392,176,53200,1,0,0:0:0:0:
420,208,53320,1,0,0:0:0:0:
440,248,53440,1,0,0:0:0:0:
412,280,53560,1,0,0:0:0:0:
420,320,53680,1,0,0:0:0:0:
384,296,53800,5,0,0:0:0:0:
340,300,53920,1,0,0:0:0:0:
296,304,54040,2,0,P|292:256|324:228,2,85
276,344,54640,1,0,0:0:0:0:
236,328,54760,1,0,0:0:0:0:
204,300,54880,1,0,0:0:0:0:
184,264,55000,1,0,0:0:0:0:
140,268,55120,1,0,0:0:0:0:
124,228,55240,1,0,0:0:0:0:
120,184,55360,1,0,0:0:0:0:
152,156,55480,1,0,0:0:0:0:
188,180,55600,1,0,0:0:0:0:
256,260,55720,5,0,0:0:0:0:
392,192,55960,2,0,L|392:144,1,42.5
256,118,56200,1,0,0:0:0:0:
120,192,56440,2,0,L|120:240,1,42.5
120,344,56680,1,0,0:0:0:0:
348,344,56920,1,0,0:0:0:0:
392,344,57040,2,0,L|392:296,1,42.5
392,256,57280,5,0,0:0:0:0:
413,219,57400,2,0,L|364:220,1,42.5
392,92,57640,5,0,0:0:0:0:
256,192,57880,2,0,L|256:240,1,42.5
132,256,58120,1,0,0:0:0:0:
256,320,58360,2,0,L|256:272,1,42.5
380,256,58600,1,0,0:0:0:0:
396,212,58720,2,0,L|396:168,1,42.5
396,128,58960,2,0,L|352:128,1,42.5
256,76,59200,5,0,0:0:0:0:
256,96,59260,1,0,0:0:0:0:
256,116,59320,1,0,0:0:0:0:
256,136,59380,1,0,0:0:0:0:
256,156,59440,1,0,0:0:0:0:
256,264,59560,5,0,0:0:0:0:
336,192,59800,1,0,0:0:0:0:
336,192,59920,2,0,L|336:144,1,42.5
176,192,60280,2,0,L|176:149,1,42.5
176,149,60520,1,0,0:0:0:0:
256,76,60760,1,0,0:0:0:0:
256,120,60880,2,0,L|256:168,1,42.5
256,204,61120,5,0,0:0:0:0:
235,241,61240,2,0,L|287:241,1,42.5
324,180,61480,5,0,0:0:0:0:
188,180,61600,1,0,0:0:0:0:
256,296,61720,2,0,L|256:240,1,42.5
256,148,61960,1,0,0:0:0:0:
120,108,62200,1,0,0:0:0:0:
120,192,62320,1,0,0:0:0:0:
120,108,62440,1,0,0:0:0:0:
392,192,62680,1,0,0:0:0:0:
392,108,62800,2,0,L|348:108,1,42.5
192,60,63040,5,0,0:0:0:0:
256,192,63160,1,0,0:0:0:0:
320,324,63280,2,0,L|372:324,1,42.5
392,156,63640,5,0,0:0:0:0:
308,156,63880,1,0,0:0:0:0:
308,240,64120,1,0,0:0:0:0:
308,156,64360,1,0,0:0:0:0:
308,240,64600,1,0,0:0:0:0:
236,196,64840,1,0,0:0:0:0:
164,240,65080,2,0,L|164:156,1,85
164,72,65560,5,0,0:0:0:0:
248,72,65800,1,0,0:0:0:0:
308,132,66040,1,0,0:0:0:0:
368,71,66280,1,0,0:0:0:0:
398,101,66400,2,0,L|446:101,2,42.5
398,143,66760,1,0,0:0:0:0:
398,185,66880,2,0,L|446:185,2,42.5
398,227,67240,6,0,P|356:272|276:280,1,127.5
264,256,67720,2,0,P|216:240|168:248,1,85
156,208,68080,1,0,0:0:0:0:
140,168,68200,2,0,P|148:124|192:96,1,85
220,96,68560,2,0,L|268:96,1,42.5
296,176,68920,5,0,0:0:0:0:
320,144,69040,1,0,0:0:0:0:
356,168,69160,2,0,P|384:192|392:244,1,85
372,276,69520,2,0,L|324:256,1,42.5
260,300,69880,2,0,L|232:256,2,42.5
176,304,70360,1,0,0:0:0:0:
176,304,70480,1,0,0:0:0:0:
132,304,70600,2,0,L|112:252,1,42.5
112,220,70840,5,0,0:0:0:0:
120,180,70960,1,0,0:0:0:0:
136,140,71080,2,0,P|176:104|212:104,1,85
205,102,71560,1,0,0:0:0:0:
372,104,71800,1,0,0:0:0:0:
380,124,71860,1,0,0:0:0:0:
384,148,71920,2,0,P|360:232|320:252,1,127.5
300,228,72400,1,0,0:0:0:0:
260,248,72520,5,0,0:0:0:0:
236,284,72640,1,0,0:0:0:0:
268,312,72760,2,0,L|328:308,1,42.5
336,276,73000,2,0,P|404:272|432:240,1,85
428,224,73360,1,0,0:0:0:0:
436,184,73480,2,0,P|412:112|384:100,1,85
388,72,73840,1,0,0:0:0:0:
348,92,73960,1,0,0:0:0:0:
312,116,74080,1,0,0:0:0:0:
268,120,74200,2,0,L|224:88,1,42.5
168,132,74440,5,0,0:0:0:0:
132,111,74560,1,0,0:0:0:0:
92,122,74680,1,0,0:0:0:0:
73,159,74800,1,0,0:0:0:0:
87,198,74920,1,0,0:0:0:0:
172,208,75160,1,0,0:0:0:0:
200,240,75280,1,0,0:0:0:0:
232,272,75400,1,0,0:0:0:0:
316,276,75640,6,0,L|316:232,1,42.5
316,192,75880,2,0,P|360:152|412:156,1,85
383,148,76240,2,0,P|440:176|456:204,1,85
452,236,76600,1,0,0:0:0:0:
452,280,76720,1,0,0:0:0:0:
452,324,76840,2,0,L|352:324,1,85
368,280,77200,1,0,0:0:0:0:
348,280,77260,1,0,0:0:0:0:
328,280,77320,2,0,L|240:280,1,85
244,236,77680,1,0,0:0:0:0:
200,236,77800,1,0,0:0:0:0:
188,220,77860,1,0,0:0:0:0:
168,212,77920,1,0,0:0:0:0:
148,212,77980,1,0,0:0:0:0:
132,192,78040,6,0,L|88:192,2,42.5,0|0|0,0:0|0:0|0:0,0:0:0:0:
140,140,78400,5,0,0:0:0:0:
172,112,78520,1,0,0:0:0:0:
204,140,78640,1,0,0:0:0:0:
236,112,78760,2,0,L|328:112,1,85
351,81,79120,1,0,0:0:0:0:
393,81,79240,1,0,0:0:0:0:
423,111,79360,1,0,0:0:0:0:
423,153,79480,1,0,0:0:0:0:
392,183,79600,1,0,0:0:0:0:
349,183,79720,5,0,0:0:0:0:
328,176,79780,1,0,0:0:0:0:
307,178,79840,1,0,0:0:0:0:
287,185,79900,1,0,0:0:0:0:
268,195,79960,1,0,0:0:0:0:
249,204,80020,1,0,0:0:0:0:
229,209,80080,1,0,0:0:0:0:
208,205,80140,1,0,0:0:0:0:
188,200,80200,5,0,0:0:0:0:
174,183,80260,1,0,0:0:0:0:
161,167,80320,1,0,0:0:0:0:
147,150,80380,1,0,0:0:0:0:
134,137,80440,1,0,0:0:0:0:
121,154,80500,1,0,0:0:0:0:
108,171,80560,1,0,0:0:0:0:
95,188,80620,1,0,0:0:0:0:
88,208,80680,5,0,0:0:0:0:
83,228,80740,1,0,0:0:0:0:
83,249,80800,1,0,0:0:0:0:
88,270,80860,1,0,0:0:0:0:
97,289,80920,1,0,0:0:0:0:
110,306,80980,1,0,0:0:0:0:
126,320,81040,1,0,0:0:0:0:
145,329,81100,1,0,0:0:0:0:
168,332,81160,5,0,0:0:0:0:
189,334,81220,1,0,0:0:0:0:
210,331,81280,1,0,0:0:0:0:
229,323,81340,1,0,0:0:0:0:
247,311,81400,1,0,0:0:0:0:
261,295,81460,1,0,0:0:0:0:
270,276,81520,1,0,0:0:0:0:
275,255,81580,1,0,0:0:0:0:
280,236,81640,6,0,L|384:236,1,85
408,236,82000,1,0,0:0:0:0:
408,192,82120,2,0,L|276:192,1,127.5
280,148,82600,2,0,P|208:104|152:132,1,127.5
140,144,83080,1,0,0:0:0:0:
112,112,83200,1,0,0:0:0:0:
84,144,83320,2,0,L|84:200,1,42.5
84,228,83560,2,0,P|124:256|164:248,1,85
200,256,83920,2,0,L|236:220,1,42.5
320,135,84280,6,0,L|284:172,1,42.5
259,74,84520,1,0,0:0:0:0:
198,134,84760,1,0,0:0:0:0:
137,194,85000,1,0,0:0:0:0:
290,194,85240,5,0,0:0:0:0:
260,163,85360,1,0,0:0:0:0:
230,193,85480,1,0,0:0:0:0:
200,223,85600,1,0,0:0:0:0:
200,265,85720,1,0,0:0:0:0:
158,265,85840,2,0,L|114:265,1,42.5
56,204,86200,5,0,0:0:0:0:
77,199,86260,1,0,0:0:0:0:
96,189,86320,1,0,0:0:0:0:
109,173,86380,1,0,0:0:0:0:
115,152,86440,1,0,0:0:0:0:
119,131,86500,1,0,0:0:0:0:
131,114,86560,1,0,0:0:0:0:
149,104,86620,1,0,0:0:0:0:
170,100,86680,1,0,0:0:0:0:
191,96,86740,1,0,0:0:0:0:
212,92,86800,1,0,0:0:0:0:
232,84,86860,1,0,0:0:0:0:
247,70,86920,1,0,0:0:0:0:
255,50,86980,1,0,0:0:0:0:
276,56,87040,5,0,0:0:0:0:
297,59,87100,1,0,0:0:0:0:
318,66,87160,1,0,0:0:0:0:
336,75,87220,1,0,0:0:0:0:
354,88,87280,1,0,0:0:0:0:
369,103,87340,1,0,0:0:0:0:
381,120,87400,1,0,0:0:0:0:
391,139,87460,1,0,0:0:0:0:
397,159,87520,1,0,0:0:0:0:
401,180,87580,1,0,0:0:0:0:
401,201,87640,1,0,0:0:0:0:
398,222,87700,1,0,0:0:0:0:
391,242,87760,1,0,0:0:0:0:
382,261,87820,1,0,0:0:0:0:
360,268,87880,5,0,0:0:0:0:
355,247,87940,1,0,0:0:0:0:
344,229,88000,1,0,0:0:0:0:
328,215,88060,1,0,0:0:0:0:
309,205,88120,1,0,0:0:0:0:
289,201,88180,1,0,0:0:0:0:
268,203,88240,1,0,0:0:0:0:
248,211,88300,1,0,0:0:0:0:
228,220,88360,6,0,P|184:232|128:232,1,85
112,260,88720,2,0,L|76:224,1,42.5
68,192,88960,1,0,0:0:0:0:
44,160,89080,2,0,L|64:120,1,42.5
104,116,89320,2,0,P|148:132|216:116,1,85
228,120,89680,1,0,0:0:0:0:
292,120,89800,1,0,0:0:0:0:
292,120,89920,1,0,0:0:0:0:
192,152,90040,6,0,L|156:116,1,42.5
124,140,90280,2,0,P|136:212|208:232,1,127.5,0|0,0:0|0:0,0:0:0:0:
196,272,90760,2,0,P|236:292|292:292,1,85
300,260,91120,1,0,0:0:0:0:
332,288,91240,2,0,P|388:248|396:200,1,85
393,235,91600,2,0,L|400:172,1,42.5
368,164,91840,6,0,P|320:184|264:184,1,85
244,188,92200,2,0,P|192:176|140:112,1,127.5
124,124,92620,1,0,0:0:0:0:
104,124,92680,2,0,P|68:152|56:208,1,85
92,208,93040,1,0,0:0:0:0:
144,232,93160,5,0,0:0:0:0:
172,200,93280,1,0,0:0:0:0:
204,168,93400,1,0,0:0:0:0:
232,200,93520,2,0,P|288:228|320:216,1,85
348,224,93880,1,0,0:0:0:0:
376,256,94000,1,0,0:0:0:0:
372,300,94120,2,0,P|320:312|240:304,1,127.5
246,305,94600,6,0,P|168:300|132:312,1,85
124,284,94960,2,0,L|88:316,1,42.5
52,304,95200,1,0,0:0:0:0:
48,260,95320,2,0,L|100:216,1,42.5
84,192,95560,6,0,P|108:136|168:108,1,127.5
184,148,96040,2,0,P|248:184|316:172,1,127.5
324,144,96520,2,0,L|376:128,1,42.5
396,160,96760,1,0,0:0:0:0:
412,200,96880,5,0,0:0:0:0:
380,232,97000,2,0,P|344:260|296:268,1,85
264,260,97360,1,0,0:0:0:0:
244,260,97420,1,0,0:0:0:0:
224,260,97480,1,0,0:0:0:0:
180,260,97600,2,0,L|148:292,1,42.5
119,259,97840,1,0,0:0:0:0:
172,192,97960,6,0,L|172:64,1,127.5
172,192,98440,2,0,L|300:192,1,127.5
172,64,98920,2,0,L|312:64,1,127.5
300,192,99400,2,0,L|300:16,3,170
236,128,101080,5,0,0:0:0:0:
236,128,101200,2,0,L|236:192,1,42.5
236,212,101440,1,0,0:0:0:0:
236,212,101560,1,0,0:0:0:0:
236,212,101680,1,0,0:0:0:0:
304,308,101800,5,0,0:0:0:0:
372,224,102040,2,0,L|408:196,1,42.5
372,144,102280,1,0,0:0:0:0:
292,68,102520,1,0,0:0:0:0:
236,68,102640,2,0,L|200:24,1,42.5
116,96,103000,1,0,0:0:0:0:
112,152,103120,2,0,L|80:180,1,42.5
108,252,103360,5,0,0:0:0:0:
140,224,103480,2,0,L|188:224,1,42.5
192,128,103720,5,0,0:0:0:0:
300,180,103960,1,0,0:0:0:0:
300,224,104080,2,0,L|248:224,1,42.5
204,320,104440,2,0,L|152:320,1,42.5
136,288,104680,1,0,0:0:0:0:
120,248,104800,1,0,0:0:0:0:
104,164,105040,2,0,L|104:116,1,42.5
168,108,105280,5,0,0:0:0:0:
188,112,105340,1,0,0:0:0:0:
208,124,105400,1,0,0:0:0:0:
228,112,105460,1,0,0:0:0:0:
248,104,105520,1,0,0:0:0:0:
284,156,105640,5,0,0:0:0:0:
360,116,105880,2,0,L|404:116,1,42.5
402,73,106120,1,0,0:0:0:0:
317,73,106360,1,0,0:0:0:0:
286,42,106480,2,0,L|234:42,1,42.5
168,84,106840,1,0,0:0:0:0:
140,116,106960,2,0,L|140:172,1,42.5
140,220,107200,5,0,0:0:0:0:
140,264,107320,2,0,L|188:264,1,42.5
244,204,107560,5,0,0:0:0:0:
244,204,107680,1,0,0:0:0:0:
260,244,107800,2,0,L|300:276,1,42.5
332,200,108040,1,0,0:0:0:0:
408,160,108280,1,0,0:0:0:0:
428,196,108400,1,0,0:0:0:0:
448,156,108520,2,0,L|424:116,1,42.5
380,108,108760,1,0,0:0:0:0:
360,72,108880,1,0,0:0:0:0:
324,44,109000,2,0,L|276:44,1,42.5
232,72,109240,1,0,0:0:0:0:
204,120,109360,1,0,0:0:0:0:
160,192,109480,5,0,0:0:0:0:
256,240,109720,2,0,L|256:192,1,42.5
352,192,109960,1,0,0:0:0:0:
256,144,110200,2,0,L|256:88,1,42.5
256,60,110440,1,0,0:0:0:0:
184,104,110680,1,0,0:0:0:0:
184,104,110800,2,0,L|144:144,1,42.5
123,164,111040,5,0,0:0:0:0:
124,208,111160,2,0,L|160:244,1,42.5
190,201,111400,5,0,0:0:0:0:
256,256,111640,1,0,0:0:0:0:
286,225,111760,2,0,L|286:177,1,42.5
372,192,112120,2,0,L|372:144,1,42.5
424,192,112360,1,0,0:0:0:0:
424,149,112480,2,0,L|424:100,1,42.5
424,64,112720,2,0,L|376:64,1,42.5
320,64,112960,5,0,0:0:0:0:
300,72,113020,1,0,0:0:0:0:
284,88,113080,1,0,0:0:0:0:
264,88,113140,1,0,0:0:0:0:
248,104,113200,1,0,0:0:0:0:
216,156,113320,5,0,0:0:0:0:
256,232,113560,1,0,0:0:0:0:
300,232,113680,2,0,L|300:284,1,42.5
239,334,114040,2,0,L|239:286,1,42.5
196,291,114280,1,0,0:0:0:0:
135,230,114520,2,0,L|135:174,1,42.5
135,145,114760,1,0,0:0:0:0:
135,102,114880,6,0,L|187:102,1,42.5
220,102,115120,1,0,0:0:0:0:
256,60,115240,5,0,0:0:0:0:
256,60,115360,1,0,0:0:0:0:
256,112,115480,2,0,L|304:112,1,42.5
336,74,115720,1,0,0:0:0:0:
442,74,115960,1,0,0:0:0:0:
442,131,116080,1,0,0:0:0:0:
497,131,116200,1,0,0:0:0:0:
401,196,116440,1,0,0:0:0:0:
363,158,116560,2,0,L|348:180,1,21.25
315,158,116680,1,0,0:0:0:0:
261,158,116800,1,0,0:0:0:0:
215,203,116920,1,0,0:0:0:0:
215,266,117040,1,0,0:0:0:0:
215,308,117160,5,0,0:0:0:0:
232,296,117220,1,0,0:0:0:0:
249,283,117280,1,0,0:0:0:0:
266,269,117340,1,0,0:0:0:0:
281,255,117400,1,0,0:0:0:0:
294,238,117460,1,0,0:0:0:0:
305,220,117520,1,0,0:0:0:0:
314,201,117580,1,0,0:0:0:0:
318,180,117640,1,0,0:0:0:0:
318,159,117700,1,0,0:0:0:0:
314,138,117760,1,0,0:0:0:0:
306,118,117820,1,0,0:0:0:0:
296,100,117880,1,0,0:0:0:0:
283,82,117940,1,0,0:0:0:0:
270,66,118000,1,0,0:0:0:0:
255,52,118060,1,0,0:0:0:0:
240,67,118120,5,0,0:0:0:0:
226,83,118180,1,0,0:0:0:0:
213,101,118240,1,0,0:0:0:0:
203,119,118300,1,0,0:0:0:0:
195,139,118360,1,0,0:0:0:0:
191,159,118420,1,0,0:0:0:0:
191,181,118480,1,0,0:0:0:0:
196,201,118540,1,0,0:0:0:0:
205,221,118600,1,0,0:0:0:0:
217,238,118660,1,0,0:0:0:0:
231,254,118720,1,0,0:0:0:0:
246,269,118780,1,0,0:0:0:0:
263,282,118840,1,0,0:0:0:0:
280,294,118900,1,0,0:0:0:0:
299,305,118960,1,0,0:0:0:0:
318,314,119020,1,0,0:0:0:0:
336,324,119080,6,0,B|348:328|348:328|348:316|348:316|360:320|360:320|360:308|360:308|392:288|408:256,1,85
376,244,119440,2,0,P|400:184|388:136,1,85
364,140,119800,2,0,P|320:104|280:96,1,85
233,157,120280,1,0,0:0:0:0:
172,96,120520,5,0,0:0:0:0:
111,156,120760,2,0,B|104:164|104:164|112:172|112:172|104:180|104:180|112:188,1,42.5
160,192,121000,2,0,B|164:180|164:180|172:188|172:188|176:176|176:176|184:184|184:184|208:156|248:168,1,85
215,165,121360,2,0,P|272:148|344:160,1,127.5
398,218,121960,1,0,0:0:0:0:
337,278,122200,1,0,0:0:0:0:
294,278,122320,2,0,P|234:261|186:269,1,85
169,262,122680,6,0,B|160:256|160:256|168:248|168:248|160:240|160:240|168:232,1,42.5
184,196,122920,2,0,B|184:184|184:184|192:184|192:184|192:176|192:176|200:176|200:176|216:152|268:128,1,85
296,84,123400,1,0,0:0:0:0:
356,144,123640,1,0,0:0:0:0:
356,229,123880,2,0,P|320:256|256:264,1,85
221,205,124360,2,0,L|177:249,1,42.5
148,240,124600,6,0,B|141:248|141:248|133:240|133:240|125:248|125:248|117:239,1,42.5
88,272,124840,2,0,B|86:283|86:283|94:284|94:284|94:292|94:292|102:293|102:293|116:318|165:347,1,85
212,288,125320,1,0,0:0:0:0:
292,312,125560,1,0,0:0:0:0:
352,251,125800,1,0,0:0:0:0:
352,208,125920,5,0,0:0:0:0:
376,172,126040,2,0,L|320:172,1,42.5
352,132,126280,1,0,0:0:0:0:
321,101,126400,1,0,0:0:0:0:
278,101,126520,1,0,0:0:0:0:
235,101,126640,1,0,0:0:0:0:
204,131,126760,6,0,P|244:160|296:160,1,85
256,200,127120,2,0,P|304:212|360:212,1,85
328,256,127480,2,0,P|396:256|428:240,1,85
410,165,127960,1,0,0:0:0:0:
410,165,128080,1,0,0:0:0:0:
410,122,128200,2,0,L|410:70,1,42.5
328,92,128560,1,0,0:0:0:0:
288,104,128680,6,0,L|204:128,1,85
168,144,129040,2,0,L|264:188,1,85
284,200,129400,2,0,L|208:236,2,85
324,216,130000,2,0,P|344:280|328:300,1,85
296,280,130360,1,0,0:0:0:0:
264,312,130480,1,0,0:0:0:0:
228,292,130600,6,0,P|176:276|132:208,1,127.5
164,188,131080,2,0,P|224:212|248:252,1,85
256,264,131440,1,0,0:0:0:0:
286,233,131560,5,0,0:0:0:0:
346,293,131800,1,0,0:0:0:0:
346,208,132040,2,0,L|378:240,1,42.5
436,177,132400,1,0,0:0:0:0:
405,146,132520,2,0,P|344:108|272:120,1,127.5
252,128,133000,2,0,P|192:152|152:140,1,85
132,136,133360,1,0,0:0:0:0:
120,204,133480,6,0,L|144:188,1,21.25
149,234,133600,2,0,L|172:204,1,21.25
185,257,133720,2,0,L|204:224,1,21.25
224,272,133840,2,0,L|232:240,1,21.25
266,278,133960,2,0,L|264:244,1,21.25
309,274,134080,2,0,L|304:244,1,21.25
349,261,134200,2,0,L|336:236,1,21.25
385,240,134320,2,0,L|364:216,1,21.25
416,216,134440,6,0,P|436:184|432:128,1,85
392,132,134800,2,0,P|368:88|304:60,1,85
300,84,135160,2,0,L|256:72,2,42.5
244,148,135640,2,0,L|192:160,1,42.5
176,192,135880,2,0,L|132:168,1,42.5
83,142,136120,5,0,0:0:0:0:
112,112,136240,1,0,0:0:0:0:
143,81,136360,2,0,P|192:60|272:72,1,127.5
304,88,136840,1,0,0:0:0:0:
364,148,137080,2,0,L|400:112,1,42.5
424,147,137320,2,0,P|400:216|372:232,1,85
360,248,137680,2,0,L|308:216,1,42.5
300,152,137920,5,0,0:0:0:0:
257,194,138040,1,0,0:0:0:0:
299,236,138160,1,0,0:0:0:0:
256,278,138280,2,0,P|208:284|140:236,1,127.5
124,208,138760,1,0,0:0:0:0:
208,212,139000,2,0,L|208:160,1,42.5
208,109,139240,5,0,0:0:0:0:
256,272,139480,1,0,0:0:0:0:
304,109,139720,2,0,L|344:148,1,42.5
384,228,140080,1,0,0:0:0:0:
364,264,140200,2,0,P|300:312|240:324,1,127.5
216,304,140680,1,0,0:0:0:0:
116,272,140920,2,0,L|104:228,1,42.5
68,252,141160,1,0,0:0:0:0:
68,168,141400,2,0,L|116:140,1,42.5
144,128,141640,1,0,0:0:0:0:
144,128,141760,1,0,0:0:0:0:
176,156,141880,2,0,L|220:128,1,42.5
256,80,142120,5,0,0:0:0:0:
368,192,142480,2,0,L|420:192,1,42.5
256,304,142840,2,0,L|256:248,1,42.5
213,261,143080,1,0,0:0:0:0:
127,261,143320,2,0,L|127:209,1,42.5
127,175,143560,6,0,L|127:123,1,42.5
157,102,143800,1,0,0:0:0:0:
232,64,144040,1,0,0:0:0:0:
316,56,144280,2,0,L|336:100,1,42.5,0|0,0:0|0:0,0:0:0:0:
376,168,144640,1,0,0:0:0:0:
330,213,144760,1,0,0:0:0:0:
272,184,144880,2,0,L|224:184,1,42.5
184,244,145240,1,0,0:0:0:0:
184,244,145360,1,0,0:0:0:0:
214,274,145480,2,0,L|250:238,1,42.5
328,124,145840,5,0,0:0:0:0:
297,93,145960,1,0,0:0:0:0:
216,192,146320,2,0,L|172:192,1,42.5
297,291,146680,2,0,L|332:256,1,42.5
357,291,146920,1,0,0:0:0:0:
360,192,147160,2,0,L|316:192,1,42.5
276,192,147400,6,0,L|232:192,1,42.5
203,161,147640,1,0,0:0:0:0:
203,76,147880,1,0,0:0:0:0:
256,144,148120,2,0,L|256:100,2,42.5
309,76,148480,2,0,L|352:76,1,42.5
381,106,148720,1,0,0:0:0:0:
381,191,148960,5,0,0:0:0:0:
350,221,149080,1,0,0:0:0:0:
319,251,149200,2,0,L|295:275,1,21.25
288,220,149320,1,0,0:0:0:0:
257,189,149440,1,0,0:0:0:0:
226,219,149560,1,0,0:0:0:0:
195,249,149680,1,0,0:0:0:0:
164,279,149800,6,0,P|124:248|96:168,1,127.5
96,135,150280,1,0,0:0:0:0:
160,192,150520,2,0,L|160:145,2,42.5
220,152,150880,1,0,0:0:0:0:
259,191,151000,1,0,0:0:0:0:
314,191,151120,2,0,L|350:155,1,42.5
344,118,151360,5,0,0:0:0:0:
416,192,151480,1,0,0:0:0:0:
344,266,151600,1,0,0:0:0:0:
276,192,151720,2,0,L|188:192,1,85
160,161,152080,1,0,0:0:0:0:
129,130,152200,2,0,L|129:46,1,85
164,24,152560,2,0,L|220:52,1,42.5
232,73,152800,5,0,0:0:0:0:
277,118,152920,1,0,0:0:0:0:
231,163,153040,1,0,0:0:0:0:
185,117,153160,1,0,0:0:0:0:
139,162,153280,1,0,0:0:0:0:
184,207,153400,1,0,0:0:0:0:
229,252,153520,1,0,0:0:0:0:
229,252,153640,2,0,P|296:272|360:272,1,127.5
383,242,154120,1,0,0:0:0:0:
460,204,154360,2,0,L|436:156,1,42.5
400,168,154600,6,0,P|356:184|296:184,1,85
288,156,154960,1,0,0:0:0:0:
257,186,155080,5,0,0:0:0:0:
226,155,155200,1,0,0:0:0:0:
195,185,155320,2,0,L|160:200,1,21.25
184,212,155440,2,0,L|149:227,1,21.25
137,247,155560,5,0,0:0:0:0:
80,216,155680,1,0,0:0:0:0:
136,184,155800,1,0,0:0:0:0:
80,152,155920,1,0,0:0:0:0:
136,120,156040,1,0,0:0:0:0:
181,74,156160,1,0,0:0:0:0:
226,119,156280,1,0,0:0:0:0:
271,73,156400,1,0,0:0:0:0:
316,27,156520,2,0,P|372:35|416:79,1,85
416,88,156880,2,0,L|396:108,1,21.25
420,112,157000,1,0,0:0:0:0:
416,156,157120,1,0,0:0:0:0:
385,186,157240,2,0,L|344:160,1,42.5
296,124,157480,5,0,0:0:0:0:
236,108,157600,1,0,0:0:0:0:
172,112,157720,1,0,0:0:0:0:
120,148,157840,1,0,0:0:0:0:
108,212,157960,1,0,0:0:0:0:
124,272,158080,1,0,0:0:0:0:
180,304,158200,1,0,0:0:0:0:
212,248,158320,1,0,0:0:0:0:
248,300,158440,1,0,0:0:0:0:
284,248,158560,1,0,0:0:0:0:
284,248,158680,1,0,0:0:0:0:
320,300,158800,1,0,0:0:0:0:
380,280,158920,1,0,0:0:0:0:
416,228,159040,1,0,0:0:0:0:
440,168,159160,1,0,0:0:0:0:
420,108,159280,1,0,0:0:0:0:
364,100,159400,5,0,0:0:0:0:
318,145,159520,1,0,0:0:0:0:
272,190,159640,1,0,0:0:0:0:
226,144,159760,1,0,0:0:0:0:
180,189,159880,1,0,0:0:0:0:
134,234,160000,1,0,0:0:0:0:
134,297,160120,1,0,0:0:0:0:
197,297,160240,1,0,0:0:0:0:
242,342,160360,1,0,0:0:0:0:
287,296,160480,1,0,0:0:0:0:
287,296,160600,1,0,0:0:0:0:
332,341,160720,1,0,0:0:0:0:
377,295,160840,1,0,0:0:0:0:
422,249,160960,1,0,0:0:0:0:
376,203,161080,1,0,0:0:0:0:
330,157,161200,1,0,0:0:0:0:
330,93,161320,5,0,0:0:0:0:
269,153,161560,1,0,0:0:0:0:
269,153,161680,2,0,L|233:117,1,42.5
176,181,162040,2,0,L|144:149,1,42.5
115,181,162280,1,0,0:0:0:0:
54,120,162520,2,0,L|98:76,1,42.5
114,59,162760,2,0,L|146:91,1,42.5
174,119,163000,1,0,0:0:0:0:
204,88,163120,2,0,L|248:88,1,42.5
306,148,163480,1,0,0:0:0:0:
336,117,163600,2,0,L|388:117,1,42.5
293,117,163960,2,0,L|257:81,1,42.5
232,117,164200,1,0,0:0:0:0:
232,202,164440,2,0,L|232:252,2,42.5
262,232,164800,1,0,0:0:0:0:
292,262,164920,1,0,0:0:0:0:
322,292,165040,6,0,L|366:248,1,42.5
437,261,165400,2,0,L|437:209,1,42.5
406,188,165640,1,0,0:0:0:0:
321,188,165880,2,0,L|281:148,1,42.5
260,188,166120,1,0,0:0:0:0:
175,188,166360,2,0,L|127:188,1,42.5
102,157,166600,1,0,0:0:0:0:
102,157,166720,1,0,0:0:0:0:
102,242,166960,2,0,L|150:242,1,42.5
204,302,167320,2,0,L|240:266,1,42.5
264,241,167560,1,0,0:0:0:0:
349,241,167800,2,0,L|401:189,1,42.5
409,241,168040,1,0,0:0:0:0:
409,156,168280,1,0,0:0:0:0:
366,156,168400,2,0,L|366:124,2,21.25
323,156,168640,1,0,0:0:0:0:
292,186,168760,2,0,L|260:154,1,42.5
261,91,169000,5,0,0:0:0:0:
170,181,169240,1,0,0:0:0:0:
79,90,169480,1,0,0:0:0:0:
79,217,169720,1,0,0:0:0:0:
169,307,169960,1,0,0:0:0:0:
259,216,170200,1,0,0:0:0:0:
261,91,170440,1,0,0:0:0:0:
351,181,170680,2,0,B|360:184|360:184|356:192|356:192|364:196|364:196|360:204|360:204|368:208|368:208|364:216|364:216|371:221,1,42.5
421,206,170920,2,0,B|430:203|430:203|426:195|426:195|434:191|434:191|430:183|430:183|438:179|438:179|434:171|434:171|441:166,1,42.5
374,240,171160,5,0,0:0:0:0:
283,149,171400,1,0,0:0:0:0:
192,239,171640,1,0,0:0:0:0:
282,329,171880,1,0,0:0:0:0:
282,201,172120,1,0,0:0:0:0:
282,73,172360,1,0,0:0:0:0:
191,163,172600,2,0,B|182:166|182:166|186:174|186:174|178:178|178:178|182:186|182:186|174:190|174:190|178:198|178:198|171:203,1,42.5
121,188,172840,2,0,B|112:185|112:185|116:177|116:177|108:173|108:173|112:165|112:165|104:161|104:161|108:153|108:153|101:148,1,42.5
106,247,173080,5,0,0:0:0:0:
233,247,173320,1,0,0:0:0:0:
323,337,173560,1,0,0:0:0:0:
413,246,173800,1,0,0:0:0:0:
322,155,174040,1,0,0:0:0:0:
233,247,174280,1,0,0:0:0:0:
233,162,174520,2,0,B|224:159|224:159|228:151|228:151|220:147|220:147|224:139|224:139|216:135|216:135|220:127|220:127|213:122,1,42.5
163,137,174760,2,0,B|154:140|154:140|158:148|158:148|150:152|150:152|154:160|154:160|146:164|146:164|150:172|150:172|143:177,1,42.5
148,226,175000,5,0,0:0:0:0:
190,226,175120,2,0,L|226:190,1,42.5
280,256,175480,2,0,L|316:220,1,42.5
340,256,175720,1,0,0:0:0:0:
400,195,175840,5,0,0:0:0:0:
400,110,175960,1,0,0:0:0:0:
339,49,176080,1,0,0:0:0:0:
254,49,176200,1,0,0:0:0:0:
193,109,176320,1,0,0:0:0:0:
193,194,176440,2,0,L|233:234,1,42.5
268,178,176680,6,0,L|268:134,1,42.5
313,180,176920,2,0,L|357:180,1,42.5
310,225,177160,2,0,L|310:289,1,42.5
264,222,177400,2,0,L|220:222,1,42.5
176,176,177640,6,0,L|133:176,1,42.5
88,131,177880,2,0,L|88:173,1,42.5
42,218,178120,2,0,L|84:218,1,42.5
130,263,178360,2,0,L|130:220,1,42.5
184,116,178600,6,0,L|140:116,1,42.5
186,71,178840,2,0,L|186:27,1,42.5
231,74,179080,2,0,L|295:74,1,42.5
228,120,179320,2,0,L|228:164,1,42.5
273,207,179560,6,0,L|273:249,1,42.5
228,295,179800,2,0,L|270:295,1,42.5
315,341,180040,2,0,L|315:298,1,42.5
360,253,180280,2,0,L|317:253,1,42.5
317,168,180520,5,0,0:0:0:0:
196,288,180760,1,0,0:0:0:0:
196,118,181000,1,0,0:0:0:0:
196,288,181240,1,0,0:0:0:0:
26,288,181480,1,0,0:0:0:0:
26,118,181720,1,0,0:0:0:0:
196,118,181960,1,0,0:0:0:0:
316,238,182200,1,0,0:0:0:0:
195,168,182440,5,0,0:0:0:0:
316,288,182680,1,0,0:0:0:0:
316,118,182920,1,0,0:0:0:0:
316,288,183160,1,0,0:0:0:0:
486,288,183400,1,0,0:0:0:0:
486,118,183640,1,0,0:0:0:0:
316,118,183880,1,0,0:0:0:0:
196,238,184120,1,0,0:0:0:0:
156,116,184360,6,0,L|156:211,1,85,0|0,0:0|0:0,0:0:0:0:
240,116,184840,2,0,L|240:216,1,85
324,116,185320,2,0,L|324:208,1,85
408,116,185800,1,0,0:0:0:0:
408,201,186040,1,0,0:0:0:0:
347,261,186280,5,0,0:0:0:0:
347,201,186520,1,0,0:0:0:0:
305,158,186760,1,0,0:0:0:0:
246,158,187000,1,0,0:0:0:0:
204,200,187240,1,0,0:0:0:0:
204,259,187480,1,0,0:0:0:0:
162,301,187720,1,0,0:0:0:0:
103,301,187960,1,0,0:0:0:0:
61,258,188200,5,0,0:0:0:0:
61,198,188440,1,0,0:0:0:0:
104,155,188680,1,0,0:0:0:0:
164,155,188920,1,0,0:0:0:0:
207,197,189160,1,0,0:0:0:0:
207,256,189400,1,0,0:0:0:0:
250,298,189640,1,0,0:0:0:0:
310,298,189880,1,0,0:0:0:0:
296,144,190120,5,0,0:0:0:0:
211,144,190240,1,0,0:0:0:0:
296,144,190360,1,0,0:0:0:0:
211,144,190480,1,0,0:0:0:0:
255,84,190720,1,0,0:0:0:0:
255,169,190840,1,0,0:0:0:0:
255,254,190960,1,0,0:0:0:0:
255,339,191080,1,0,0:0:0:0:
