osu file format v13

[General]
AudioFilename: vim - No1.mp3
AudioLeadIn: 0
PreviewTime: 15400
Countdown: 1
SampleSet: Normal
StackLeniency: 0.7
Mode: 0
LetterboxInBreaks: 1
WidescreenStoryboard: 1

[Editor]
Bookmarks: 7720,133480
DistanceSpacing: 1
BeatDivisor: 4
GridSize: 4
TimelineZoom: 1.3

[Metadata]
Title:No
TitleUnicode:No
Artist:Vim!
ArtistUnicode:Vim!
Creator:coltt5
Version:Maybe
Source:
Tags:chiptune eddsworld
BeatmapID:309783
BeatmapSetID:119264

[Difficulty]
HPDrainRate:6
CircleSize:5
OverallDifficulty:5
ApproachRate:7
SliderMultiplier:1.6
SliderTickRate:4

[Events]
//Background and Video events
0,0,"Vim-No Colour Mixa.jpg",0,0
//Break Periods
2,63480,66340
2,185760,189220
//Storyboard Layer 0 (Background)
//Storyboard Layer 1 (Fail)
//Storyboard Layer 2 (Pass)
//Storyboard Layer 3 (Foreground)
//Storyboard Sound Samples
//Background Colour Transformations
3,100,163,162,255

[TimingPoints]
40,480,4,1,0,100,1,0
168880,-100,4,1,0,75,0,0
176680,-100,4,1,0,100,0,0

[HitObjects]
148,300,7720,5,0,0:0:0:0:
132,236,7960,1,0,0:0:0:0:
144,172,8200,1,0,0:0:0:0:
112,116,8440,1,0,0:0:0:0:
156,68,8680,1,0,0:0:0:0:
236,124,9040,1,0,0:0:0:0:
364,84,9640,5,0,0:0:0:0:
380,148,9880,1,0,0:0:0:0:
368,212,10120,1,0,0:0:0:0:
400,268,10360,1,0,0:0:0:0:
356,316,10600,1,0,0:0:0:0:
332,296,10720,1,0,0:0:0:0:
276,260,10960,1,0,0:0:0:0:
256,192,11200,6,0,L|256:172,4,20
196,304,11560,5,0,0:0:0:0:
132,292,11800,1,0,0:0:0:0:
92,244,12040,1,0,0:0:0:0:
88,180,12280,1,0,0:0:0:0:
124,128,12520,1,0,0:0:0:0:
188,200,12880,1,0,0:0:0:0:
272,96,13480,6,0,L|316:96,1,40
332,120,13720,1,0,0:0:0:0:
388,88,13960,1,0,0:0:0:0:
436,132,14200,1,0,0:0:0:0:
432,164,14320,2,0,L|400:132,1,40
368,192,14680,2,0,L|336:160,1,40
324,104,15040,1,0,0:0:0:0:
296,120,15160,1,0,0:0:0:0:
280,148,15280,1,0,0:0:0:0:
304,264,15400,5,8,0:0:0:0:
308,196,15640,1,0,0:0:0:0:
252,228,15880,1,0,0:0:0:0:
252,164,16120,1,0,0:0:0:0:
228,104,16360,1,8,0:0:0:0:
212,280,16720,1,0,0:0:0:0:
144,136,17320,5,8,0:0:0:0:
192,180,17560,1,0,0:0:0:0:
160,236,17800,1,0,0:0:0:0:
196,288,18040,1,0,0:0:0:0:
248,328,18280,1,8,0:0:0:0:
268,304,18400,1,0,0:0:0:0:
276,196,18640,1,0,0:0:0:0:
328,120,18880,6,0,P|344:120|356:130,4,20
448,236,19240,5,8,0:0:0:0:
388,212,19480,1,0,0:0:0:0:
340,168,19720,1,0,0:0:0:0:
308,112,19960,1,0,0:0:0:0:
264,64,20200,1,8,0:0:0:0:
184,192,20560,1,0,0:0:0:0:
72,76,21160,6,0,L|116:76,1,40,8|0,0:0|0:0,0:0:0:0:
112,108,21400,1,0,0:0:0:0:
172,92,21640,1,0,0:0:0:0:
224,56,21880,2,0,L|256:88,1,40
280,68,22120,1,8,0:0:0:0:
296,128,22360,2,0,L|332:92,1,40
372,56,22720,1,0,0:0:0:0:
388,108,22840,1,0,0:0:0:0:
384,164,22960,1,0,0:0:0:0:
336,244,23080,6,0,L|316:260,2,20,0|0|0,0:0|0:0|0:0,0:0:0:0:
324,224,23260,2,0,L|296:240,2,20,0|0|0,0:0|0:0|0:0,0:0:0:0:
312,204,23440,2,0,L|284:216,2,20,0|0|0,0:0|0:0|0:0,0:0:0:0:
304,180,23620,2,0,L|276:192,2,20,0|0|0,0:0|0:0|0:0,0:0:0:0:
296,156,23800,2,0,L|268:164,2,20,0|0|0,0:0|0:0|0:0,0:0:0:0:
280,136,23980,1,0,0:0:0:0:
260,152,24040,6,0,L|288:160,2,20,0|0|0,0:0|0:0|0:0,0:0:0:0:
256,176,24220,2,0,L|284:188,2,20,0|0|0,0:0|0:0|0:0,0:0:0:0:
248,200,24400,2,0,L|276:212,2,20,0|0|0,0:0|0:0|0:0,0:0:0:0:
240,224,24580,2,0,L|268:240,2,20,0|0|0,0:0|0:0|0:0,0:0:0:0:
228,244,24760,2,0,L|248:260,3,20,0|0|0|0,0:0|0:0|0:0|0:0,0:0:0:0:
220,264,25000,21,8,0:0:0:0:
160,316,25240,1,0,0:0:0:0:
136,284,25360,1,0,0:0:0:0:
64,316,25600,1,0,0:0:0:0:
72,276,25720,2,2,P|96:232|132:220,1,80,2|10,0:0|0:0,0:0:0:0:
192,260,26200,2,8,L|240:260,1,40
272,260,26440,5,0,0:0:0:0:
240,188,26680,1,0,0:0:0:0:
212,112,26920,1,8,0:0:0:0:
332,128,27280,1,0,0:0:0:0:
356,244,27640,1,2,0:0:0:0:
396,312,27880,1,10,0:0:0:0:
460,264,28120,1,8,0:0:0:0:
444,228,28240,1,8,0:0:0:0:
412,156,28480,1,0,0:0:0:0:
372,164,28600,1,0,0:0:0:0:
336,180,28720,1,0,0:0:0:0:
296,188,28840,2,0,P|236:216|212:280,2,120,8|0|2,0:0|0:0|0:0,0:0:0:0:
288,148,29680,1,0,0:0:0:0:
260,120,29800,5,10,0:0:0:0:
184,148,30040,1,8,0:0:0:0:
132,88,30280,1,8,0:0:0:0:
104,116,30400,1,0,0:0:0:0:
72,188,30640,1,8,3:0:0:0:
96,220,30760,2,0,P|72:284|24:316,2,120,8|8|8,3:1|3:0|3:0,0:0:0:0:
132,204,31600,1,0,0:0:0:0:
168,188,31720,1,8,0:0:0:0:
244,216,31960,2,0,L|284:172,2,40,8|8|0,0:0|0:0|0:0,0:0:0:0:
264,252,32320,1,0,0:0:0:0:
284,288,32440,2,8,L|332:272,1,40
344,240,32680,5,2,0:0:0:0:
328,120,33040,1,2,0:0:0:0:
236,196,33400,1,2,0:0:0:0:
92,284,34120,5,8,2:0:0:0:
112,208,34360,1,8,2:0:0:0:
80,136,34600,1,8,0:0:0:0:
152,104,34840,1,8,2:0:0:0:
172,140,34960,1,8,2:0:0:0:
196,216,35200,1,2,0:0:0:0:
216,252,35320,1,2,0:0:0:0:
240,220,35440,1,8,0:0:0:0:
197,50,36520,5,2,0:0:0:0:
296,116,36880,1,2,0:0:0:0:
332,232,37240,1,2,0:0:0:0:
463,310,37960,5,8,2:0:0:0:
432,236,38200,1,0,0:0:0:0:
400,164,38440,1,8,0:0:0:0:
340,216,38680,2,0,L|328:164,1,40
296,104,39040,1,0,0:0:0:0:
260,176,39280,1,8,0:0:0:0:
196,132,39520,1,8,0:0:0:0:
176,168,39640,1,8,2:0:0:0:
176,208,39760,1,10,0:0:0:0:
148,180,39880,1,8,2:0:0:0:
128,144,40000,1,10,0:0:0:0:
104,176,40120,1,8,2:0:0:0:
104,216,40240,1,10,0:0:0:0:
136,240,40360,5,10,0:0:0:0:
136,240,40720,2,2,P|116:308|168:348,2,120,0|0|0,0:0|0:0|0:0,0:0:0:0:
168,264,41560,1,0,0:0:0:0:
208,260,41680,1,8,3:0:0:0:
316,212,41920,5,0,0:0:0:0:
348,236,42040,1,0,0:0:0:0:
380,260,42160,1,0,0:0:0:0:
416,244,42280,1,8,0:0:0:0:
452,172,42520,1,0,0:0:0:0:
412,104,42760,1,0,0:0:0:0:
340,136,43000,1,8,0:0:0:0:
324,100,43120,1,8,0:0:0:0:
244,100,43360,5,2,0:0:0:0:
236,140,43480,1,2,2:0:0:0:
232,180,43600,1,2,0:0:0:0:
196,160,43720,1,2,2:0:0:0:
188,200,43840,1,2,0:0:0:0:
184,240,43960,1,2,2:0:0:0:
148,220,44080,1,0,0:0:0:0:
124,252,44200,2,2,P|124:324|168:364,2,120,8|0|0,0:0|0:0|0:0,0:0:0:0:
196,288,45160,1,8,0:0:0:0:
328,284,45640,5,0,0:0:0:0:
316,244,45760,1,0,0:0:0:0:
276,240,45880,2,0,L|258:262,4,20,0|0|0|0|8,0:0|0:0|0:0|0:0|0:0,0:0:0:0:
256,204,46240,1,0,0:0:0:0:
276,168,46360,1,0,0:0:0:0:
244,148,46480,1,0,0:0:0:0:
256,108,46600,1,0,0:0:0:0:
280,76,46720,1,0,0:0:0:0:
308,104,46840,1,0,0:0:0:0:
328,72,46960,1,0,0:0:0:0:
352,40,47080,1,10,0:0:0:0:
388,112,47320,1,0,0:0:0:0:
412,80,47440,1,2,0:0:0:0:
444,152,47680,1,10,0:0:0:0:
464,120,47800,1,10,0:0:0:0:
508,188,48040,6,0,P|455:293|267:289,1,320,8|8,0:0|0:0,0:0:0:0:
224,228,49240,1,0,0:0:0:0:
186,239,49360,2,0,P|148:300|62:291,1,160
28,288,49960,1,8,0:0:0:0:
20,168,50320,1,0,0:0:0:0:
98,175,50560,5,0,0:0:0:0:
131,195,50680,1,0,0:0:0:0:
145,231,50800,1,0,0:0:0:0:
185,226,50920,1,8,0:0:0:0:
215,201,51040,1,0,0:0:0:0:
229,163,51160,1,0,0:0:0:0:
237,124,51280,1,0,0:0:0:0:
245,85,51400,1,0,0:0:0:0:
260,48,51520,1,0,0:0:0:0:
288,20,51640,1,0,0:0:0:0:
324,4,51760,1,0,0:0:0:0:
356,5,51880,1,8,0:0:0:0:
379,27,52000,1,0,0:0:0:0:
390,56,52120,1,0,0:0:0:0:
440,4,52600,5,0,0:0:0:0:
452,44,52720,1,0,0:0:0:0:
492,48,52840,1,8,0:0:0:0:
472,84,52960,1,0,0:0:0:0:
448,116,53080,1,0,0:0:0:0:
424,84,53200,1,0,0:0:0:0:
384,96,53320,1,0,0:0:0:0:
356,124,53440,1,0,0:0:0:0:
332,92,53560,1,0,0:0:0:0:
316,128,53680,1,0,0:0:0:0:
284,104,53800,1,8,0:0:0:0:
276,144,53920,1,0,0:0:0:0:
276,184,54040,1,0,0:0:0:0:
228,32,54520,5,0,0:0:0:0:
212,68,54640,1,0,0:0:0:0:
176,48,54760,1,8,0:0:0:0:
160,84,54880,1,0,0:0:0:0:
152,124,55000,1,0,0:0:0:0:
116,108,55120,1,0,0:0:0:0:
112,148,55240,1,0,0:0:0:0:
112,188,55360,1,0,0:0:0:0:
76,168,55480,1,0,0:0:0:0:
72,208,55600,1,0,0:0:0:0:
80,248,55720,5,8,0:0:0:0:
152,212,55960,1,0,0:0:0:0:
200,148,56200,1,0,0:0:0:0:
236,76,56440,1,0,0:0:0:0:
304,32,56680,1,8,0:0:0:0:
332,148,57040,1,0,0:0:0:0:
304,32,57640,5,8,0:0:0:0:
236,76,57880,1,0,0:0:0:0:
200,148,58120,1,0,0:0:0:0:
152,212,58360,1,0,0:0:0:0:
80,248,58600,1,8,0:0:0:0:
80,208,58720,1,0,0:0:0:0:
80,208,58960,1,0,0:0:0:0:
36,276,59200,6,0,P|43:290|56:292,4,20
103,321,59560,5,8,0:0:0:0:
166,272,59800,1,0,0:0:0:0:
193,194,60040,1,0,0:0:0:0:
180,114,60280,1,0,0:0:0:0:
129,49,60520,1,8,0:0:0:0:
76,180,60880,1,0,0:0:0:0:
232,148,61480,5,8,0:0:0:0:
232,148,61600,2,0,L|264:192,1,40
260,100,61960,1,0,0:0:0:0:
308,36,62200,1,0,0:0:0:0:
332,68,62320,2,0,L|332:20,1,40,0|8,0:0|0:0,0:0:0:0:
384,88,62680,2,0,L|384:44,1,40
452,92,63040,1,0,0:0:0:0:
456,132,63160,1,0,0:0:0:0:
448,172,63280,1,0,0:0:0:0:
116,136,67240,6,0,P|112:208|172:236,2,120,0|0|0,0:0|0:0|0:0,0:0:0:0:
168,172,68200,1,0,0:0:0:0:
220,132,68440,2,0,L|264:92,1,40
281,105,68680,1,0,0:0:0:0:
324,152,68920,1,0,0:0:0:0:
300,176,69040,1,0,0:0:0:0:
268,188,69160,1,0,0:0:0:0:
212,216,69400,2,0,P|177:195|104:216,1,120
84,240,69880,2,0,P|76:280|104:328,1,80
160,272,70360,2,0,L|196:308,1,40
220,308,70600,2,0,L|252:276,1,40
280,280,70840,5,0,0:0:0:0:
308,264,70960,1,0,0:0:0:0:
336,280,71080,1,0,0:0:0:0:
432,216,71320,1,0,0:0:0:0:
432,216,71560,1,0,0:0:0:0:
428,132,71800,1,0,0:0:0:0:
412,136,71860,1,0,0:0:0:0:
399,145,71920,2,0,B|356:160|368:252|291:266,1,160
276,244,72520,1,0,0:0:0:0:
262,214,72640,1,0,0:0:0:0:
258,182,72760,1,0,0:0:0:0:
207,222,73000,5,0,0:0:0:0:
180,163,73240,1,0,0:0:0:0:
156,184,73360,1,0,0:0:0:0:
145,214,73480,1,0,0:0:0:0:
94,132,73840,1,0,0:0:0:0:
77,159,73960,1,0,0:0:0:0:
73,190,74080,1,0,0:0:0:0:
108,280,74440,2,0,L|132:248,1,40
158,266,74680,5,0,0:0:0:0:
176,292,74800,1,0,0:0:0:0:
206,300,74920,1,0,0:0:0:0:
262,222,75160,1,0,0:0:0:0:
282,246,75280,1,0,0:0:0:0:
288,277,75400,1,0,0:0:0:0:
348,256,75640,1,0,0:0:0:0:
359,193,75880,1,0,0:0:0:0:
325,138,76120,1,0,0:0:0:0:
307,164,76240,1,0,0:0:0:0:
244,149,76480,5,0,0:0:0:0:
214,161,76600,1,0,0:0:0:0:
200,189,76720,1,0,0:0:0:0:
170,177,76840,1,0,0:0:0:0:
129,127,77200,2,0,L|119:103,2,20
81,245,77800,2,0,L|66:228,3,20
166,282,78400,5,0,0:0:0:0:
185,256,78520,1,0,0:0:0:0:
208,278,78640,1,0,0:0:0:0:
229,254,78760,1,0,0:0:0:0:
286,226,79000,1,0,0:0:0:0:
343,198,79240,1,0,0:0:0:0:
364,174,79360,1,0,0:0:0:0:
383,148,79480,1,0,0:0:0:0:
395,118,79600,1,0,0:0:0:0:
364,120,79720,6,0,L|352:140,1,20
336,136,79840,2,0,L|328:116,1,20
320,132,79960,2,0,L|316:156,1,20
304,140,80080,2,0,L|300:160,1,20
292,172,80200,6,0,L|280:156,1,20
272,144,80320,2,0,L|260:116,1,20
252,112,80440,2,0,L|236:140,1,20
236,144,80560,2,0,L|228:172,1,20
224,180,80680,6,0,L|216:208,1,20
212,216,80800,2,0,L|200:244,1,20
200,248,80920,2,0,L|188:272,1,20
184,280,81040,2,0,L|172:304,1,20
164,312,81160,6,0,L|140:288,1,20
136,304,81280,2,0,L|124:284,1,20
116,276,81400,2,0,L|104:248,1,20
104,244,81520,2,0,L|96:208,1,20
83,223,81640,6,0,B|7:199|7:199|30:154,1,120
25,163,82120,2,0,P|103:168|148:141,1,120
138,149,82600,2,0,P|201:104|252:96,1,120
257,124,83080,1,0,0:0:0:0:
282,105,83200,1,0,0:0:0:0:
296,136,83320,2,0,P|336:128|360:96,1,80
396,44,83800,1,0,0:0:0:0:
422,62,83920,1,0,0:0:0:0:
433,32,84040,1,0,0:0:0:0:
457,99,84280,6,0,L|408:140,1,40
400,104,84520,1,0,0:0:0:0:
344,136,84760,1,0,0:0:0:0:
316,193,85000,1,0,0:0:0:0:
260,164,85240,1,0,0:0:0:0:
241,138,85360,1,0,0:0:0:0:
219,161,85480,1,0,0:0:0:0:
202,188,85600,1,0,0:0:0:0:
192,218,85720,1,0,0:0:0:0:
186,249,85840,1,0,0:0:0:0:
104,296,86200,6,0,L|88:280,1,20
104,280,86320,2,0,L|120:264,1,20
104,264,86440,2,0,L|88:248,1,20
104,248,86560,2,0,L|120:232,1,20
104,232,86680,2,0,L|88:216,1,20
104,216,86800,2,0,L|120:200,1,20
128,192,86920,2,0,L|144:176,1,20
144,192,87040,6,0,L|160:208,1,20
168,200,87160,2,0,L|184:216,1,20
192,208,87280,2,0,L|208:224,1,20
216,216,87400,2,0,L|232:232,1,20
240,224,87520,2,0,L|256:240,1,20
264,232,87640,2,0,L|280:248,1,20
288,240,87760,2,0,L|304:256,1,20
320,256,87880,6,0,L|336:240,1,20
320,240,88000,2,0,L|304:224,1,20
320,224,88120,2,0,L|336:208,1,20
344,200,88240,2,0,L|360:216,1,20
368,200,88360,5,0,0:0:0:0:
324,153,88600,1,0,0:0:0:0:
301,175,88720,1,0,0:0:0:0:
254,131,88960,1,0,0:0:0:0:
232,156,89080,2,0,L|232:240,2,80,0|0|0,0:0|0:0|0:0,0:0:0:0:
212,132,89680,1,0,0:0:0:0:
180,132,89800,2,0,L|132:132,1,40
104,152,90040,5,0,0:0:0:0:
100,184,90160,1,0,0:0:0:0:
116,212,90280,1,0,0:0:0:0:
212,224,90640,1,0,0:0:0:0:
308,204,91000,2,0,L|340:280,2,80,0|0|0,0:0|0:0|0:0,0:0:0:0:
324,176,91600,2,0,L|368:152,1,40
396,132,91840,5,0,0:0:0:0:
396,132,92080,2,0,L|368:96,1,40
280,72,92560,2,0,L|280:48,2,20
240,176,93160,5,0,0:0:0:0:
218,152,93280,1,0,0:0:0:0:
198,126,93400,1,0,0:0:0:0:
175,148,93520,1,0,0:0:0:0:
121,113,93760,1,0,0:0:0:0:
103,139,93880,1,0,0:0:0:0:
92,169,94000,1,0,0:0:0:0:
62,156,94120,1,0,0:0:0:0:
96,280,94600,5,0,0:0:0:0:
148,316,94840,1,0,0:0:0:0:
244,316,95200,1,0,0:0:0:0:
316,256,95560,1,0,0:0:0:0:
376,180,95920,1,0,0:0:0:0:
404,196,96040,1,0,0:0:0:0:
476,132,96400,1,0,0:0:0:0:
460,68,96640,1,0,0:0:0:0:
438,91,96760,2,0,L|404:124,1,40
376,124,97000,2,0,P|332:152|328:200,1,80
292,184,97360,1,0,0:0:0:0:
260,192,97480,2,0,L|216:200,1,40
156,204,97840,1,0,0:0:0:0:
116,176,97960,5,0,0:0:0:0:
377,358,98440,1,0,0:0:0:0:
404,40,98920,1,0,0:0:0:0:
304,352,99400,2,0,B|144:339|144:339|292:278|292:278|136:245|136:245|212:220,1,560
211,220,101200,1,0,0:0:0:0:
272,197,101440,1,0,0:0:0:0:
272,197,101560,1,0,0:0:0:0:
272,197,101680,1,0,0:0:0:0:
259,171,101800,5,0,0:0:0:0:
308,132,102040,1,0,0:0:0:0:
240,112,102280,1,0,0:0:0:0:
308,68,102520,1,0,0:0:0:0:
220,52,102760,1,0,0:0:0:0:
200,196,103120,1,0,0:0:0:0:
356,156,103720,5,0,0:0:0:0:
320,208,103960,1,0,0:0:0:0:
392,208,104200,1,0,0:0:0:0:
340,268,104440,1,0,0:0:0:0:
428,260,104680,1,0,0:0:0:0:
456,220,104800,1,0,0:0:0:0:
456,220,105040,1,0,0:0:0:0:
400,144,105280,6,0,L|376:152,4,20
324,188,105640,5,0,0:0:0:0:
292,116,105880,1,0,0:0:0:0:
224,72,106120,1,0,0:0:0:0:
144,60,106360,1,0,0:0:0:0:
64,72,106600,1,0,0:0:0:0:
124,176,106960,1,0,0:0:0:0:
256,128,107560,5,0,0:0:0:0:
256,128,107680,2,0,L|284:168,1,40
352,124,108040,1,0,0:0:0:0:
312,56,108280,1,0,0:0:0:0:
288,88,108400,2,0,L|252:52,1,40
188,96,108760,2,0,L|168:56,1,40
92,56,109120,1,0,0:0:0:0:
100,96,109240,1,0,0:0:0:0:
124,128,109360,1,0,0:0:0:0:
164,171,109480,5,0,0:0:0:0:
205,122,109720,1,0,0:0:0:0:
249,76,109960,1,0,0:0:0:0:
296,33,110200,1,0,0:0:0:0:
353,4,110440,1,0,0:0:0:0:
391,92,110800,1,0,0:0:0:0:
245,26,111400,5,0,0:0:0:0:
209,79,111640,1,0,0:0:0:0:
190,140,111880,1,0,0:0:0:0:
178,202,112120,1,0,0:0:0:0:
171,265,112360,1,0,0:0:0:0:
194,243,112480,1,0,0:0:0:0:
194,243,112720,1,0,0:0:0:0:
261,192,112960,6,0,P|272:199|276:210,4,20
303,268,113320,5,0,0:0:0:0:
352,227,113560,1,0,0:0:0:0:
387,173,113800,1,0,0:0:0:0:
406,112,114040,1,0,0:0:0:0:
407,48,114280,1,0,0:0:0:0:
343,120,114640,1,0,0:0:0:0:
252,212,115240,6,0,L|208:212,1,40
195,240,115480,1,0,0:0:0:0:
141,205,115720,1,0,0:0:0:0:
76,212,115960,2,0,L|84:252,1,40
112,268,116200,1,0,0:0:0:0:
176,268,116440,2,0,L|192:232,1,40
220,172,116800,1,0,0:0:0:0:
243,204,116920,1,0,0:0:0:0:
249,243,117040,1,0,0:0:0:0:
208,240,117160,6,0,L|228:256,2,20
220,220,117340,2,0,L|248:236,2,20
232,200,117520,2,0,L|260:212,2,20
240,176,117700,2,0,L|268:188,2,20
248,152,117880,2,0,L|276:160,2,20
264,132,118060,1,0,0:0:0:0:
284,148,118120,6,0,L|256:156,2,20
288,172,118300,2,0,L|260:184,2,20
296,196,118480,2,0,L|268:208,2,20
304,220,118660,2,0,L|276:236,2,20
316,240,118840,2,0,L|296:256,3,20
284,264,119080,21,0,0:0:0:0:
360,292,119320,1,0,0:0:0:0:
376,256,119440,1,0,0:0:0:0:
432,316,119680,1,0,0:0:0:0:
452,280,119800,2,0,P|464:192|419:139,1,160
304,112,120520,5,0,0:0:0:0:
246,82,120760,1,0,0:0:0:0:
220,23,121000,1,0,0:0:0:0:
178,109,121360,1,0,0:0:0:0:
114,180,121720,1,0,0:0:0:0:
120,243,121960,1,0,0:0:0:0:
156,295,122200,1,0,0:0:0:0:
170,266,122320,1,0,0:0:0:0:
204,211,122560,5,0,0:0:0:0:
228,231,122680,1,0,0:0:0:0:
247,256,122800,1,0,0:0:0:0:
279,256,122920,2,0,B|376:228,1,80
404,192,123400,1,0,0:0:0:0:
416,128,123640,1,0,0:0:0:0:
392,69,123880,1,0,0:0:0:0:
357,122,124120,1,0,0:0:0:0:
326,65,124360,1,0,0:0:0:0:
312,93,124480,2,0,L|288:132,1,40
231,150,124840,2,0,P|180:224|96:236,2,160,0|0|0,0:0|0:0|0:0,0:0:0:0:
284,188,126040,1,0,0:0:0:0:
296,216,126160,1,0,0:0:0:0:
260,270,126400,1,0,0:0:0:0:
260,270,126520,1,0,0:0:0:0:
260,270,126640,1,0,0:0:0:0:
250,239,126760,5,0,0:0:0:0:
188,256,127000,1,0,0:0:0:0:
173,227,127120,1,0,0:0:0:0:
112,212,127360,1,0,0:0:0:0:
108,180,127480,2,0,P|56:156|44:128,2,80,0|0|0,0:0|0:0|0:0,0:0:0:0:
140,168,128080,1,0,0:0:0:0:
180,176,128200,5,0,0:0:0:0:
240,152,128440,1,0,0:0:0:0:
296,120,128680,1,0,0:0:0:0:
376,172,129040,1,0,0:0:0:0:
354,266,129400,1,0,0:0:0:0:
290,267,129640,1,0,0:0:0:0:
229,288,129880,1,0,0:0:0:0:
209,262,130000,1,0,0:0:0:0:
158,222,130240,5,0,0:0:0:0:
134,244,130360,1,0,0:0:0:0:
123,274,130480,1,0,0:0:0:0:
92,280,130600,2,0,P|24:336|32:380,2,120,0|0|0,0:0|0:0|0:0,0:0:0:0:
88,200,131560,1,0,0:0:0:0:
160,168,131800,1,0,0:0:0:0:
232,132,132040,1,0,0:0:0:0:
256,164,132160,1,0,0:0:0:0:
332,144,132400,1,0,0:0:0:0:
348,180,132520,2,0,P|384:240|440:252,2,120,0|0|0,0:0|0:0|0:0,0:0:0:0:
244,112,133480,2,0,P|230:108|216:116,15,20
196,124,134440,5,0,0:0:0:0:
212,204,134680,1,0,0:0:0:0:
244,180,134800,1,0,0:0:0:0:
284,248,135040,1,0,0:0:0:0:
300,212,135160,2,0,P|352:228|392:260,1,80,0|0,0:0|0:0,0:0:0:0:
364,164,135640,2,0,L|404:176,1,40
420,140,135880,1,0,0:0:0:0:
392,64,136120,1,0,0:0:0:0:
316,28,136360,1,0,0:0:0:0:
268,136,136720,1,0,0:0:0:0:
156,88,137080,1,0,0:0:0:0:
108,152,137320,1,0,0:0:0:0:
168,204,137560,1,0,0:0:0:0:
204,188,137680,1,0,0:0:0:0:
260,132,137920,5,0,0:0:0:0:
296,148,138040,1,0,0:0:0:0:
324,176,138160,1,0,0:0:0:0:
336,216,138280,2,0,P|364:288|424:328,2,120,0|0|0,0:0|0:0|0:0,0:0:0:0:
256,208,139240,1,0,0:0:0:0:
188,248,139480,1,0,0:0:0:0:
128,196,139720,1,0,0:0:0:0:
100,224,139840,1,0,0:0:0:0:
92,304,140080,1,0,0:0:0:0:
92,304,140200,2,0,P|180:316|228:344,2,120,0|0|0,0:0|0:0|0:0,0:0:0:0:
144,244,141160,1,0,0:0:0:0:
216,208,141400,2,0,L|272:208,1,40
152,144,141880,2,0,L|152:92,1,40
128,72,142120,5,0,0:0:0:0:
96,188,142480,1,0,0:0:0:0:
120,304,142840,1,0,0:0:0:0:
294,302,143560,1,0,0:0:0:0:
324,245,143800,1,0,0:0:0:0:
327,181,144040,1,0,0:0:0:0:
288,130,144280,1,0,0:0:0:0:
276,159,144400,1,0,0:0:0:0:
220,126,144640,1,0,0:0:0:0:
203,153,144760,1,0,0:0:0:0:
181,129,144880,1,0,0:0:0:0:
290,56,145960,5,0,0:0:0:0:
351,129,146320,1,0,0:0:0:0:
364,224,146680,1,0,0:0:0:0:
180,276,147400,1,0,0:0:0:0:
144,224,147640,1,0,0:0:0:0:
140,160,147880,1,0,0:0:0:0:
204,172,148120,1,0,0:0:0:0:
208,140,148240,1,0,0:0:0:0:
272,136,148480,1,0,0:0:0:0:
260,200,148720,1,0,0:0:0:0:
324,204,148960,5,0,0:0:0:0:
328,236,149080,1,0,0:0:0:0:
344,264,149200,1,0,0:0:0:0:
364,240,149320,1,0,0:0:0:0:
376,212,149440,1,0,0:0:0:0:
396,236,149560,1,0,0:0:0:0:
408,264,149680,1,0,0:0:0:0:
440,252,149800,1,0,0:0:0:0:
440,252,150160,1,0,0:0:0:0:
448,348,150520,1,0,0:0:0:0:
364,300,150880,1,0,0:0:0:0:
348,328,151000,1,0,0:0:0:0:
328,304,151120,1,0,0:0:0:0:
276,268,151360,5,0,0:0:0:0:
248,280,151480,1,0,0:0:0:0:
224,300,151600,1,0,0:0:0:0:
204,324,151720,1,0,0:0:0:0:
144,304,151960,1,0,0:0:0:0:
120,244,152200,1,0,0:0:0:0:
184,240,152440,1,0,0:0:0:0:
188,208,152560,1,0,0:0:0:0:
226,156,152800,5,0,0:0:0:0:
254,171,152920,1,0,0:0:0:0:
274,195,153040,1,0,0:0:0:0:
293,169,153160,1,0,0:0:0:0:
313,193,153280,1,0,0:0:0:0:
332,218,153400,1,0,0:0:0:0:
364,196,153520,1,0,0:0:0:0:
380,160,153640,2,0,P|412:92|472:56,2,120,0|0|0,0:0|0:0|0:0,0:0:0:0:
416,180,154480,1,0,0:0:0:0:
440,212,154600,2,0,P|454:274|438:306,1,80
368,280,155080,5,0,0:0:0:0:
332,260,155200,1,0,0:0:0:0:
296,248,155320,2,0,L|284:273,4,20
268,220,155680,1,0,0:0:0:0:
240,188,155800,1,0,0:0:0:0:
219,153,155920,1,0,0:0:0:0:
212,121,156040,1,0,0:0:0:0:
201,91,156160,1,0,0:0:0:0:
180,114,156280,1,0,0:0:0:0:
163,87,156400,1,0,0:0:0:0:
152,57,156520,1,0,0:0:0:0:
107,101,156760,1,0,0:0:0:0:
97,70,156880,1,0,0:0:0:0:
60,121,157120,1,0,0:0:0:0:
49,91,157240,1,0,0:0:0:0:
96,135,157480,5,0,0:0:0:0:
119,157,157600,1,0,0:0:0:0:
131,186,157720,1,0,0:0:0:0:
156,165,157840,1,0,0:0:0:0:
176,190,157960,1,0,0:0:0:0:
188,220,158080,1,0,0:0:0:0:
194,251,158200,1,0,0:0:0:0:
220,231,158320,1,0,0:0:0:0:
235,258,158440,1,0,0:0:0:0:
260,238,158560,1,0,0:0:0:0:
260,238,158680,1,0,0:0:0:0:
278,265,158800,1,0,0:0:0:0:
297,239,158920,1,0,0:0:0:0:
318,263,159040,1,0,0:0:0:0:
339,238,159160,1,0,0:0:0:0:
354,209,159280,1,0,0:0:0:0:
345,149,159400,5,0,0:0:0:0:
323,172,159520,1,0,0:0:0:0:
305,197,159640,1,0,0:0:0:0:
284,173,159760,1,0,0:0:0:0:
271,202,159880,1,0,0:0:0:0:
262,232,160000,1,0,0:0:0:0:
252,262,160120,1,0,0:0:0:0:
230,239,160240,1,0,0:0:0:0:
212,265,160360,1,0,0:0:0:0:
189,242,160480,1,0,0:0:0:0:
189,242,160600,1,0,0:0:0:0:
170,267,160720,1,0,0:0:0:0:
150,242,160840,1,0,0:0:0:0:
134,269,160960,1,0,0:0:0:0:
115,243,161080,1,0,0:0:0:0:
102,213,161200,1,0,0:0:0:0:
139,165,161320,5,0,0:0:0:0:
167,222,161560,1,0,0:0:0:0:
200,167,161800,1,0,0:0:0:0:
230,223,162040,1,0,0:0:0:0:
251,283,162280,1,0,0:0:0:0:
287,229,162520,1,0,0:0:0:0:
323,175,162760,1,0,0:0:0:0:
348,234,163000,1,0,0:0:0:0:
349,121,163240,5,0,0:0:0:0:
331,182,163480,1,0,0:0:0:0:
296,128,163720,1,0,0:0:0:0:
271,186,163960,1,0,0:0:0:0:
245,244,164200,1,0,0:0:0:0:
210,190,164440,1,0,0:0:0:0:
183,131,164680,1,0,0:0:0:0:
150,185,164920,1,0,0:0:0:0:
204,152,165160,5,0,0:0:0:0:
224,212,165400,1,0,0:0:0:0:
264,160,165640,1,0,0:0:0:0:
288,220,165880,1,0,0:0:0:0:
248,272,166120,1,0,0:0:0:0:
224,212,166360,1,0,0:0:0:0:
204,152,166600,1,0,0:0:0:0:
164,200,166840,1,0,0:0:0:0:
228,188,167080,5,0,0:0:0:0:
272,236,167320,1,0,0:0:0:0:
292,176,167560,1,0,0:0:0:0:
336,224,167800,1,0,0:0:0:0:
316,284,168040,1,0,0:0:0:0:
272,236,168280,1,0,0:0:0:0:
228,188,168520,1,0,0:0:0:0:
212,248,168760,1,0,0:0:0:0:
260,204,169000,5,8,0:0:0:0:
296,256,169240,1,0,0:0:0:0:
324,196,169480,1,8,0:0:0:0:
360,252,169720,1,0,0:0:0:0:
396,304,169960,1,8,0:0:0:0:
424,248,170200,1,0,0:0:0:0:
436,184,170440,1,8,0:0:0:0:
476,232,170680,1,8,0:0:0:0:
460,172,170920,5,8,0:0:0:0:
416,220,171160,1,0,0:0:0:0:
400,160,171400,1,8,0:0:0:0:
356,204,171640,1,0,0:0:0:0:
300,236,171880,1,8,0:0:0:0:
296,172,172120,1,0,0:0:0:0:
296,108,172360,1,8,0:0:0:0:
240,144,172600,1,8,0:0:0:0:
212,88,172840,5,8,0:0:0:0:
180,144,173080,1,0,0:0:0:0:
212,88,173320,1,8,0:0:0:0:
240,144,173560,1,0,0:0:0:0:
208,200,173800,1,8,0:0:0:0:
180,144,174040,1,0,0:0:0:0:
212,88,174280,1,8,0:0:0:0:
240,144,174520,1,8,0:0:0:0:
276,88,174760,5,8,0:0:0:0:
304,144,175000,1,0,0:0:0:0:
316,120,175120,6,0,L|340:88,1,40
368,148,175480,1,0,0:0:0:0:
352,172,175600,2,0,L|324:208,1,40
280,208,175840,2,0,L|224:208,2,40
328,204,176200,2,0,L|345:242,1,40
404,164,176560,1,4,0:0:0:0:
383,117,176680,5,4,0:0:0:0:
354,182,176920,1,0,0:0:0:0:
310,125,177160,1,0,0:0:0:0:
285,192,177400,1,0,0:0:0:0:
246,252,177640,1,0,0:0:0:0:
214,187,177880,1,0,0:0:0:0:
192,118,178120,1,0,0:0:0:0:
146,173,178360,1,0,0:0:0:0:
193,107,178600,5,0,0:0:0:0:
215,184,178840,1,0,0:0:0:0:
265,121,179080,1,0,0:0:0:0:
285,198,179320,1,0,0:0:0:0:
291,277,179560,1,0,0:0:0:0:
341,214,179800,1,0,0:0:0:0:
357,135,180040,1,0,0:0:0:0:
406,198,180280,1,0,0:0:0:0:
329,178,180520,5,0,0:0:0:0:
361,251,180760,1,0,0:0:0:0:
365,171,181000,1,0,0:0:0:0:
361,251,181240,1,0,0:0:0:0:
361,330,181480,1,0,0:0:0:0:
361,251,181720,1,0,0:0:0:0:
396,178,181960,1,0,0:0:0:0:
361,251,182200,1,0,0:0:0:0:
297,204,182440,5,0,0:0:0:0:
235,254,182680,1,0,0:0:0:0:
233,174,182920,1,0,0:0:0:0:
164,213,183160,1,0,0:0:0:0:
180,291,183400,1,0,0:0:0:0:
225,224,183640,1,0,0:0:0:0:
229,144,183880,1,0,0:0:0:0:
294,190,184120,1,0,0:0:0:0:
257,192,184360,6,0,B|176:192,1,80
177,128,184840,2,0,L|121:184,1,80
121,248,185320,2,0,L|61:188,1,80
175,236,190120,5,0,0:0:0:0:
214,235,190240,1,0,0:0:0:0:
253,235,190360,1,0,0:0:0:0:
292,236,190480,1,0,0:0:0:0:
337,170,190720,1,0,0:0:0:0:
364,199,190840,2,0,L|385:238,1,40
384,274,191080,1,0,0:0:0:0:
