osu file format v13

[General]
AudioFilename: 480297_Devastation-of-Heav.mp3
AudioLeadIn: 2000
PreviewTime: 37460
Countdown: 0
SampleSet: None
StackLeniency: 0.7
Mode: 0
LetterboxInBreaks: 0
EpilepsyWarning: 1
WidescreenStoryboard: 1

[Editor]
DistanceSpacing: 1.3
BeatDivisor: 4
GridSize: 4
TimelineZoom: 1.4

[Metadata]
Title:Devastation of Heaven & Earth
TitleUnicode:Devastation of Heaven & Earth
Artist:Viewtifulday
ArtistUnicode:Viewtifulday
Creator:happy623
Version:Ruinous
Source:Newgrounds
Tags:ZZHBOY EmingK dnb Drum n Bass max chi
BeatmapID:408389
BeatmapSetID:168243

[Difficulty]
HPDrainRate:8
CircleSize:4
OverallDifficulty:9
ApproachRate:9
SliderMultiplier:1.6
SliderTickRate:1

[Events]
//Background and Video events
0,0,"bg.jpg",0,0
//Break Periods
2,28172,31977
//Storyboard Layer 0 (Background)
//Storyboard Layer 1 (Fail)
//Storyboard Layer 2 (Pass)
//Storyboard Layer 3 (Foreground)
//Storyboard Sound Samples
//Background Colour Transformations
3,100,163,162,255

[TimingPoints]
345,558.139534883721,4,2,0,5,1,0
345,-200,4,2,0,10,0,0
2577,-200,4,2,0,10,0,0
4810,-200,4,2,0,15,0,0
7042,-200,4,2,0,20,0,0
11507,-200,4,2,0,15,0,0
12345,-200,4,2,0,10,0,0
12903,-200,4,2,0,5,0,0
13740,279.06976744186,4,2,0,5,1,0
13740,-200,4,2,0,5,0,0
15971,-200,4,2,0,10,0,0
17088,-133.333333333333,4,2,0,15,0,0
18204,-133.333333333333,4,2,0,20,0,0
19321,-100,4,2,0,20,0,0
27971,-100,4,1,0,60,0,0
32577,-100,4,2,0,15,0,0
37460,279.06976744186,4,1,1,80,1,1
37599,-100,4,1,1,80,0,0
45273,-200,4,1,1,60,0,0
46390,-100,4,1,1,80,0,0
54204,-200,4,1,1,80,0,0
55320,-133.333333333333,4,1,0,40,0,0
56436,-133.333333333333,4,1,0,30,0,0
58948,-200,4,1,0,30,0,0
59785,-133.333333333333,4,1,0,30,0,0
67878,-200,4,1,0,20,0,0
68715,-100,4,1,0,20,0,0
73180,-100,4,1,1,80,0,1
91041,-100,4,1,1,80,0,1
108901,-100,4,1,0,80,0,0

[Colours]
Combo1 : 202,202,202
Combo2 : 167,151,95
Combo3 : 88,129,188
Combo4 : 100,100,100

[HitObjects]
92,160,345,6,0,P|80:212|100:236,1,80,0|2,0:0|0:0,0:0:0:0:
172,252,1182,2,0,L|264:240,1,80,0|2,0:0|0:0,0:0:0:0:
404,292,2019,1,0,0:0:0:0:
404,292,2577,6,0,P|424:260|408:216,1,80,0|2,0:0|0:0,0:0:0:0:
344,184,3414,2,0,L|256:168,1,80,0|2,0:0|0:0,0:0:0:0:
120,104,4251,1,0,0:0:0:0:
120,104,4810,6,0,P|100:144|124:184,1,80,0|2,0:0|0:0,0:0:0:0:
180,212,5647,2,0,L|264:228,1,80,0|2,0:0|0:0,0:0:0:0:
416,208,6484,1,0,0:0:0:0:
416,208,7042,5,0,0:0:0:0:
272,184,7321,1,0,0:0:0:0:
348,164,7600,1,2,0:0:0:0:
200,220,7879,2,0,P|192:172|212:132,1,80,0|2,0:0|0:0,0:0:0:0:
256,4,8717,1,0,0:0:0:0:
256,284,8996,5,4,2:1:0:0:
256,192,9275,12,0,13182,0:0:0:0:
92,272,13740,6,0,P|124:244|168:256,1,80,2|0,0:0|0:0,0:0:0:0:
212,308,14158,2,0,L|296:296,1,80,2|0,0:0|0:0,0:0:0:0:
368,324,14577,2,0,L|420:316,1,40,2|0,0:0|0:0,0:0:0:0:
484,292,14856,6,0,P|464:252|416:236,1,80,2|0,0:0|0:0,0:0:0:0:
356,224,15274,2,0,L|276:216,1,80,2|0,0:0|0:0,0:0:0:0:
196,216,15693,2,0,L|144:208,1,40,2|0,0:0|0:0,0:0:0:0:
76,204,15972,6,0,P|88:156|128:140,1,80,2|0,0:0|0:0,0:0:0:0:
192,128,16391,2,0,P|236:136|264:168,1,80,2|0,0:0|0:0,0:0:0:0:
280,236,16809,2,0,P|276:268|264:288,1,40,2|0,0:0|0:0,0:0:0:0:
216,332,17088,6,0,P|152:340|112:288,1,120.000004577637,2|0,0:0|0:0,0:0:0:0:
180,260,17507,2,0,P|128:224|64:248,1,120.000004577637,2|0,0:0|0:0,0:0:0:0:
12,280,17926,6,0,P|0:248|12:200,1,60.0000022888184,2|0,0:0|0:0,0:0:0:0:
4,144,18205,2,0,P|10:114|28:91,1,60.0000022888184,2|0,0:0|0:0,0:0:0:0:
52,75,18484,6,0,P|34:98|28:128,1,60.0000022888184,0|2,0:0|0:0,0:0:0:0:
25,206,18763,2,0,P|24:236|36:264,1,60.0000022888184,2|0,0:0|0:0,0:0:0:0:
100,308,19042,1,2,0:0:0:0:
100,308,19321,6,0,L|232:288,1,120,8|0,0:0|0:0,0:0:0:0:
200,256,19600,2,0,L|312:312,1,120,8|0,0:0|0:0,0:0:0:0:
272,332,19879,2,0,L|400:316,1,120,8|0,0:0|0:0,0:0:0:0:
444,256,20158,1,8,0:0:0:0:
388,108,20437,5,8,0:0:0:0:
388,108,20716,1,8,0:0:0:0:
296,136,20995,1,8,0:0:0:0:
296,136,21274,1,8,0:0:0:0:
236,60,21553,6,0,P|172:56|124:88,1,120,8|0,0:0|0:0,0:0:0:0:
112,124,21833,2,0,L|96:252,1,120,8|0,0:0|0:0,0:0:0:0:
80,280,22112,2,0,P|136:264|192:288,1,120,8|0,0:0|0:0,0:0:0:0:
216,316,22391,2,0,L|340:308,1,120,8|0,0:0|0:0,0:0:0:0:
412,344,22670,5,8,0:0:0:0:
412,344,22949,1,8,0:0:0:0:
488,368,23228,1,8,0:0:0:0:
488,368,23507,1,8,0:0:0:0:
448,212,23786,6,0,P|456:148|400:96,1,120,8|0,0:0|0:0,0:0:0:0:
384,100,24065,2,0,L|248:88,1,120,8|0,0:0|0:0,0:0:0:0:
292,116,24344,2,0,L|156:104,1,120,8|0,0:0|0:0,0:0:0:0:
204,132,24623,2,0,P|228:176|192:260,1,120,8|0,0:0|0:0,0:0:0:0:
140,284,24902,5,8,0:0:0:0:
140,284,25181,1,8,0:0:0:0:
32,196,25460,1,8,0:0:0:0:
32,196,25739,1,8,0:0:0:0:
112,56,26019,6,0,P|184:96|192:192,1,160,8|8,0:0|0:0,0:0:0:0:
160,236,26437,1,2,0:0:0:0:
112,300,26577,2,0,P|192:256|280:256,1,160,8|8,0:0|0:0,0:0:0:0:
416,280,27135,6,0,P|444:236|424:192,1,80,8|2,0:0|0:0,0:0:0:0:
384,152,27414,2,0,P|356:196|376:240,1,80,8|2,0:0|0:0,0:0:0:0:
432,292,27693,6,0,P|460:248|440:204,1,80,8|2,0:0|0:0,0:0:0:0:
340,80,27972,1,4,0:0:0:0:
256,192,32577,12,2,36902,0:0:0:0:
428,88,37460,5,4,0:0:0:0:
328,212,37739,1,8,0:0:0:0:
260,136,37878,1,0,0:0:0:0:
188,212,38018,1,0,0:0:0:0:
188,212,38087,1,2,2:0:0:0:
188,212,38157,1,0,0:0:0:0:
100,156,38297,1,8,0:0:0:0:
100,156,38576,5,0,0:0:0:0:
204,216,38715,1,0,0:0:0:0:
308,164,38855,2,0,L|300:56,1,80,8|0,0:0|0:0,0:0:0:0:
456,340,39273,2,0,L|476:256,1,80,0|8,0:0|0:0,0:0:0:0:
276,328,39692,5,0,0:0:0:0:
132,284,39832,1,0,0:0:0:0:
224,240,39971,1,8,0:0:0:0:
44,224,40111,1,0,0:0:0:0:
68,100,40250,1,0,0:0:0:0:
72,112,40320,1,2,2:0:0:0:
76,124,40390,1,0,0:0:0:0:
132,284,40529,1,0,0:0:0:0:
44,224,40669,1,8,0:0:0:0:
283,159,40808,6,0,P|206:146|140:188,1,160,0|8,0:0|0:0,0:0:0:0:
360,232,41227,1,0,0:0:0:0:
452,280,41366,2,0,L|478:355,1,80
452,104,41646,2,0,L|460:184,1,80,8|0,0:0|0:0,0:0:0:0:
320,336,41925,5,4,0:0:0:0:
320,336,42204,2,0,L|216:328,2,80,8|0|0,0:0|0:0|0:0,0:0:0:0:
68,280,42762,2,0,L|164:288,1,80,8|0,0:0|0:0,0:0:0:0:
248,252,43041,2,0,L|332:256,1,80
96,104,43459,2,0,L|160:164,1,80,0|8,0:0|0:0,0:0:0:0:
220,240,43739,1,0,0:0:0:0:
260,144,43878,1,8,0:0:0:0:
392,224,44018,6,0,L|484:232,1,80
284,320,44297,1,0,0:0:0:0:
284,320,44576,2,0,L|200:336,1,80
228,64,44994,2,0,L|312:48,1,80,8|0,0:0|0:0,0:0:0:0:
429,129,45273,6,0,L|376:116,1,40,2|0,0:0|2:0,0:0:0:0:
356,292,45553,2,2,L|372:328,1,40,8|0,0:0|0:0,0:0:0:0:
204,184,45832,2,0,L|216:144,1,40,2|0,0:0|0:0,0:0:0:0:
68,288,46111,2,2,L|52:328,1,40,8|0,0:0|0:0,0:0:0:0:
64,108,46390,5,4,0:0:0:0:
64,108,46669,2,0,L|164:88,1,80,8|0,0:0|0:0,0:0:0:0:
192,184,46948,1,0,0:0:0:0:
204,180,47018,1,2,2:0:0:0:
216,176,47087,1,0,0:0:0:0:
392,156,47227,1,8,0:0:0:0:
312,220,47366,1,0,0:0:0:0:
484,108,47506,6,0,P|488:68|464:24,1,80
312,220,47785,2,0,L|328:304,1,80,8|0,0:0|0:0,0:0:0:0:
157,111,48064,2,0,L|192:184,1,80,0|0,0:0|0:0,0:0:0:0:
144,332,48343,1,8,0:0:0:0:
144,332,48483,1,0,0:0:0:0:
248,40,48622,6,0,L|264:128,1,80,0|0,0:0|0:0,0:0:0:0:
260,304,48901,1,8,0:0:0:0:
212,212,49041,1,0,0:0:0:0:
360,320,49180,2,0,L|416:328,2,40,0|2|0,0:0|2:0|0:0,0:0:0:0:
144,332,49459,2,0,L|60:312,1,80,8|0,0:0|0:0,0:0:0:0:
12,224,49739,5,0,0:0:0:0:
144,116,49878,1,0,0:0:0:0:
116,216,50018,1,8,0:0:0:0:
256,192,50157,1,0,0:0:0:0:
248,92,50297,2,0,P|288:84|336:104,1,80,0|0,0:0|0:0,0:0:0:0:
264,292,50576,2,0,P|224:300|176:280,1,80,8|0,0:0|0:0,0:0:0:0:
36,24,50855,5,4,0:0:0:0:
52,128,50994,1,0,0:0:0:0:
136,56,51134,1,8,0:0:0:0:
256,192,51413,1,0,0:0:0:0:
220,292,51553,1,0,0:0:0:0:
452,84,51832,1,0,0:0:0:0:
376,156,51971,6,0,L|392:248,1,80
122,234,52250,2,0,L|136:156,1,80
200,76,52529,2,0,P|236:60|288:64,1,80
392,168,52808,1,8,0:0:0:0:
392,168,52948,1,0,0:0:0:0:
284,280,53087,5,8,0:0:0:0:
280,288,53157,1,0,0:0:0:0:
276,296,53227,1,0,0:0:0:0:
272,304,53297,1,0,0:0:0:0:
268,312,53366,1,8,0:0:0:0:
264,320,53436,1,0,0:0:0:0:
260,328,53506,1,0,0:0:0:0:
256,336,53576,1,0,0:0:0:0:
252,344,53646,6,0,P|208:344|168:328,1,80,8|0,0:0|0:0,0:0:0:0:
380,304,53925,1,8,0:0:0:0:
380,304,54204,6,0,L|400:264,1,40,2|0,0:0|2:0,0:0:0:0:
308,140,54483,2,2,L|296:96,1,40,8|0,0:0|0:0,0:0:0:0:
56,136,54762,2,0,L|108:148,1,40,2|0,0:0|2:0,0:0:0:0:
128,324,55041,2,2,L|172:312,1,40,8|0,0:0|0:0,0:0:0:0:
300,360,55320,5,6,0:0:0:0:
300,360,55878,2,0,P|340:316|328:248,1,120.000004577637,2|2,0:0|2:0,0:0:0:0:
192,192,56436,5,2,0:0:0:0:
192,192,56994,2,0,L|252:80,1,120.000004577637,2|2,0:0|2:0,0:0:0:0:
196,296,57553,5,2,0:0:0:0:
184,312,58111,1,2,0:0:0:0:
172,328,58669,5,2,0:0:0:0:
324,296,58948,2,0,L|368:288,1,40,0|2,0:0|0:0,0:0:0:0:
192,224,59227,2,0,L|140:212,1,40,0|2,0:0|0:0,0:0:0:0:
292,212,59506,1,2,0:0:0:0:
348,68,59646,1,0,0:0:0:0:
200,200,59785,5,2,0:0:0:0:
200,200,59925,2,0,L|140:208,1,60.0000022888184,0|2,0:0|2:0,0:0:0:0:
170,104,60343,2,0,L|48:120,1,120.000004577637,2|2,0:0|2:0,0:0:0:0:
292,212,60901,6,0,L|424:208,1,120.000004577637,2|2,0:0|2:0,0:0:0:0:
216,208,61459,2,0,P|216:232|244:268,1,60.0000022888184,2|0,0:0|2:0,0:0:0:0:
252,132,61739,1,2,2:0:0:0:
144,292,62018,5,2,0:0:0:0:
144,292,62576,2,0,L|12:284,1,120.000004577637,2|2,0:0|2:0,0:0:0:0:
256,248,63134,5,2,0:0:0:0:
480,32,63692,2,0,L|452:156,1,120.000004577637,2|2,0:0|2:0,0:0:0:0:
32,352,64250,6,0,L|24:292,1,60.0000022888184,2|0,0:0|2:0,0:0:0:0:
100,276,64529,2,0,L|100:212,1,60.0000022888184,8|0,0:0|2:0,0:0:0:0:
180,212,64808,2,0,L|184:144,1,60.0000022888184,2|0,0:0|2:0,0:0:0:0:
260,160,65087,2,0,L|276:92,1,60.0000022888184,8|0,0:0|2:0,0:0:0:0:
384,204,65366,6,0,P|385:236|369:268,1,60.0000022888184,2|0,0:0|2:0,0:0:0:0:
128,180,65646,2,0,P|126:147|142:115,1,60.0000022888184,8|0,0:0|2:0,0:0:0:0:
392,236,65925,2,0,P|381:267|355:291,1,60.0000022888184,2|0,0:0|2:0,0:0:0:0:
108,148,66204,2,0,P|118:116|144:92,1,60.0000022888184,8|0,0:0|2:0,0:0:0:0:
104,312,66483,6,0,L|168:300,1,60.0000022888184,2|0,0:0|2:0,0:0:0:0:
428,300,66762,2,0,L|364:288,1,60.0000022888184,8|0,0:0|2:0,0:0:0:0:
80,300,67041,2,0,L|144:288,1,60.0000022888184,2|0,0:0|2:0,0:0:0:0:
408,312,67320,2,0,L|344:300,1,60.0000022888184,8|0,0:0|2:0,0:0:0:0:
460,192,67599,5,2,0:0:0:0:
460,192,67878,6,0,L|408:176,1,40,0|2,0:0|0:0,0:0:0:0:
248,292,68157,2,0,L|200:280,1,40,0|2,0:0|0:0,0:0:0:0:
136,88,68436,2,0,L|192:72,1,40,2|0,0:0|0:0,0:0:0:0:
40,208,68715,5,2,0:0:0:0:
52,224,68994,1,8,0:0:0:0:
64,240,69273,1,2,0:0:0:0:
76,256,69553,1,8,0:0:0:0:
176,196,69832,5,2,0:0:0:0:
176,204,70111,1,8,0:0:0:0:
176,280,70390,1,2,0:0:0:0:
176,288,70669,1,8,0:0:0:0:
96,336,70948,5,2,0:0:0:0:
100,340,71227,1,8,0:0:0:0:
16,356,71506,1,2,0:0:0:0:
20,360,71785,1,8,0:0:0:0:
24,360,72064,5,2,0:0:0:0:
24,360,72622,5,2,0:0:0:0:
136,152,72762,1,4,2:0:0:0:
376,284,72901,5,2,0:0:0:0:
256,220,73041,1,4,2:0:0:0:
492,80,73180,5,4,0:0:0:0:
288,48,73459,2,0,P|248:41|208:57,1,80,8|4,0:0|3:0,0:0:0:0:
136,152,73739,1,0,0:0:0:0:
152,300,73878,1,0,0:0:0:0:
48,96,74018,2,0,P|50:56|73:24,1,80,8|4,0:0|3:0,0:0:0:0:
152,300,74436,5,0,0:0:0:0:
8,364,74576,1,8,0:0:0:0:
92,232,74715,1,4,3:0:0:0:
92,232,74994,2,0,L|172:224,1,80,0|8,0:0|0:0,0:0:0:0:
90,76,75413,6,0,P|97:115|124:144,1,80,2|0,0:0|0:0,0:0:0:0:
300,107,75692,2,0,P|260:104|224:120,1,80,10|4,0:0|3:0,0:0:0:0:
421,307,75971,2,0,P|414:268|388:240,1,80,2|0,0:0|0:0,0:0:0:0:
211,276,76250,2,0,P|251:279|288:264,1,80,10|4,0:0|3:0,0:0:0:0:
90,76,76529,6,0,B|72:96|72:96|84:164,1,80,2|0,0:0|0:0,0:0:0:0:
148,288,76808,2,0,B|166:268|166:268|156:215,1,80,10|4,0:0|3:0,0:0:0:0:
76,60,77087,2,0,B|58:80|58:80|70:148,1,80,2|0,0:0|0:0,0:0:0:0:
164,300,77366,2,0,B|182:280|182:280|172:227,1,80,10|4,0:0|3:0,0:0:0:0:
323,86,77646,6,0,P|244:72|176:128,1,160,4|8,0:0|0:0,0:0:0:0:
260,332,78064,1,4,3:0:0:0:
260,331,78204,2,0,L|268:172,1,160,0|8,0:0|0:0,0:0:0:0:
348,276,78622,5,0,0:0:0:0:
348,276,78901,2,0,L|352:184,1,80,4|8,3:0|0:0,0:0:0:0:
400,104,79180,1,0,0:0:0:0:
222,64,79320,2,0,P|260:75|300:72,1,80,0|4,0:0|3:0,0:0:0:0:
76,88,79739,5,4,3:0:0:0:
76,88,79878,2,0,L|88:168,1,80,2|4,0:0|3:0,0:0:0:0:
32,312,80157,2,0,L|128:332,1,80,10|0,0:0|0:0,0:0:0:0:
365,299,80436,2,0,P|288:279|212:300,1,160,2|10,0:0|0:0,0:0:0:0:
124,356,80855,1,4,3:0:0:0:
48,198,80994,6,0,P|62:235|95:255,1,80,2|0,0:0|0:0,0:0:0:0:
192,108,81273,2,0,P|164:135|163:175,1,80,10|4,0:0|3:0,0:0:0:0:
321,207,81553,2,0,P|282:201|247:220,1,80,2|4,0:0|3:0,0:0:0:0:
124,356,81832,1,4,3:0:0:0:
168,264,81971,1,4,3:0:0:0:
64,84,82111,6,0,P|140:100|200:48,1,160,4|8,0:0|0:0,0:0:0:0:
266,334,82529,2,0,L|288:176,1,160,4|4,3:0|3:0,0:0:0:0:
344,88,82948,1,4,3:0:0:0:
208,168,83087,1,4,3:0:0:0:
344,288,83227,6,0,P|272:248|195:283,1,160,4|8,3:0|0:0,0:0:0:0:
116,328,83646,1,4,3:0:0:0:
116,328,83925,2,0,P|112:280|80:252,1,80,0|8,0:0|0:0,0:0:0:0:
4,200,84204,1,4,3:0:0:0:
116,328,84343,5,0,0:0:0:0:
208,276,84483,1,4,3:0:0:0:
308,256,84622,1,8,0:0:0:0:
408,280,84762,1,0,0:0:0:0:
408,280,85041,2,0,L|420:192,1,80,0|8,0:0|0:0,0:0:0:0:
340,336,85320,1,4,3:0:0:0:
120,232,85459,6,0,P|96:200|100:144,1,80,4|4,3:0|3:0,0:0:0:0:
200,152,85739,2,0,P|195:112|226:65,1,80,8|0,0:0|0:0,0:0:0:0:
308,124,86018,2,0,P|323:87|374:62,1,80,0|0,0:0|0:0,0:0:0:0:
512,56,86297,5,4,3:0:0:0:
308,124,86436,1,4,3:0:0:0:
512,56,86576,6,0,L|488:224,1,160,6|8,3:0|0:0,0:0:0:0:
416,100,86994,1,4,3:0:0:0:
448,308,87134,1,0,0:0:0:0:
448,308,87413,2,0,P|412:292|364:296,1,80,8|4,0:0|3:0,0:0:0:0:
276,332,87692,6,0,L|180:320,1,80,4|4,3:0|3:0,0:0:0:0:
24,212,87971,1,8,0:0:0:0:
100,284,88111,1,4,3:0:0:0:
80,124,88250,5,0,0:0:0:0:
428,84,88529,1,8,0:0:0:0:
336,24,88669,1,0,0:0:0:0:
428,84,88808,6,0,P|448:124|440:168,1,80,2|4,3:0|3:0,0:0:0:0:
264,336,89087,1,8,0:0:0:0:
168,212,89227,1,4,3:0:0:0:
308,260,89366,1,0,0:0:0:0:
308,260,89646,5,8,0:0:0:0:
456,60,89925,1,2,0:0:0:0:
124,120,90204,1,0,0:0:0:0:
156,316,90483,5,2,0:0:0:0:
68,264,90622,1,4,3:0:0:0:
84,368,90762,1,8,0:0:0:0:
240,348,90901,1,4,3:0:0:0:
112,183,91041,6,0,P|132:109|88:44,1,160,4|8,0:0|0:0,0:0:0:0:
192,248,91459,1,4,3:0:0:0:
192,248,91599,2,0,L|352:208,1,160,0|8,0:0|0:0,0:0:0:0:
112,276,92018,1,4,3:0:0:0:
204,88,92157,6,0,P|244:88|284:112,1,80
360,172,92436,2,0,P|394:190|434:190,1,80,8|4,0:0|3:0,0:0:0:0:
128,40,92715,2,0,P|112:80|124:124,1,80
180,200,92994,2,0,P|186:238|170:275,1,80,8|4,0:0|3:0,0:0:0:0:
36,352,93273,6,0,L|200:364,1,160,0|8,0:0|0:0,0:0:0:0:
444,288,93692,2,0,P|352:292|372:168,1,240,4|8,3:0|0:0,0:0:0:0:
240,276,94250,1,4,3:0:0:0:
240,276,94529,2,0,P|200:280|148:260,1,80,0|8,0:0|0:0,0:0:0:0:
87,118,94808,2,0,P|96:157|88:196,1,80,4|0,3:0|0:0,0:0:0:0:
24,276,95087,1,0,0:0:0:0:
208,176,95227,1,8,0:0:0:0:
208,176,95506,6,0,L|396:160,1,160,0|8,0:0|0:0,0:0:0:0:
440,240,95925,1,4,3:0:0:0:
312,72,96064,2,0,L|144:88,1,160,0|8,0:0|0:0,0:0:0:0:
384,112,96483,1,4,3:0:0:0:
335,315,96622,6,0,P|280:261|204:274,1,160,0|8,0:0|0:0,0:0:0:0:
128,344,97041,1,4,3:0:0:0:
84,168,97180,2,0,L|92:248,1,80
168,52,97599,1,4,3:0:0:0:
168,52,97739,6,0,P|204:80|212:132,1,80,0|0,0:0|0:0,0:0:0:0:
224,216,98018,2,0,L|212:304,1,80,8|4,0:0|3:0,0:0:0:0:
365,54,98297,2,8,P|376:130|324:188,1,160
224,216,98715,1,4,3:0:0:0:
365,54,98855,6,0,P|400:40|448:48,1,80,2|0,0:0|0:0,0:0:0:0:
408,210,99134,2,0,P|371:225|332:220,1,80,10|4,0:0|3:0,0:0:0:0:
167,101,99413,2,0,P|204:86|244:92,1,80,2|0,0:0|0:0,0:0:0:0:
404,296,99692,1,8,0:0:0:0:
404,296,99971,6,0,L|236:292,1,160,2|8,0:0|0:0,0:0:0:0:
144,320,100390,1,4,3:0:0:0:
48,79,100529,2,0,P|60:164|140:160,1,160,0|8,0:0|0:0,0:0:0:0:
216,124,100948,1,4,3:0:0:0:
144,320,101087,6,0,P|144:276|172:248,1,80
316,208,101366,1,0,0:0:0:0:
256,332,101506,1,4,3:0:0:0:
256,332,101785,1,0,0:0:0:0:
400,180,101925,1,8,0:0:0:0:
96,104,102204,6,0,P|128:76|168:68,1,80
416,280,102483,2,0,P|384:308|344:316,1,80,8|4,0:0|3:0,0:0:0:0:
156,236,102762,2,0,L|236:244,1,80
356,148,103041,2,0,L|276:140,1,80,8|4,0:0|3:0,0:0:0:0:
72,312,103320,6,0,L|232:324,1,160,0|8,0:0|0:0,0:0:0:0:
56,212,103739,1,4,3:0:0:0:
56,212,104018,1,0,0:0:0:0:
176,116,104157,1,8,0:0:0:0:
252,188,104297,1,4,3:0:0:0:
433,96,104436,6,0,P|357:119|300:64,1,160,2|8,0:0|0:0,0:0:0:0:
376,208,104855,1,0,0:0:0:0:
376,36,104994,1,2,0:0:0:0:
376,36,105273,1,8,0:0:0:0:
280,80,105413,1,4,3:0:0:0:
184,36,105553,6,0,P|100:28|32:64,1,160,6|8,0:0|0:0,0:0:0:0:
28,216,105971,2,0,P|68:216|112:184,1,80,4|0,3:0|0:0,0:0:0:0:
16,328,106250,1,0,0:0:0:0:
112,284,106390,1,8,0:0:0:0:
184,356,106529,1,4,3:0:0:0:
284,336,106669,6,0,P|324:344|368:328,1,80,2|0,0:0|0:0,0:0:0:0:
412,244,106948,2,0,P|404:200|424:160,1,80,8|4,0:0|3:0,0:0:0:0:
432,64,107227,2,0,P|392:68|352:48,1,80,2|0,0:0|0:0,0:0:0:0:
272,116,107506,2,0,L|168:104,1,80,8|4,0:0|3:0,0:0:0:0:
16,216,107785,6,0,P|48:196|108:200,1,80,2|0,0:0|0:0,0:0:0:0:
244,332,108064,2,0,P|212:352|152:348,1,80,8|4,0:0|3:0,0:0:0:0:
60,228,108343,6,0,P|92:208|152:212,1,80,2|0,0:0|0:0,0:0:0:0:
172,324,108622,2,0,P|140:344|80:340,1,80,8|4,0:0|3:0,0:0:0:0:
116,276,108901,5,4,0:0:0:0:
