osu file format v9

[General]
AudioFilename: Ide na plaaaaze.mp3
AudioLeadIn: 3000
PreviewTime: 81239
Countdown: 0
SampleSet: Soft
StackLeniency: 0.7
Mode: 0
LetterboxInBreaks: 1

[Editor]
Bookmarks: 165321
DistanceSpacing: 1
BeatDivisor: 4
GridSize: 8

[Metadata]
Title:Ide Na Plaze
Artist:Video
Creator:Mr Gaddy
Version:fartownik Idzie Na Plaze
Source:
Tags:Polish Piach fartownik

[Difficulty]
HPDrainRate:8
CircleSize:5
OverallDifficulty:8
ApproachRate:8
SliderMultiplier:2.1
SliderTickRate:2

[Events]
//Background and Video events
0,0,"img_3062.jpg"
//Break Periods
2,14675,27669
2,109324,122317
//Storyboard Layer 0 (Background)
//Storyboard Layer 1 (Fail)
//Storyboard Layer 2 (Pass)
//Storyboard Layer 3 (Foreground)
//Storyboard Sound Samples
//Background Colour Transformations
3,100,163,162,255

[TimingPoints]
955,422.535211267606,4,2,2,20,1,0
7504,-100,4,1,2,20,0,0
10884,-100,4,2,0,20,0,0
13102,-100,4,1,0,40,0,0
28211,-100,4,1,0,70,0,0
55253,-100,4,1,0,85,0,0
61694,-200,4,1,0,85,0,0
62222,-100,4,1,0,85,0,0
81134,-100,4,1,1,100,0,0
81870,-100,4,1,0,100,0,1
109127,-100,4,1,1,70,0,0
122140,-100,4,1,0,70,0,0
136380,-100,4,1,0,85,0,0
148739,-100,4,1,0,100,0,0
149690,-100,4,1,0,100,0,1
159830,-100,4,1,0,100,0,0
162152,-100,4,2,2,100,0,0
163102,-100,4,2,1,0,0,0

[Colours]
Combo1 : 1,153,243
Combo2 : 252,215,3

[HitObjects]
112,192,955,1,2
256,344,1377,1,2
400,192,1800,1,0
256,40,2222,1,2
256,144,2433,1,0
256,248,2645,5,2
256,248,3067,1,2
256,248,3490,1,0
360,64,3912,1,2
256,72,4124,1,0
152,64,4335,5,2
0,208,4757,1,2
152,352,5180,1,0
296,200,5602,1,2
400,200,5814,1,0
296,200,6025,5,2
88,200,6447,1,2
192,16,6870,1,0
192,16,7293,1,0
192,16,7715,5,0
320,352,9405,1,0
256,192,10250,1,4
56,120,10673,1,0
256,72,11095,6,0,C|360:24,1,105,0|2
304,136,11518,2,0,C|424:136,1,105,0|2
304,216,11940,2,0,C|400:272,1,105,0|2
248,264,12363,2,0,C|280:376,1,105,0|2
168,256,12785,2,0,C|136:360,1,105,0|2
96,232,13208,6,0,C|0:304,2,105
64,136,13842,1,0
152,72,14053,2,0,B|232:8|376:48,1,210,8|4
136,192,28419,5,4
136,192,28631,1,0
136,192,28842,2,0,B|168:328|320:256,1,210,2|0
400,288,29476,1,0
400,288,29687,2,0,B|448:176|320:104,1,210,4|0
120,104,30532,1,2
224,128,30743,1,0
256,136,30849,1,0
288,144,30955,1,0
272,240,31166,1,0
376,256,31377,1,0
272,288,31588,5,4
272,288,31800,1,0
272,288,32011,1,0
272,288,32222,2,0,B|64:272|280:256,1,210,2|0
376,256,32856,1,0
376,256,33067,2,0,B|584:240|368:224,1,210,0|0
168,184,33912,5,2
264,144,34124,1,0
296,128,34229,1,0
328,112,34335,1,0
416,64,34546,1,4
416,168,34757,1,0
328,224,34969,1,0
224,216,35180,6,0,B|176:272|184:328,2,105,0|0|2
120,200,35814,2,0,B|120:144|80:88,1,105,0|2
184,56,36236,2,0,B|248:24|296:64,1,105,0|2
232,144,36659,1,0
232,144,36764,1,0
232,144,36870,1,2
272,240,37081,1,0
368,200,37293,1,2
472,224,37504,2,0,B|504:176,2,52.5,0|0|4
416,312,37926,2,0,B|464:344,2,52.5,0|0|4
360,224,38349,1,4
264,248,38560,6,0,B|224:288|160:272,1,105,0|2
80,328,38983,2,0,B|32:288|64:216,1,105,0|2
40,128,39405,2,0,B|88:88|152:112,1,105,0|2
176,208,39828,1,0
248,128,40039,1,4
248,128,40145,1,0
248,128,40250,1,0
280,288,40462,1,4
360,144,40673,1,4
392,248,40884,1,0
472,176,41095,1,8
472,176,41307,1,0
392,248,41518,1,8
8,240,41940,6,0,B|48:368|216:328,1,210,2|2
504,144,42785,2,0,B|464:16|296:56,1,210,2|2
368,152,43419,2,0,B|248:224|176:88,1,210,2|2
88,288,44264,1,4
88,288,44370,1,0
88,288,44476,1,0
184,320,44687,1,0
280,288,44898,6,0,B|496:288,2,210,0|2|2
192,232,45955,2,0,B|136:208|128:136,1,105,0|2
232,160,46377,2,0,B|208:96|248:56,1,105,0|2
328,120,46800,2,0,B|400:64|488:152|424:224,1,210,0|2
232,296,47645,1,4
232,296,47750,1,0
232,296,47856,1,0
160,216,48067,1,0
232,136,48278,6,0,B|368:136,2,105,4|0|2
136,96,48912,1,0
56,168,49124,2,0,B|0:288|160:352,1,210,4|2
208,272,49757,1,0
288,344,49969,2,0,B|416:328|384:176,1,210,4|2
280,200,50602,1,4
232,192,50708,1,0
184,184,50814,1,0
80,160,51025,1,0
128,152,51131,1,0
176,144,51236,1,2
280,120,51447,2,0,B|480:80,2,157.5,0|0|2
232,216,52293,5,0
336,208,52504,2,0,B|352:360|176:312,1,210,2|0
320,320,53138,1,0
320,320,53349,2,0,B|496:272,2,157.5,2|2|0
216,352,54194,1,0
112,336,54405,1,4
96,304,54511,1,0
80,272,54616,1,2
168,216,54828,1,4
176,184,54933,1,0
184,152,55039,1,4
272,96,55250,1,0
288,200,55462,5,0
368,272,55673,1,2
472,280,55884,1,4
472,280,56095,1,0
472,280,56307,1,0
368,304,56518,1,2
296,376,56729,1,4
296,376,56940,1,0
296,376,57152,6,0,B|192:312,1,105,0|2
288,256,57574,2,0,B|176:192,1,105,0|2
288,152,57997,2,0,B|168:88,1,105,0|6
112,40,58419,2,0,B|-24:88|40:224,1,210,4|0
80,296,59053,5,2
176,344,59264,2,0,B|264:352|312:336,1,105,0|4
384,352,59687,1,0
480,304,59898,1,2
392,248,60109,2,0,B|304:248|272:232,1,105,0|4
184,256,60532,6,0,B|128:248|64:264,1,105,0|2
192,184,60955,2,0,B|152:152|144:128|136:88,1,105,0|2
256,224,61377,2,0,B|304:184|352:184,1,105,0|2
248,296,61800,2,0,B|288:328|296:344|304:392,1,105,4|4
360,296,62433,5,2
456,344,62645,2,0,B|512:240|456:104,1,210
392,216,63278,1,0
296,256,63490,2,0,B|176:288|48:232,2,210,2|2|2
224,184,64546,1,4
224,184,64652,1,0
224,184,64757,1,0
120,160,64969,1,0
184,80,65180,2,0,B|56:24|-8:176,1,210,4|4
48,240,65814,5,2
136,296,66025,2,0,B|256:296,1,105,4|0
336,336,66447,1,0
336,336,66659,1,2
400,256,66870,2,0,B|512:256,1,105,4|0
464,160,67293,2,0,B|336:160,1,105,4|0
400,64,67715,2,0,B|512:64,1,105,4|0
400,64,68138,2,4,B|272:64,1,105,2|4
192,56,68560,2,0,B|192:296,1,210,2|4
256,344,69194,5,2
296,336,69300,1,0
336,328,69405,1,0
248,264,69616,2,0,B|360:240,1,105,2|0
408,344,70039,2,0,B|512:320,1,105,6|0
480,224,70462,1,2
408,144,70673,1,0
472,64,70884,2,0,B|352:32|256:64,1,210,2|4
264,61,71412,5,0
264,61,71518,1,0
176,120,71729,1,0
264,176,71940,1,4
264,280,72152,5,2
224,280,72257,1,0
184,280,72363,1,0
104,344,72574,2,0,B|40:328|40:264,1,105,2|0
136,224,72997,2,0,B|136:168|64:152,1,105,2|0
96,56,73419,2,0,B|144:104|216:72,1,105,2|0
224,184,73842,1,2
200,288,74053,1,0
304,280,74264,2,0,B|440:312|432:120,1,210,2|4
431,160,74793,5,0
431,160,74898,1,0
336,112,75109,1,0
240,160,75321,1,4
240,264,75532,5,0
240,264,75638,1,0
240,264,75743,1,2
240,264,75955,1,0
240,264,76166,2,0,B|176:232|104:328|16:248,1,210,2|2
88,176,76800,1,0
16,96,77011,2,0,B|72:64|144:104,1,105,2|0
160,184,77433,2,0,B|216:224|280:168,1,105,2|0
304,88,77856,2,0,B|368:64|416:96,1,105,4|0
408,192,78278,6,0,B|352:216|304:192,1,105,2|0
352,96,78701,2,0,B|352:320,1,210,2|2
352,306,79335,5,0
352,306,79546,2,0,B|488:296|448:144,1,210,2|2
352,200,80180,1,0
352,304,80391,2,0,B|216:294|256:142,1,210,2|2
352,120,81025,1,0
256,72,81236,5,4
256,72,81447,1,4
256,72,81659,1,4
256,72,81870,6,0,B|136:24|64:152,1,210,2|4
176,160,82504,2,0,B|144:272|8:272,1,210,8|4
104,336,83138,1,0
104,336,83243,1,0
104,336,83349,1,0
200,304,83560,2,0,B|272:224|408:256,1,210,2|0
320,176,84194,2,0,B|432:160|456:32,1,210,8|4
352,48,84828,5,4
272,120,85039,1,4
200,48,85250,2,0,B|-24:48,1,210,2|0
64,120,85884,2,0,B|304:120,1,210,8|0
200,200,86518,1,4
200,200,86624,1,0
200,200,86730,1,0
136,280,86940,2,0,B|264:344|328:192,1,210,2|0
384,296,87574,2,0,B|464:192|320:80,1,210,8|4
248,96,88208,5,4
144,112,88419,1,4
192,208,88631,2,0,B|256:288|400:256,1,210,2|0
472,200,89264,1,8
472,200,89476,1,0
448,304,89687,2,0,B|400:352|320:344,1,105
248,328,90109,5,4
144,344,90321,2,0,B|32:288|80:144,1,210,2|0
0,72,90955,1,8
0,72,91166,1,0
96,112,91377,5,2
192,152,91588,1,0
288,192,91800,2,0,B|408:192,1,105,8|0
256,192,92222,12,4,94757
256,192,94969,5,4
256,192,95180,1,4
256,192,95391,2,0,B|232:304|88:312,1,210,2|0
256,192,96025,2,0,B|280:80|424:72,1,210,8|4
368,176,96659,1,0
368,176,96764,1,0
368,176,96870,1,0
256,192,97081,6,0,B|280:304|424:312,1,210,2|0
256,192,97715,2,0,B|232:80|88:72,1,210,8|4
136,176,98349,1,4
56,240,98560,1,4
136,312,98771,6,0,B|136:80,1,210,2|0
208,272,99405,2,0,B|208:48,1,210,8|0
280,184,100039,1,4
280,184,100145,1,0
280,184,100250,1,0
336,272,100462,6,0,B|464:208|328:88,1,210,2|0
240,104,101095,2,0,B|104:192|256:288,1,210,8|4
272,368,101729,1,4
272,368,101940,1,4
272,368,102152,6,0,B|216:392|144:328,1,105,2|0
72,344,102574,2,0,B|0:304|24:208,1,105,0|8
104,192,102997,2,0,B|64:136|144:64,1,105,2|0
208,144,103419,2,0,B|216:88|288:72,1,105,0|8
320,168,103842,2,0,B|408:168|416:240,1,105,2|0
320,272,104264,2,0,B|376:320|336:376,1,105,0|8
240,328,104687,1,0
136,352,104898,6,0,B|24:352,1,105,2|0
80,256,105321,1,8
80,256,105426,1,0
80,256,105532,1,0
256,192,105743,12,4,109124
200,304,123067,5,4
312,304,123278,1,0
256,216,123490,2,0,B|256:-8,1,210,2|0
328,64,124124,1,4
328,168,124335,2,0,B|328:384,1,210,2|0
400,312,124969,1,4
400,312,125074,1,0
400,312,125180,1,0
400,208,125391,1,2
400,208,125497,1,0
400,208,125602,1,0
400,104,125814,2,0,B|344:-8|184:48,1,210,2|0
272,128,126447,6,0,B|184:168|144:80,1,105,4|0
152,16,126870,2,0,B|16:48|32:208,1,210,2|0
136,144,127504,1,4
40,192,127715,2,0,B|40:320|208:312,1,210,2|0
248,232,128349,2,0,B|200:192,2,52.5,4|0|2
296,328,128771,2,0,B|336:368,2,52.5
376,256,129194,2,0,B|400:192|448:168,2,105,4|2|0
440,344,129828,5,4
472,248,130039,1,0
440,152,130250,2,0,B|416:80|344:80,1,105,2|0
344,184,130673,1,4
280,264,130884,1,0
184,312,131095,6,0,B|112:328|64:272,1,105,2|0
120,192,131518,2,0,B|56:160|56:96,1,105,2|0
152,80,131940,1,2
240,128,132152,1,4
232,160,132257,1,0
256,192,132363,1,0
296,192,132469,1,0
320,160,132574,1,2
320,56,132785,1,4
320,56,132997,1,0
408,112,133208,5,4
440,208,133419,1,0
368,280,133631,2,0,B|304:320|256:256,1,105,2|0
176,320,134053,5,4
72,296,134264,1,0
32,200,134476,2,0,B|32:128|120:136,1,105,2|0
168,216,134898,5,4
256,160,135109,1,0
256,264,135321,1,4
256,160,135532,1,0
344,216,135743,5,2
256,160,135955,1,0
256,56,136166,2,0,B|256:304,1,210,2|2
168,320,136800,5,0
168,280,136905,1,0
168,240,137011,1,2
96,312,137222,2,0,B|96:168,1,105,0|2
240,240,137645,2,0,B|240:112,1,105,4|0
168,56,138067,1,2
168,160,138278,1,0
72,208,138490,2,0,B|32:336|192:344,1,210,2|0
208,344,139018,5,4
232,344,139124,1,0
336,344,139335,1,4
440,344,139546,2,0,B|440:112,1,210,0|2
360,208,140180,5,0
360,168,140285,1,0
360,128,140391,1,2
408,32,140602,2,0,B|288:32,1,105,0|2
256,128,141025,2,0,B|128:128,1,105,4|0
88,208,141447,1,2
40,304,141659,1,0
144,328,141870,2,0,B|288:352|328:240,1,210,2|0
296,240,142398,5,4
272,224,142504,1,0
168,208,142715,1,4
192,192,142821,1,0
216,176,142926,2,0,B|232:104|376:152|384:40,1,210,4|2
448,144,143560,5,0
408,240,143771,1,4
216,320,144194,1,2
120,288,144405,1,0
104,184,144616,1,4
288,320,145039,1,2
376,264,145250,1,0
288,208,145462,1,2
376,152,145673,1,0
288,88,145884,5,2
376,40,146095,1,4
288,0,146307,2,0,B|288:232,1,210,4|0
288,312,146940,5,4
288,312,147046,1,0
288,312,147152,1,2
192,264,147363,1,0
96,312,147574,1,0
96,208,147785,1,4
96,208,147891,1,0
96,208,147997,1,2
185,155,148208,2,0,B|185:43,3,105,0|0|0|4
192,55,149053,5,4
192,55,149264,1,4
192,55,149476,2,0,B|320:16|384:136,1,210,2|0
424,208,150109,2,0,B|432:280|352:288,1,105,8|0
272,320,150532,1,0
304,232,150743,1,4
264,200,150849,1,0
272,152,150955,1,0
168,136,151166,6,0,B|192:256|48:288,1,210,2|0
152,328,151800,2,0,B|264:256|392:328,1,210,8|4
448,272,152433,1,4
360,208,152645,1,4
448,144,152856,6,0,B|448:16|272:48,1,210,2|0
320,144,153490,2,0,B|248:168|208:96,1,105,8|0
128,80,153912,1,0
64,168,154124,1,4
48,216,154229,1,0
80,256,154335,1,0
176,288,154546,6,0,B|256:376|376:336,1,210,2|0
288,272,155180,2,0,B|424:224|504:304,1,210,8|4
448,192,155814,1,4
400,96,156025,1,4
312,136,156236,6,0,B|256:160|208:120,1,105,2|0
168,32,156659,2,0,B|125:-3|69:20,1,105,0|8
112,120,157081,2,0,B|160:176|96:224,1,105,2|0
216,224,157504,2,0,B|184:288|248:320,1,105,0|8
336,280,157926,2,0,B|376:240|448:264,1,105,2|0
360,184,158349,2,0,B|312:144|352:80,1,105,0|8
256,136,158771,1,4
256,240,158983,6,0,B|256:352,1,105,0|2
168,288,159405,1,0
168,288,159511,1,0
168,288,159616,1,0
256,192,159828,12,0,162363
320,192,162574,5,0
320,192,162785,1,0
320,192,162997,2,0,B|296:280|248:280|208:272|176:248|160:224|152:176|168:144|200:112|256:80|312:80|352:96|392:128|408:152|432:192|424:240|416:296|400:392|336:392|256:384|144:368|72:368|104:272|96:232|96:184|128:144|136:112|136:88|184:80|216:48|264:48|328:48|328:48|312:40,1,1155
