osu file format v7

[General]
AudioFilename: Ide na plaaaaze.mp3
AudioLeadIn: 1500
PreviewTime: 81131
Countdown: 0
SampleSet: Normal
StackLeniency: 0.7
Mode: 0
LetterboxInBreaks: 1

[Editor]
DistanceSpacing: 0.800000011920929
BeatDivisor: 4
GridSize: 8

[Metadata]
Title:Ide Na Plaze
Artist:Video
Creator:Mr Gaddy
Version:Normal
Source:
Tags:Polish Piach fartownik

[Difficulty]
HPDrainRate:3
CircleSize:4
OverallDifficulty:4
SliderMultiplier:1.4
SliderTickRate:1

[Events]
//Background and Video events
0,0,"img_3062.jpg"
//Break Periods
2,14670,16108
2,18050,19489
2,109318,110756
2,112698,114137
2,116079,117517
2,119459,121742
//Storyboard Layer 0 (Background)
//Storyboard Layer 1 (Fail)
//Storyboard Layer 2 (Pass)
//Storyboard Layer 3 (Foreground)
//Storyboard Sound Samples
//Background Colour Transformations
3,100,163,162,255

[TimingPoints]
950,422.535211267606,4,1,2,30,1,0
6662,-100,4,1,1,30,0,0
7507,-100,4,1,2,30,0,0
10676,-100,4,2,2,10,0,0
11302,-100,4,2,2,30,0,0
11724,-100,4,2,2,50,0,0
12147,-100,4,2,2,60,0,0
12569,-100,4,2,2,70,0,0
12992,-100,4,2,2,85,0,0
13631,-100,4,1,0,90,0,0
55253,-100,4,1,0,85,0,0
70039,-100,4,1,1,85,0,0
71518,-100,4,1,0,85,0,0
73419,-100,4,1,1,85,0,0
74898,-100,4,1,0,85,0,0
81134,-100,4,1,1,100,0,0
81865,-100,4,1,0,100,0,1
95386,-100,4,1,0,100,0,1
109124,-100,4,1,1,70,0,0
122140,-100,4,1,0,70,0,0
136380,-100,4,1,0,85,0,0
148739,-100,4,1,0,100,0,0
149471,-100,4,1,0,100,0,1
159830,-100,4,1,0,100,0,0
162788,-200,4,2,2,0,0,0

[Colours]
Combo1 : 1,153,243
Combo2 : 252,215,3

[HitObjects]
40,224,950,2,0,L|168:224|168:168|264:168,1,280
376,168,2217,5,0
376,224,2428,2,0,L|216:224|216:24,1,350
272,34,3696,1,0
384,40,4119,6,0,L|384:192|176:192,1,350
72,192,5597,2,0,L|72:120,1,70
72,288,6442,1,0
184,288,6865,6,0,L|184:144,1,140
184,88,7499,2,0,L|256:88|256:192|320:192|320:48,1,350
432,88,8978,6,0,L|432:192,1,70
432,328,9823,1,0
320,328,10245,5,2
320,328,10457,1,0
320,160,11090,6,0,L|320:16|184:16|184:160|48:160|48:312|176:312,1,840
232,312,13837,1,0
288,312,14048,2,2,L|288:160,1,140,10|6
256,64,17428,6,2,L|160:192,1,140,2|6
256,320,20809,6,2,L|352:192,1,140
256,192,23133,12,4,27992
96,176,28414,6,0,L|96:104,2,70
208,176,29259,2,0,L|280:176,2,70
96,176,30104,6,0,L|96:248,1,70
96,304,30527,1,0
152,304,30738,2,0,L|152:232,1,70
152,176,31161,1,2
320,184,31795,6,0,L|320:112|248:112,1,140
152,176,32640,1,0
152,176,32851,1,0
152,176,33062,1,0
280,184,33485,6,0,L|280:112|352:112,2,140
280,248,34541,1,2
112,248,35175,6,0,L|112:192|144:192|144:136,1,140
240,192,36020,2,0,L|320:192,1,70
368,192,36442,2,0,L|368:48|296:48,1,210,2|0
248,48,37288,1,2
248,104,37499,2,0,L|248:264,1,140,0|0
88,192,38555,6,0,L|88:272,5,70,0|0|2|0|0|0
144,264,39823,2,0,L|216:264|216:192|288:192,1,210,2|0
336,192,40668,2,0,L|336:264,1,70,2|0
424,192,41302,1,2
424,80,41724,6,0,L|352:80,2,70,0|0|0
480,80,42358,2,0,L|480:152|408:152|408:224,1,210
408,272,43203,1,2
352,272,43414,2,0,L|312:216|264:272,2,140,2|2|0
80,192,45316,6,0,L|296:192,1,210,0|0
344,192,46161,1,0
400,192,46372,1,0
456,192,46583,2,0,L|456:120,1,70,2|2
344,120,47217,2,0,L|176:120,1,140,2|0
40,336,48696,6,0,L|112:336|112:264,1,140
112,160,49541,2,0,L|112:88|184:88,1,140
296,88,50386,6,0,L|368:88,2,70,0|0|2
240,88,51020,1,2
128,88,51442,1,0
128,256,52076,6,0,L|200:256,2,70
200,176,52921,2,0,L|128:176,2,70,0|0|2
280,256,53766,6,0,L|280:184,1,70,2|0
280,128,54189,2,0,L|360:128,1,70,2|2
350,240,54823,1,0
224,128,55457,5,8
224,128,55668,1,0
224,128,55879,1,8
128,192,56302,5,8
128,192,56513,1,8
128,192,56724,1,0
120,80,57147,5,8
120,80,57358,1,0
120,80,57569,1,8
120,80,57780,1,8
120,192,58203,2,0,L|200:192,1,70,2|0
256,80,58837,5,8
256,80,59048,2,0,L|344:80,1,70,0|8
256,168,59682,5,8
256,168,59893,2,0,L|176:168,1,70,8|0
224,272,60527,6,0,L|296:272,1,70,8|0
296,328,60950,2,8,L|216:328,1,70
256,216,61583,1,2
88,344,62217,6,0,L|88:248,2,70,8|8|0
200,344,63062,6,0,L|200:264,1,70,8|0
200,216,63485,1,2
200,104,63907,6,0,L|304:104,1,70,2|0
328,104,64330,1,2
328,48,64541,1,2
215,48,64964,1,8
152,192,65597,6,0,L|152:120,1,70,8|0
208,122,66020,1,8
296,192,66442,6,8,L|296:120,1,70
343,131,66865,1,0
256,80,67288,6,0,L|168:80,1,70,8|0
186,80,67710,2,8,L|112:80,1,70
112,192,68344,1,12
280,192,68978,6,2,L|280:48|408:48|408:192|328:192,1,490,2|2
224,192,70879,1,2
112,192,71302,1,2
352,48,72358,6,2,L|352:192|224:192|224:48|304:48,1,490
408,48,74259,2,2,L|408:200,1,140,2|2
128,192,75738,5,8
128,192,75950,1,0
128,192,76161,1,8
240,192,76583,1,8
240,192,76795,1,8
240,192,77006,1,0
128,192,77428,6,0,L|280:192,1,140,8|0
328,192,78062,1,8
328,304,78485,1,0
160,304,79119,6,0,L|160:232,2,70,8|0|8
160,192,79964,5,8
160,192,80175,1,8
160,192,80386,1,0
160,80,80809,2,0,L|248:80,1,70,8|0
288,80,81231,5,2
288,80,81442,1,2
288,80,81654,1,2
344,80,81865,2,2,L|344:296,1,210
144,192,83344,6,2,L|224:192,1,70
384,192,84189,1,2
384,80,84611,5,0
272,80,85034,1,2
272,80,85245,2,2,L|112:80|112:136,1,210,2|0
40,344,86724,5,2
40,344,86935,1,2
208,344,87569,1,0
208,232,87992,5,0
208,120,88414,1,0
208,120,88626,2,2,L|352:120|352:192,1,210
136,120,90104,6,0,L|136:192,1,70,0|2
304,192,90950,1,2
181,191,91372,5,2
181,191,91583,1,2
184,192,92217,6,0,B|248:232|336:184,5,140
256,96,94752,6,0,B|256:168,2,70,2|0|2
256,96,95386,2,2,L|112:96|112:168,1,210
336,192,96865,6,0,L|336:264,1,70,0|2
336,96,97710,1,2
223,96,98133,6,0,B|223:192,2,70,0|2|0
223,40,98766,2,2,L|127:40|127:160,1,210
128,352,100245,6,0,L|200:352,1,70,0|2
368,352,101090,1,2
256,352,101513,5,0
256,352,101724,1,2
256,352,101935,1,0
256,352,102147,2,2,L|152:352|152:240,1,210
112,32,103626,5,0
168,32,103837,2,2,L|344:32|384:32,1,210
288,96,104893,5,2
288,96,105104,1,2
184,232,105738,6,0,L|328:232,5,140
256,144,108273,5,4
256,144,108485,1,4
256,80,108696,2,2,L|256:232,1,140,2|6
160,80,112076,6,2,L|160:232,1,140,2|6
344,88,115457,6,2,L|344:240,1,140,2|6
256,40,118837,6,2,L|256:208,1,140,2|6
40,40,123062,6,0,L|112:40,2,70,8|0|8
40,152,123907,2,0,L|40:240,2,70,8|8|0
152,152,124752,2,0,L|224:152,3,70,8|0|8|8
336,152,125809,1,6
336,320,126442,6,8,L|192:320,1,140
208,208,127288,2,0,L|208:136,2,70,8|0|8
208,96,128133,2,8,L|352:96|352:168,1,210
352,272,129189,1,6
184,272,129823,6,8,L|112:272|112:200,1,140
112,88,130668,2,8,L|168:32,1,70
216,40,131090,1,2
328,40,131513,2,0,L|328:112|256:112|256:184,1,210,2|0
368,176,132569,1,14
199,176,133203,6,8,L|127:176|127:144|175:144,1,140
275,144,134048,2,8,L|347:144|347:112|291:112,1,140
198,112,134893,2,8,L|126:112|126:72|238:72,1,210,8|0
336,72,135949,1,14
320,272,136583,6,0,L|168:272,2,140
320,160,137851,2,0,L|320:88,1,70,2|2
320,202,138485,2,0,L|160:201,1,140,2|2
464,192,139964,6,0,L|464:120|392:120|392:48|320:48|320:112,1,350
320,168,141231,1,2
320,168,141442,1,2
320,280,141865,2,0,L|176:280,1,140,2|2
40,40,143344,6,0,L|40:192,1,140,8|0
152,184,144189,2,8,L|296:184,1,140
408,184,145034,2,0,L|336:184|336:144|224:144,1,210,8|8
128,144,146090,1,8
128,312,146724,6,0,L|208:312,2,70,8|0|8
128,200,147569,2,0,L|56:200,2,70,8|8|0
128,88,148414,2,0,L|208:88,1,70,8|0
256,88,148837,5,2
256,88,149048,1,2
256,88,149259,1,2
256,88,149471,2,2,L|256:232|328:232,1,210
104,192,150950,5,0
104,192,151161,1,2
104,192,151795,1,2
215,192,152217,6,2,L|456:192,2,210
48,40,154330,6,0,L|128:40,1,70,0|2
288,40,155175,1,2
400,40,155597,6,2,L|496:40,1,70
472,152,156231,2,2,L|472:344|400:344,1,210,2|2
232,344,157710,5,0
232,344,157921,1,2
232,344,158555,1,2
120,344,158978,2,2,L|40:344,1,70
256,192,159823,12,0,165316
