osu file format v8

[General]
AudioFilename: Ide na plaaaaze.mp3
AudioLeadIn: 1500
PreviewTime: 81131
Countdown: 0
SampleSet: Normal
StackLeniency: 0.7
Mode: 0
LetterboxInBreaks: 1

[Editor]
DistanceSpacing: 0.8
BeatDivisor: 4
GridSize: 8

[Metadata]
Title:Ide Na Plaze
Artist:Video
Creator:Mr Gaddy
Version:Easy
Source:
Tags:Polish Piach fartownik

[Difficulty]
HPDrainRate:2
CircleSize:3
OverallDifficulty:2
ApproachRate:2
SliderMultiplier:0.8
SliderTickRate:1

[Events]
//Background and Video events
0,0,"img_3062.jpg"
//Break Periods
2,14671,15868
2,18050,19249
2,21431,22629
2,24811,26854
2,109318,121502
//Storyboard Layer 0 (Background)
//Storyboard Layer 1 (Fail)
//Storyboard Layer 2 (Pass)
//Storyboard Layer 3 (Foreground)
//Storyboard Sound Samples
//Background Colour Transformations
3,100,163,162,255

[TimingPoints]
950,422.535211267606,4,1,2,20,1,0
14476,-100,4,1,0,85,0,0
55253,-100,4,1,0,85,0,0
70039,-100,4,1,1,85,0,0
71518,-100,4,1,0,85,0,0
73419,-100,4,1,1,85,0,0
74898,-100,4,1,0,85,0,0
81134,-100,4,1,1,100,0,0
81865,-100,4,1,0,100,0,1
95597,-100,4,1,0,100,0,1
108485,-100,4,1,1,100,0,1
109124,-100,4,1,0,70,0,0
137645,-100,4,1,1,70,0,0
138067,-100,4,1,0,70,0,0
141025,-100,4,1,1,70,0,0
141447,-100,4,1,0,70,0,0
149471,-100,4,1,0,100,0,1
159823,-100,4,1,0,100,0,0
162147,-100,4,2,0,0,0,0

[Colours]
Combo1 : 1,153,243
Combo2 : 252,215,3

[HitObjects]
256,192,11090,12,6,14471
152,184,17428,6,2,L|192:168|232:192,1,80,2|6
360,200,20809,6,2,L|320:216|280:192,1,80,2|6
264,88,24189,6,2,L|280:128|256:168,1,80,2|6
144,136,28414,5,8
208,136,28837,1,0
272,136,29259,2,0,L|360:136,1,80,8|0
416,136,30104,1,0
416,200,30527,2,0,L|416:320,1,120,8|4
320,320,31795,6,0,L|240:320,1,80,8|0
240,256,32640,1,8
240,192,33062,1,0
240,128,33485,1,0
304,128,33907,2,0,L|304:264,1,120,8|4
232,184,35175,5,8
186,138,35597,1,0
140,92,36020,2,0,L|140:40|360:40,1,280,8|2
416,40,37921,1,4
416,136,38555,5,8
416,200,38978,1,0
416,264,39400,1,8
416,328,39823,2,0,C|376:296|304:336|256:288,1,200,8|4
214,246,41302,1,4
309,246,41935,6,0,B|373:182|453:278|509:206|485:102,1,280,8|2
421,103,43837,2,2,B|317:103,1,80
235,246,45316,6,0,B|171:182|91:278|35:206|59:102,1,280,0|2
122,103,47217,2,2,B|226:103,1,80
344,184,48696,6,0,B|344:80,1,80,8|0
280,104,49541,2,8,B|280:200,1,80
216,184,50386,1,0
152,184,50809,2,8,B|152:96,2,80,8|0|8
152,248,52076,5,8
152,248,52499,1,0
216,248,52921,2,8,B|304:248,1,80
296,184,53766,1,0
296,120,54189,2,0,B|296:40|208:48,1,120,8|4
152,112,55457,5,8
152,112,55879,1,0
216,112,56302,1,8
216,112,56724,1,0
216,176,57147,2,0,B|160:224|168:280|296:320,1,200,8|2
376,312,58837,5,8
376,312,59259,1,0
376,248,59682,1,8
312,248,60104,1,0
312,184,60527,2,0,B|416:184|432:96|288:96,1,200,8|2
216,96,62217,6,0,B|216:192,1,80,8|0
216,240,63062,1,8
216,304,63485,2,2,B|120:304,4,80,2|2|2|2|4
280,304,65597,5,8
344,304,66020,1,0
344,240,66442,2,0,B|344:136,1,80,8|8
344,96,67288,2,2,B|248:96,3,80,0|0|0|4
218,141,68978,5,2
172,186,69400,1,2
217,231,69823,1,2
262,276,70245,2,2,B|406:276,1,120
446,276,71302,1,2
381,129,72358,5,2
426,174,72780,1,2
380,219,73203,1,2
334,264,73626,2,2,B|208:264,1,120
149,264,74682,1,2
312,264,75738,5,8
376,264,76161,1,0
376,200,76583,2,8,B|376:112,1,80,8|0
376,56,77428,1,8
312,56,77851,2,0,B|312:120,3,40,8|0|8|4
216,96,79119,5,8
216,96,79541,1,8
216,160,79964,2,0,B|216:256,1,80,8|0
216,304,80809,1,8
280,304,81231,1,2
376,304,81865,6,2,B|416:224|368:152,1,120
312,48,83555,6,2,B|152:48,1,120
127,48,84611,1,0
127,144,85245,6,2,B|191:104|247:144,1,120
400,139,86935,6,2,B|440:203|400:259,1,120
359,297,87992,1,0
262,297,88626,6,2,L|222:281|190:297|150:281,1,120
38,168,90316,6,2,L|38:29,1,120
102,48,91372,1,2
256,192,92217,12,4,95386
352,40,97076,6,2,L|472:40,1,120
472,104,98133,1,0
472,200,98766,6,2,L|472:336,1,120
312,328,100457,6,2,L|168:328,1,120
127,328,101513,1,0
128,232,102147,6,2,C|152:192|120:160|152:128,1,120
264,48,103837,6,2,C|304:56|320:104|352:128,1,120
408,120,104893,2,2,B|464:120,1,40
412,30,105738,6,0,B|412:358|84:358|100:14,1,640,0|4
128,152,123062,5,8
192,152,123485,1,0
192,216,123907,2,0,L|288:216,1,80,8|0
336,216,124752,1,8
400,216,125175,2,0,B|272:128,1,120,8|2
368,80,126442,5,8
304,80,126865,1,0
240,80,127288,2,0,B|240:128,2,40,8|8|0
176,80,128133,1,8
112,80,128555,2,0,B|80:152|112:208,1,120,0|2
40,264,129823,5,8
40,264,130245,1,8
40,328,130668,2,0,B|128:328,1,80,8|2
184,328,131513,1,2
248,328,131935,2,0,B|248:256,3,40,2|2|0|6
248,192,133203,6,0,B|360:192,1,80,8|0
328,128,134048,2,0,B|232:128,1,80,8|8
184,128,134893,2,0,B|184:184,5,40,8|0|8|8|2|4
184,71,136583,6,2,B|344:71|400:199|384:255,1,280
322,226,138485,1,2
322,226,138907,1,2
328,72,139964,6,2,B|168:72|112:200|128:256,1,280
189,227,141865,1,2
189,227,142288,1,2
256,80,143344,5,8
256,80,143766,1,0
256,144,144189,1,8
256,144,144611,1,0
256,208,145034,1,8
256,272,145457,2,0,B|256:360,2,80,8|0|4
256,208,146724,6,8,B|256:112,1,80
256,64,147569,1,8
256,64,147992,1,0
320,64,148414,2,0,B|376:64,2,40,8|8|2
320,160,149471,6,2,C|320:288,1,120
192,280,150950,6,2,C|120:280,1,40
56,280,151795,1,2
56,216,152217,6,2,C|56:96,1,120
136,40,153485,1,2
296,40,154541,6,2,B|336:96|280:184,1,120
256,208,155597,5,2
352,208,156231,2,2,L|392:232|432:208|472:232,1,120
448,64,157921,6,2,L|416:88|384:64|352:88,1,120
287,88,158978,1,2
160,88,159823,6,0,L|80:88|80:168|160:168|160:248|248:248,1,400
256,192,162358,12,0,165316
