osu file format v14

[General]
AudioFilename: Vicetone feat Collin McLoughlin - Heartbeat (OUT NOW!).mp3
AudioLeadIn: 0
PreviewTime: 225754
Countdown: 0
SampleSet: Soft
StackLeniency: 0.7
Mode: 0
LetterboxInBreaks: 0
WidescreenStoryboard: 0

[Editor]
Bookmarks: 3370
DistanceSpacing: 1.4
BeatDivisor: 4
GridSize: 4
TimelineZoom: 1.1

[Metadata]
Title:Heartbeat
TitleUnicode:Heartbeat
Artist:Vicetone feat. Collin McLoughlin
ArtistUnicode:Vicetone feat. Collin McLoughlin
Creator:Come[Back]Home
Version:Hard
Source:
Tags:edm electro house Euny cbh Ruben Den Boer Victor Pool
BeatmapID:663655
BeatmapSetID:295388

[Difficulty]
HPDrainRate:5.5
CircleSize:4
OverallDifficulty:6
ApproachRate:7
SliderMultiplier:1.6
SliderTickRate:2

[Events]
//Background and Video events
0,0,"18 (1).jpg",0,0
//Break Periods
2,123532,137432
2,183532,193682
//Storyboard Layer 0 (Background)
//Storyboard Layer 1 (Fail)
//Storyboard Layer 2 (Pass)
//Storyboard Layer 3 (Foreground)
//Storyboard Sound Samples

[TimingPoints]
3333,468.74996089167,4,2,0,70,1,0
4973,-125,4,2,0,70,0,0
63332,-111.111111111111,4,2,0,70,0,0
93332,-100,4,2,0,70,0,1
123332,-125,4,2,0,70,0,0
183332,-142.857142857143,4,2,0,70,0,0
217082,-125,4,2,0,70,0,0
220832,-111.111111111111,4,2,0,70,0,0
224582,-100,4,2,0,70,0,0
228332,-90.9090909090909,4,2,0,70,0,1
258332,-90.9090909090909,4,2,0,70,0,0

[Colours]
Combo1 : 0,128,255
Combo2 : 128,255,255
Combo3 : 128,128,192
Combo4 : 128,0,255

[HitObjects]
355,135,18332,5,2,0:0:0:0:
328,312,18801,2,0,L|260:320,1,64
196,264,19270,1,0,0:0:0:0:
132,204,19504,2,0,P|140:168|96:72,1,128
172,20,20207,5,2,0:0:0:0:
192,28,20325,1,0,0:0:0:0:
212,32,20442,2,0,P|252:32|288:16,1,64
364,20,20911,1,0,0:0:0:0:
364,108,21145,1,0,0:0:0:0:
400,188,21379,2,0,P|408:232|400:260,1,64
328,296,21848,6,0,L|240:288,1,64,0|2,0:0|0:0,0:0:0:0:
84,304,22551,1,0,0:0:0:0:
80,212,22786,1,0,0:0:0:0:
104,124,23020,1,0,0:0:0:0:
180,80,23254,2,0,P|236:92|304:52,1,128
376,16,23957,5,2,0:0:0:0:
376,16,24075,1,0,0:0:0:0:
376,16,24192,2,0,L|384:96,1,64
328,148,24661,1,0,0:0:0:0:
268,216,24895,2,0,L|284:308,1,64
220,348,25364,1,0,0:0:0:0:
132,332,25598,1,0,0:0:0:0:
68,268,25832,6,0,L|92:144,1,96,2|0,0:0|0:0,0:0:0:0:
128,152,26301,2,0,L|120:76,1,64
184,24,26770,1,0,0:0:0:0:
260,72,27004,2,0,B|300:84|300:84|400:68,1,128
444,140,27707,5,2,0:0:0:0:
444,140,27825,1,0,0:0:0:0:
444,140,27942,2,0,L|360:156,1,64
328,224,28411,1,0,0:0:0:0:
276,296,28645,2,0,L|192:288,2,64
328,224,29348,1,0,0:0:0:0:
252,172,29582,6,0,P|248:136|304:56,1,128,2|0,0:0|0:0,0:0:0:0:
384,44,30286,1,0,0:0:0:0:
440,112,30520,2,0,P|444:144|436:184,2,64
356,140,31223,1,0,0:0:0:0:
256,192,31457,12,4,33332,0:0:0:0:
144,192,34270,5,2,0:0:0:0:
200,120,34504,1,2,0:0:0:0:
144,192,34739,1,2,0:0:0:0:
200,120,34973,1,2,0:0:0:0:
144,192,35207,6,0,P|200:212|276:164,1,128,2|0,0:0|0:0,0:0:0:0:
200,120,35911,1,0,0:0:0:0:
112,112,36145,2,0,P|72:136|64:232,1,128,2|0,0:0|0:0,0:0:0:0:
144,192,36848,1,0,0:0:0:0:
232,196,37082,6,0,L|312:212,1,64
376,176,37551,2,0,L|452:164,1,64
484,88,38020,1,2,0:0:0:0:
420,28,38254,1,2,0:0:0:0:
336,56,38489,1,2,0:0:0:0:
248,32,38723,1,0,0:0:0:0:
164,64,38957,6,0,L|144:184,1,96,2|2,0:0|0:0,0:0:0:0:
168,200,39426,1,0,0:0:0:0:
236,256,39661,2,0,L|248:172,2,64,2|2|2,0:0|0:0|0:0,0:0:0:0:
304,316,40364,2,0,P|348:332|436:312,1,128,2|0,0:0|0:0,0:0:0:0:
468,240,41067,5,0,0:0:0:0:
412,168,41301,1,0,0:0:0:0:
412,80,41536,1,0,0:0:0:0:
336,32,41770,2,0,P|300:40|264:32,1,64,2|2,0:0|0:0,0:0:0:0:
184,48,42239,2,0,L|168:112,1,64,2|2,0:0|0:0,0:0:0:0:
92,152,42707,6,0,L|100:288,1,128,2|0,0:0|0:0,0:0:0:0:
176,328,43411,1,0,0:0:0:0:
248,276,43645,2,0,B|288:272|288:272|376:292,1,128,2|0,0:0|0:0,0:0:0:0:
460,272,44348,1,0,0:0:0:0:
476,184,44582,5,0,0:0:0:0:
420,116,44817,1,0,0:0:0:0:
444,32,45051,1,0,0:0:0:0:
356,48,45286,1,0,0:0:0:0:
328,132,45520,2,0,P|344:172|376:196,1,64,2|2,0:0|0:0,0:0:0:0:
336,272,45989,2,0,L|248:280,1,64,2|0,0:0|0:0,0:0:0:0:
192,240,46457,6,0,L|72:224,1,96,2|2,0:0|0:0,0:0:0:0:
68,192,46926,1,0,0:0:0:0:
44,104,47161,2,0,P|56:64|52:40,2,64,2|2|2,0:0|0:0|0:0,0:0:0:0:
128,132,47864,2,0,L|272:124,1,128,2|8,0:0|0:0,0:0:0:0:
424,180,48801,5,0,0:0:0:0:
332,332,49270,1,0,0:0:0:0:
244,352,49504,1,2,0:0:0:0:
160,324,49739,1,2,0:0:0:0:
160,324,50207,6,0,P|168:280|120:196,1,128,2|0,0:0|0:0,0:0:0:0:
80,132,50911,1,2,0:0:0:0:
144,72,51145,2,0,L|228:60,1,64,2|2,0:0|0:0,0:0:0:0:
252,140,51614,2,0,L|332:136,1,64
388,192,52082,5,0,0:0:0:0:
280,336,52551,1,0,0:0:0:0:
108,292,53020,1,0,0:0:0:0:
76,208,53254,1,2,0:0:0:0:
96,120,53489,1,2,0:0:0:0:
96,120,53957,6,0,L|220:108,1,96,2|0,0:0|0:0,0:0:0:0:
204,68,54426,2,0,L|288:76,1,64,2|0,0:0|0:0,0:0:0:0:
308,156,54895,2,0,L|392:152,1,64,2|0,0:0|0:0,0:0:0:0:
444,100,55364,2,0,L|516:116,1,64,2|0,0:0|0:0,0:0:0:0:
500,204,55832,5,0,0:0:0:0:
384,340,56301,1,0,0:0:0:0:
220,272,56770,1,0,0:0:0:0:
176,196,57004,1,2,0:0:0:0:
88,184,57239,1,2,0:0:0:0:
88,184,57707,6,0,P|108:136|200:120,1,128,2|0,0:0|0:0,0:0:0:0:
256,156,58411,2,0,P|296:164|332:160,1,64,2|2,0:0|0:0,0:0:0:0:
364,84,58879,2,0,P|392:108|396:208,1,128,2|0,0:0|0:0,0:0:0:0:
256,192,59582,12,4,61457,0:0:0:0:
100,284,63332,6,0,L|116:188,1,71.9999978027344,2|0,0:0|0:0,0:0:0:0:
212,200,63801,2,0,L|200:72,1,107.999996704102
228,48,64270,1,2,0:0:0:0:
320,8,64504,1,0,0:0:0:0:
388,84,64739,2,0,P|424:104|464:112,1,71.9999978027344,2|0,0:0|0:0,0:0:0:0:
476,208,65207,6,0,B|472:264|472:264|480:296,1,71.9999978027344,2|0,0:0|0:0,0:0:0:0:
404,348,65676,2,0,B|380:340|380:340|316:344|316:344|280:332,1,107.999996704102
280,292,66145,2,0,P|292:252|280:216,1,71.9999978027344,2|0,0:0|0:0,0:0:0:0:
188,200,66614,1,2,0:0:0:0:
192,176,66731,1,0,0:0:0:0:
196,152,66848,1,0,0:0:0:0:
200,128,66965,1,0,0:0:0:0:
204,104,67082,6,0,L|216:32,1,71.9999978027344,2|0,0:0|0:0,0:0:0:0:
316,48,67551,2,0,P|364:68|432:48,1,107.999996704102
452,20,68020,1,2,0:0:0:0:
472,120,68254,1,0,0:0:0:0:
444,216,68489,2,0,L|364:228,1,71.9999978027344,2|0,0:0|0:0,0:0:0:0:
300,296,68957,6,0,L|208:288,1,71.9999978027344,2|0,0:0|0:0,0:0:0:0:
144,232,69426,2,0,P|152:184|132:108,1,107.999996704102,0|2,0:0|0:0,0:0:0:0:
164,80,69895,2,0,L|228:20,1,71.9999978027344,2|0,0:0|0:0,0:0:0:0:
296,96,70364,1,2,0:0:0:0:
320,100,70481,1,0,0:0:0:0:
344,104,70598,1,0,0:0:0:0:
368,108,70715,1,0,0:0:0:0:
392,112,70832,6,0,L|472:128,1,71.9999978027344,2|0,0:0|0:0,0:0:0:0:
492,224,71301,2,0,L|360:236,1,107.999996704102,0|2,0:0|0:0,0:0:0:0:
368,280,71770,2,0,L|292:296,1,71.9999978027344,2|0,0:0|0:0,0:0:0:0:
196,280,72239,2,0,P|180:240|180:196,1,71.9999978027344,2|0,0:0|0:0,0:0:0:0:
240,132,72707,6,0,L|248:48,1,71.9999978027344,2|0,0:0|0:0,0:0:0:0:
344,40,73176,2,0,P|376:56|460:40,1,107.999996704102
488,76,73645,2,0,L|484:168,1,71.9999978027344,2|0,0:0|0:0,0:0:0:0:
448,240,74114,1,2,0:0:0:0:
424,248,74231,1,0,0:0:0:0:
400,256,74348,1,0,0:0:0:0:
376,264,74465,1,0,0:0:0:0:
352,272,74582,6,0,L|280:296,1,71.9999978027344,2|0,0:0|0:0,0:0:0:0:
188,264,75051,2,0,P|172:224|192:152,1,107.999996704102
220,128,75520,2,0,L|288:104,1,71.9999978027344,2|0,0:0|0:0,0:0:0:0:
364,40,75989,2,0,L|452:48,1,71.9999978027344,2|0,0:0|0:0,0:0:0:0:
488,132,76457,5,2,0:0:0:0:
460,228,76692,1,0,0:0:0:0:
388,300,76926,2,0,P|340:316|268:296,1,107.999996704102
260,264,77395,2,0,L|272:176,1,71.9999978027344,2|0,0:0|0:0,0:0:0:0:
356,136,77864,1,2,0:0:0:0:
320,100,77981,1,0,0:0:0:0:
272,88,78098,1,0,0:0:0:0:
224,100,78215,1,0,0:0:0:0:
188,136,78332,6,0,L|172:224,1,71.9999978027344,2|0,0:0|0:0,0:0:0:0:
76,212,78801,2,0,L|80:296,1,71.9999978027344,2|0,0:0|0:0,0:0:0:0:
164,340,79270,2,0,P|212:328|316:352,1,143.999995605469,2|2,0:0|0:0,0:0:0:0:
400,316,79973,1,0,0:0:0:0:
472,244,80207,6,0,P|460:200|472:168,1,71.9999978027344,2|0,0:0|0:0,0:0:0:0:
396,108,80676,2,0,B|376:112|376:112|316:100,1,71.9999978027344,2|0,0:0|0:0,0:0:0:0:
248,36,81145,2,0,L|100:68,1,143.999995605469,2|2,0:0|0:0,0:0:0:0:
92,84,81731,1,0,0:0:0:0:
80,104,81848,1,0,0:0:0:0:
68,124,81965,1,0,0:0:0:0:
56,144,82082,6,0,P|48:180|56:224,1,71.9999978027344,2|0,0:0|0:0,0:0:0:0:
148,184,82551,2,0,L|244:176,1,71.9999978027344,2|0,0:0|0:0,0:0:0:0:
276,96,83020,2,0,L|432:116,1,143.999995605469,2|2,0:0|0:0,0:0:0:0:
452,208,83723,1,0,0:0:0:0:
408,296,83957,6,0,P|364:292|336:308,1,71.9999978027344,2|0,0:0|0:0,0:0:0:0:
248,344,84426,2,0,L|152:336,1,71.9999978027344,2|0,0:0|0:0,0:0:0:0:
88,288,84895,2,0,P|104:248|48:152,1,143.999995605469,2|2,0:0|0:0,0:0:0:0:
44,148,85481,1,0,0:0:0:0:
36,124,85598,1,0,0:0:0:0:
36,100,85715,1,0,0:0:0:0:
44,76,85832,6,0,P|68:44|104:24,1,71.9999978027344,2|0,0:0|0:0,0:0:0:0:
136,120,86301,2,0,P|180:136|236:136,1,71.9999978027344,2|0,0:0|0:0,0:0:0:0:
296,92,86770,2,0,P|308:128|256:228,1,143.999995605469,2|2,0:0|0:0,0:0:0:0:
272,320,87473,1,0,0:0:0:0:
372,340,87707,6,0,L|460:328,1,71.9999978027344,2|0,0:0|0:0,0:0:0:0:
476,236,88176,2,0,P|464:200|472:152,1,71.9999978027344,2|0,0:0|0:0,0:0:0:0:
404,84,88645,2,0,B|364:92|364:92|296:80|296:80|236:88,1,143.999995605469,2|2,0:0|0:0,0:0:0:0:
244,104,89231,1,0,0:0:0:0:
228,124,89348,1,0,0:0:0:0:
212,144,89465,1,0,0:0:0:0:
196,164,89582,1,2,0:0:0:0:
256,192,89700,12,4,92864,0:0:0:0:
72,80,93332,6,0,L|164:84,1,80,10|0,0:0|0:0,0:0:0:0:
196,188,93801,2,0,L|292:176,1,80,10|0,0:0|0:0,0:0:0:0:
348,92,94270,2,0,P|380:136|360:260,1,160,10|10,0:0|0:0,0:0:0:0:
292,312,94973,1,2,0:0:0:0:
184,340,95207,6,0,L|96:328,1,80,10|0,0:0|0:0,0:0:0:0:
68,224,95676,1,10,0:0:0:0:
56,112,95911,1,0,0:0:0:0:
152,56,96145,2,0,P|192:80|308:56,1,160,10|10,0:0|0:0,0:0:0:0:
404,104,96848,1,2,0:0:0:0:
404,104,96965,1,0,0:0:0:0:
404,104,97082,6,0,P|396:144|412:188,1,80,10|0,0:0|0:0,0:0:0:0:
380,288,97551,2,0,B|356:296|356:296|292:288,1,80,10|0,0:0|0:0,0:0:0:0:
200,336,98020,2,0,P|192:258|239:195,1,160,10|10,0:0|0:0,0:0:0:0:
224,84,98723,1,2,0:0:0:0:
116,48,98957,6,0,L|20:56,2,80,10|0|10,0:0|0:0|0:0,0:0:0:0:
224,84,99661,1,0,0:0:0:0:
300,168,99895,2,0,B|348:176|348:176|456:152,1,160,10|10,0:0|0:0,0:0:0:0:
500,256,100598,1,2,0:0:0:0:
500,256,100715,1,0,0:0:0:0:
500,256,100832,6,0,L|372:292,1,120,10|2,0:0|0:0,0:0:0:0:
364,340,101301,2,0,L|256:328,1,80,10|0,0:0|0:0,0:0:0:0:
184,280,101770,2,0,P|192:232|168:192,1,80,10|0,0:0|0:0,0:0:0:0:
84,144,102239,1,10,0:0:0:0:
136,44,102473,1,2,0:0:0:0:
248,32,102707,6,0,P|292:48|368:28,1,120,10|2,0:0|0:0,0:0:0:0:
404,68,103176,2,0,L|392:168,1,80,10|0,0:0|0:0,0:0:0:0:
300,212,103645,2,0,L|312:312,1,80,10|0,0:0|0:0,0:0:0:0:
220,360,104114,1,10,0:0:0:0:
132,288,104348,1,2,0:0:0:0:
132,288,104465,1,0,0:0:0:0:
132,288,104582,6,0,B|136:260|136:260|109:160,1,120,10|2,0:0|0:0,0:0:0:0:
75,128,105051,2,0,L|90:23,1,80,10|0,0:0|0:0,0:0:0:0:
196,32,105520,2,0,P|236:48|280:48,1,80,10|0,0:0|0:0,0:0:0:0:
380,16,105989,1,10,0:0:0:0:
416,120,106223,1,2,0:0:0:0:
416,120,106340,1,0,0:0:0:0:
416,120,106457,6,0,B|412:152|412:152|431:242,1,120,10|2,0:0|0:0,0:0:0:0:
400,285,106926,2,0,P|364:301|310:297,1,80,10|0,0:0|0:0,0:0:0:0:
271,201,107395,2,0,P|227:241|219:349,2,160,10|8|10,0:0|0:0|0:0,0:0:0:0:
352,124,108567,5,0,0:0:0:0:
272,48,108801,2,0,L|184:44,1,80,10|0,0:0|0:0,0:0:0:0:
96,100,109270,2,0,B|100:156|100:156|88:216|88:216|96:284,1,160,10|10,0:0|0:0,0:0:0:0:
184,324,109973,1,2,0:0:0:0:
280,264,110207,6,0,L|380:268,1,80,10|0,0:0|0:0,0:0:0:0:
448,196,110676,1,10,0:0:0:0:
392,96,110911,1,0,0:0:0:0:
280,88,111145,2,0,P|236:104|128:48,1,160,10|10,0:0|0:0,0:0:0:0:
36,116,111848,1,2,0:0:0:0:
84,216,112082,6,0,P|100:256|96:304,1,80,10|0,0:0|0:0,0:0:0:0:
200,344,112551,2,0,L|288:340,1,80,10|0,0:0|0:0,0:0:0:0:
372,276,113020,2,0,B|360:224|360:224|392:104,1,160,10|10,0:0|0:0,0:0:0:0:
324,28,113723,1,2,0:0:0:0:
228,84,113957,6,0,L|144:88,1,80,10|0,0:0|0:0,0:0:0:0:
88,184,114426,2,0,L|200:176,1,80,10|0,0:0|0:0,0:0:0:0:
228,84,114895,2,0,L|56:92,1,160,10|10,0:0|0:0,0:0:0:0:
52,204,115598,1,2,0:0:0:0:
52,204,115832,6,0,P|72:240|56:348,1,120,10|0,0:0|0:0,0:0:0:0:
112,356,116301,2,0,L|204:344,1,80,10|0,0:0|0:0,0:0:0:0:
252,252,116770,2,0,L|424:272,1,160,10|10,0:0|0:0,0:0:0:0:
492,192,117473,1,2,0:0:0:0:
428,100,117707,6,0,B|392:104|392:104|336:96|336:96|284:104,1,120,10|0,0:0|0:0,0:0:0:0:
264,132,118176,2,0,L|172:120,1,80,10|0,0:0|0:0,0:0:0:0:
92,60,118645,2,0,P|72:100|116:208,1,160,10|10,0:0|0:0,0:0:0:0:
212,248,119348,1,2,0:0:0:0:
256,192,119582,12,8,123332,0:0:0:0:
124,304,138332,6,0,P|148:256|116:168,1,128,2|0,0:0|0:0,0:0:0:0:
180,108,139036,2,0,L|264:100,1,64,0|2,0:0|0:0,0:0:0:0:
304,168,139504,2,0,L|448:180,1,128
488,248,140207,6,0,L|476:284,2,32,2|0|0,0:0|0:0|0:0,0:0:0:0:
431,178,140676,1,0,0:0:0:0:
452,92,140911,1,0,0:0:0:0:
376,44,141145,2,0,P|320:48|288:36,1,64,2|0,0:0|0:0,0:0:0:0:
224,44,141614,2,0,L|216:124,1,64
132,132,142082,6,0,L|140:272,1,128,2|0,0:0|0:0,0:0:0:0:
204,324,142786,1,0,0:0:0:0:
288,352,143020,1,2,0:0:0:0:
272,264,143254,2,0,P|260:228|300:136,1,128
376,124,143957,6,0,L|416:132,2,32,2|0|0,0:0|0:0|0:0,0:0:0:0:
340,44,144426,1,0,0:0:0:0:
256,72,144661,1,0,0:0:0:0:
172,48,144895,2,0,P|132:44|96:52,1,64,2|0,0:0|0:0,0:0:0:0:
136,132,145364,2,0,L|140:216,1,64
208,252,145832,6,0,P|248:272|328:252,1,128,2|0,0:0|0:0,0:0:0:0:
268,184,146536,2,0,P|236:168|184:168,1,64,0|2,0:0|0:0,0:0:0:0:
128,208,147004,2,0,P|120:164|160:88,1,128
228,40,147707,6,0,L|276:48,1,32,2|0,0:0|0:0,0:0:0:0:
284,84,147942,2,0,L|364:80,1,64
424,128,148411,1,0,0:0:0:0:
388,208,148645,2,0,P|384:244|396:284,1,64,2|0,0:0|0:0,0:0:0:0:
328,336,149114,2,0,L|248:344,1,64
180,308,149582,6,0,P|188:260|140:184,1,128,2|0,0:0|0:0,0:0:0:0:
68,160,150286,1,0,0:0:0:0:
120,88,150520,2,0,L|200:64,1,64,2|0,0:0|0:0,0:0:0:0:
252,16,150989,2,0,L|324:32,1,64
376,96,151457,6,0,L|372:136,2,32,2|0|0,0:0|0:0|0:0,0:0:0:0:
460,60,151926,1,0,0:0:0:0:
472,148,152161,1,0,0:0:0:0:
428,228,152395,2,0,P|396:240|352:232,1,64,2|0,0:0|0:0,0:0:0:0:
300,176,152864,2,0,P|268:164|224:172,1,64
172,228,153332,6,0,P|156:200|176:100,1,128,2|0,0:0|0:0,0:0:0:0:
248,68,154036,2,0,L|320:72,1,64,0|2,0:0|0:0,0:0:0:0:
392,112,154504,2,0,B|384:160|384:160|416:256,1,128
372,316,155207,6,0,L|336:332,1,32,2|0,0:0|0:0,0:0:0:0:
308,300,155442,2,0,L|228:296,1,64
160,324,155911,1,0,0:0:0:0:
96,260,156145,2,0,P|112:208|72:128,1,128,2|0,0:0|0:0,0:0:0:0:
108,56,156848,1,0,0:0:0:0:
196,32,157082,6,0,B|232:44|232:44|344:32,1,128,2|0,0:0|0:0,0:0:0:0:
396,84,157786,1,0,0:0:0:0:
444,160,158020,2,0,P|436:196|440:236,1,64,2|0,0:0|0:0,0:0:0:0:
288,324,158723,1,0,0:0:0:0:
204,292,158957,6,0,L|200:256,1,32,2|0,0:0|0:0,0:0:0:0:
160,240,159192,2,0,L|184:112,1,128
268,80,159895,2,0,P|304:92|348:84,1,64,2|0,0:0|0:0,0:0:0:0:
412,132,160364,2,0,L|408:212,1,64
368,276,160832,6,0,B|324:268|324:268|244:284,1,96,2|0,0:0|0:0,0:0:0:0:
248,312,161301,2,0,L|176:308,1,64
108,260,161770,2,0,P|116:216|72:124,1,128,2|0,0:0|0:0,0:0:0:0:
120,56,162473,1,0,0:0:0:0:
204,32,162707,6,0,L|248:40,2,32,2|0|0,0:0|0:0|0:0,0:0:0:0:
180,120,163176,1,0,0:0:0:0:
252,176,163411,1,0,0:0:0:0:
308,248,163645,2,0,P|312:288|300:324,1,64,2|0,0:0|0:0,0:0:0:0:
220,280,164114,2,0,L|144:272,1,64
92,212,164582,6,0,P|104:176|60:80,1,128,2|0,0:0|0:0,0:0:0:0:
152,44,165286,1,0,0:0:0:0:
236,16,165520,1,2,0:0:0:0:
312,64,165754,2,0,B|304:100|304:100|328:204,1,128
288,272,166457,6,0,L|272:320,1,32,2|0,0:0|0:0,0:0:0:0:
244,332,166692,2,0,P|196:324|152:328,1,64
96,292,167161,1,0,0:0:0:0:
56,212,167395,2,0,L|64:136,1,64,2|0,0:0|0:0,0:0:0:0:
124,80,167864,1,0,0:0:0:0:
196,132,168098,1,0,0:0:0:0:
280,104,168332,5,2,0:0:0:0:
280,104,168801,1,2,0:0:0:0:
280,104,169270,2,0,L|288:172,2,64,2|0|2,0:0|0:0|0:0,0:0:0:0:
360,64,169973,1,0,0:0:0:0:
284,16,170207,6,0,P|244:20|192:96,1,128,2|2,0:0|0:0,0:0:0:0:
116,136,170911,2,0,L|124:204,1,64,0|2,0:0|0:0,0:0:0:0:
256,320,171614,1,2,0:0:0:0:
388,199,172082,6,0,L|396:136,2,64,2|0|2,0:0|0:0|0:0,0:0:0:0:
308,236,172786,1,0,0:0:0:0:
224,208,173020,2,0,P|168:204|148:208,1,64,2|0,0:0|0:0,0:0:0:0:
72,188,173489,2,0,L|76:96,1,64,2|0,0:0|0:0,0:0:0:0:
132,56,173957,6,0,L|240:64,2,96,2|0|0,0:0|0:0|0:0,0:0:0:0:
74,124,174895,2,0,L|72:188,1,64,2|0,0:0|0:0,0:0:0:0:
120,264,175364,2,0,P|176:256|264:292,1,128,2|2,0:0|0:0,0:0:0:0:
332,256,176067,5,0,0:0:0:0:
392,188,176301,1,2,0:0:0:0:
336,120,176536,1,0,0:0:0:0:
376,40,176770,2,0,L|448:32,2,64,2|0|2,0:0|0:0|0:0,0:0:0:0:
336,120,177473,1,0,0:0:0:0:
260,164,177707,6,0,B|224:160|224:160|156:168|156:168|120:164,1,128,2|2,0:0|0:0,0:0:0:0:
72,232,178411,1,0,0:0:0:0:
112,312,178645,2,0,L|256:324,1,128,2|2,0:0|0:0,0:0:0:0:
256,192,179582,12,8,183332,0:0:0:0:
256,192,194582,12,0,197864,0:0:0:0:
148,124,198332,6,0,L|252:136,2,83.9999974365235,8|0|0,0:0|0:0|0:0,0:0:0:0:
148,204,199270,2,0,L|256:216,2,83.9999974365235,8|0|0,0:0|0:0|0:0,0:0:0:0:
108,272,200207,6,0,P|80:248|76:180,2,83.9999974365235,8|0|0,0:0|0:0|0:0,0:0:0:0:
148,204,201145,2,0,P|139:163|109:135,2,83.9999974365235,8|0|0,0:0|0:0|0:0,0:0:0:0:
188,272,202082,6,0,L|288:260,2,83.9999974365235,8|0|0,0:0|0:0|0:0,0:0:0:0:
148,204,203020,1,8,0:0:0:0:
184,92,203372,1,0,0:0:0:0:
284,28,203723,1,0,0:0:0:0:
356,60,203957,6,0,L|376:160,2,83.9999974365235,8|0|0,0:0|0:0|0:0,0:0:0:0:
284,28,204895,1,8,0:0:0:0:
184,92,205247,1,0,0:0:0:0:
148,204,205598,1,0,0:0:0:0:
188,272,205832,6,0,L|280:288,2,83.9999974365235,8|0|0,0:0|0:0|0:0,0:0:0:0:
148,204,206770,2,0,L|56:228,2,83.9999974365235,8|0|0,0:0|0:0|0:0,0:0:0:0:
204,148,207707,6,0,P|240:152|296:136,2,83.9999974365235,8|0|0,0:0|0:0|0:0,0:0:0:0:
144,96,208645,2,0,P|108:100|52:84,2,83.9999974365235,8|0|0,0:0|0:0|0:0,0:0:0:0:
204,148,209582,5,8,0:0:0:0:
180,264,209934,1,0,0:0:0:0:
256,356,210286,1,0,0:0:0:0:
316,304,210520,2,0,P|352:296|392:296,1,55.9999982910157,8|0,0:0|0:0,0:0:0:0:
436,248,210989,2,0,L|424:176,1,55.9999982910157
372,136,211457,6,0,L|336:16,1,111.999996582031,8|0,0:0|0:0,0:0:0:0:
196,92,212395,1,8,0:0:0:0:
68,176,212864,1,0,0:0:0:0:
68,176,213332,6,0,L|64:240,1,55.9999982910157,8|0,0:0|0:0,0:0:0:0:
136,268,213801,2,0,L|140:204,1,55.9999982910157,8|0,0:0|0:0,0:0:0:0:
216,188,214270,2,0,L|212:243,1,55.9999982910157,8|0,0:0|0:0,0:0:0:0:
284,272,214739,2,0,L|288:208,1,55.9999982910157,8|0,0:0|0:0,0:0:0:0:
280,140,215207,6,0,P|312:140|340:160,1,55.9999982910157,8|0,0:0|0:0,0:0:0:0:
368,220,215676,2,0,P|392:232|420:231,1,55.9999982910157,8|0,0:0|0:0,0:0:0:0:
412,152,216145,2,0,L|408:92,1,55.9999982910157,8|0,0:0|0:0,0:0:0:0:
352,44,216614,2,0,L|292:56,1,55.9999982910157,8|0,0:0|0:0,0:0:0:0:
212,24,217082,6,0,L|136:16,1,64,8|0,0:0|0:0,0:0:0:0:
72,60,217551,1,8,0:0:0:0:
100,144,217786,1,0,0:0:0:0:
168,204,218020,2,0,L|244:212,1,64,8|0,0:0|0:0,0:0:0:0:
280,136,218489,2,0,L|372:116,1,64,8|0,0:0|0:0,0:0:0:0:
432,136,218957,5,8,0:0:0:0:
460,220,219192,1,0,0:0:0:0:
424,300,219426,1,8,0:0:0:0:
340,332,219661,1,0,0:0:0:0:
256,300,219895,2,0,P|240:256|248:220,1,64,8|0,0:0|0:0,0:0:0:0:
312,188,220364,2,0,L|320:96,1,64,8|0,0:0|0:0,0:0:0:0:
248,52,220832,6,0,L|204:64,7,35.9999989013672,8|0|8|0|8|0|8|0,0:0|0:0|0:0|0:0|0:0|0:0|0:0|0:0,0:0:0:0:
184,104,221770,2,0,L|196:148,7,35.9999989013672,8|0|8|0|8|0|8|0,0:0|0:0|0:0|0:0|0:0|0:0|0:0|0:0,0:0:0:0:
168,180,222707,6,0,L|136:204,7,35.9999989013672,8|0|8|0|8|0|8|0,0:0|0:0|0:0|0:0|0:0|0:0|0:0|0:0,0:0:0:0:
108,244,223645,2,0,L|124:288,7,35.9999989013672,8|0|8|0|8|0|8|0,0:0|0:0|0:0|0:0|0:0|0:0|0:0|0:0,0:0:0:0:
256,192,224582,12,4,226457,0:0:0:0:
80,284,228332,6,0,P|136:288|172:276,1,88.000002685547,10|0,0:0|0:0,0:0:0:0:
116,164,228801,2,0,L|108:68,1,88.000002685547,10|0,0:0|0:0,0:0:0:0:
228,40,229270,2,0,B|276:52|276:52|408:32,1,176.000005371094,10|10,0:0|0:0,0:0:0:0:
504,100,229973,1,2,0:0:0:0:
464,216,230207,6,0,P|420:212|372:232,1,88.000002685547,10|0,0:0|0:0,0:0:0:0:
328,340,230676,2,0,P|286:354|243:350,1,88.000002685547,10|0,0:0|0:0,0:0:0:0:
272,232,231145,2,0,B|276:188|276:188|240:56,1,176.000005371094,10|10,0:0|0:0,0:0:0:0:
120,40,231848,1,2,0:0:0:0:
44,140,232082,6,0,L|52:244,1,88.000002685547,10|0,0:0|0:0,0:0:0:0:
128,324,232551,1,10,0:0:0:0:
248,300,232786,1,0,0:0:0:0:
172,204,233020,2,0,P|160:152|228:52,1,176.000005371094,10|10,0:0|0:0,0:0:0:0:
344,44,233723,1,2,0:0:0:0:
436,128,233957,6,0,B|428:196|428:196|436:236,1,88.000002685547,10|0,0:0|0:0,0:0:0:0:
380,328,234426,2,0,L|344:224,1,88.000002685547,10|0,0:0|0:0,0:0:0:0:
236,200,234895,2,0,P|176:212|92:132,1,176.000005371094,10|10,0:0|0:0,0:0:0:0:
132,24,235598,1,2,0:0:0:0:
244,72,235832,6,0,B|288:88|288:88|404:68,1,132.00000402832,10|2,0:0|0:0,0:0:0:0:
428,100,236301,2,0,L|416:204,1,88.000002685547,10|0,0:0|0:0,0:0:0:0:
308,240,236770,2,0,B|248:224|248:224|200:188|200:188|140:164,1,176.000005371094,10|10,0:0|0:0,0:0:0:0:
80,268,237473,1,2,0:0:0:0:
48,148,237707,6,0,P|72:100|168:68,1,132.00000402832,10|2,0:0|0:0,0:0:0:0:
200,64,238176,2,0,L|296:96,1,88.000002685547,10|0,0:0|0:0,0:0:0:0:
400,52,238645,2,0,P|412:120|316:208,1,176.000005371094,10|10,0:0|0:0,0:0:0:0:
228,176,239348,1,2,0:0:0:0:
108,148,239582,6,0,L|96:280,1,132.00000402832,10|2,0:0|0:0,0:0:0:0:
136,328,240051,2,0,P|188:336|228:320,1,88.000002685547,10|0,0:0|0:0,0:0:0:0:
292,224,240520,2,0,P|288:176|376:88,1,176.000005371094,10|10,0:0|0:0,0:0:0:0:
492,108,241223,1,0,0:0:0:0:
256,192,241457,12,0,242864,0:0:0:0:
232,248,243332,6,0,L|220:120,1,88.000002685547,10|0,0:0|0:0,0:0:0:0:
304,64,243801,2,0,P|348:76|400:72,1,88.000002685547,10|0,0:0|0:0,0:0:0:0:
468,172,244270,2,0,B|460:228|460:228|472:284|472:284|456:360,1,176.000005371094,10|10,0:0|0:0,0:0:0:0:
336,360,244973,1,2,0:0:0:0:
240,284,245207,6,0,P|192:272|152:280,1,88.000002685547,10|0,0:0|0:0,0:0:0:0:
44,224,245676,2,0,L|52:132,1,88.000002685547,10|0,0:0|0:0,0:0:0:0:
136,44,246145,2,0,P|180:64|312:16,1,176.000005371094,10|10,0:0|0:0,0:0:0:0:
420,16,246848,1,2,0:0:0:0:
472,128,247082,6,0,B|464:220,1,88.000002685547,10|0,0:0|0:0,0:0:0:0:
364,288,247551,2,0,L|376:192,1,88.000002685547,10|0,0:0|0:0,0:0:0:0:
300,100,248020,2,0,B|256:112|256:112|124:84,1,176.000005371094,10|10,0:0|0:0,0:0:0:0:
32,160,248723,1,2,0:0:0:0:
48,280,248957,6,0,L|144:296,1,88.000002685547,10|0,0:0|0:0,0:0:0:0:
244,240,249426,1,10,0:0:0:0:
340,320,249661,1,0,0:0:0:0:
364,200,249895,2,0,P|352:152|436:52,1,176.000005371094,10|10,0:0|0:0,0:0:0:0:
304,12,250598,1,2,0:0:0:0:
208,88,250832,6,0,L|68:96,1,132.00000402832,10|2,0:0|0:0,0:0:0:0:
28,132,251301,2,0,L|48:232,1,88.000002685547,10|0,0:0|0:0,0:0:0:0:
144,292,251770,2,0,B|192:288|192:288|280:304|280:304|320:300,1,176.000005371094,10|10,0:0|0:0,0:0:0:0:
432,248,252473,1,2,0:0:0:0:
336,172,252707,6,0,B|324:128|324:128|344:40,1,132.00000402832,10|2,0:0|0:0,0:0:0:0:
288,16,253176,2,0,P|232:24|196:16,1,88.000002685547,10|0,0:0|0:0,0:0:0:0:
88,68,253645,2,0,P|100:116|48:240,1,176.000005371094,10|10,0:0|0:0,0:0:0:0:
116,340,254348,1,2,0:0:0:0:
256,192,254582,12,4,258332,0:0:0:0:
