osu file format v9

[General]
AudioFilename: Dragon Ball Z Kai Theme Song (English).mp3
AudioLeadIn: 2504
PreviewTime: 40093
Countdown: 0
SampleSet: Soft
StackLeniency: 0.7
Mode: 0
LetterboxInBreaks: 1

[Editor]
DistanceSpacing: 1.2
BeatDivisor: 4
GridSize: 16

[Metadata]
Title:Dragon Soul (TV Size)
Artist:Vic Mignogna
Creator:CDFA
Version:Insane
Source:Dragon Ball Z Kai
Tags:ztrot OzzyOzrock theMikeAG

[Difficulty]
HPDrainRate:7
CircleSize:4
OverallDifficulty:6
ApproachRate:8
SliderMultiplier:2.2
SliderTickRate:2

[Events]
//Background and Video events
0,0,"767840Goku_y_Vegeta.jpg"
Video,0,"Disneyland.avi"
//Break Periods
//Storyboard Layer 0 (Background)
//Storyboard Layer 1 (Fail)
//Storyboard Layer 2 (Pass)
//Storyboard Layer 3 (Foreground)
//Storyboard Sound Samples
//Background Colour Transformations
3,100,163,162,255

[TimingPoints]
1575,370.37037037037,4,1,1,80,1,0
55097,-100,4,1,0,57,0,0
55282,-100,4,1,0,49,0,0
55467,-100,4,1,0,41,0,0
55653,-100,4,1,0,33,0,0
55838,-100,4,1,0,25,0,0
56023,-100,4,1,0,17,0,0
56208,-100,4,1,0,9,0,0
56389,-100,4,2,0,5,0,0

[Colours]
Combo1 : 245,234,10
Combo2 : 244,80,0
Combo3 : 4,4,210

[HitObjects]
192,192,1575,2,2,B|192:288|257:338|257:338|320:288|320:192,1,330
192,96,2501,2,0,B|224:32|257:7|257:7|288:32|320:96,1,220
160,192,3242,1,0
222,255,3427,1,8
256,174,3613,1,0
291,255,3798,1,0
353,193,3983,5,0
415,130,4168,1,8
477,192,4353,1,0
416,256,4538,2,0,B|387:313|331:340|272:313|244:256,1,220,0|8
244,168,5094,2,2,B|256:96|192:32|143:20|98:31,1,220
47,91,5650,2,2,B|35:163|99:227|148:239|193:228,1,220,10|2
256,192,6205,5,0
318,129,6390,1,8
380,191,6575,1,0
317,253,6761,1,0
254,315,6946,1,0
316,377,7131,1,8
378,314,7316,1,0
317,253,7501,6,0,B|329:196|323:139|272:95|211:79,1,220,0|8
219,169,8057,2,0,B|276:181|333:175|377:124|393:63,1,220,0|0
328,8,8613,1,8
265,70,8798,2,0,B|217:107|116:22|45:64,1,220
51,148,9353,1,8
113,210,9538,1,0
175,272,9724,1,0
255,306,9909,5,0
336,274,10094,1,8
398,211,10279,1,0
460,148,10464,2,0,B|462:84|383:29|316:18|276:30,1,220,0|8
256,103,11020,2,0,B|256:340,1,220
256,323,11575,1,8
256,192,11761,12,4,12872
0,192,13427,6,0,B|19:251|79:291|138:251|158:192,1,220,4|8
237,187,13982,2,8,B|217:246|157:286|98:246|78:187,1,220,0|0
88,106,14538,1,8
256,84,14909,2,0,B|320:84|385:127|438:192|438:192|385:278|320:299|256:299,1,440
193,237,15835,1,0
130,174,16020,1,8
192,111,16205,1,0
254,173,16390,2,0,B|490:173,1,220,0|8
474,261,16946,6,0,B|483:334|437:373|368:386|327:352,1,220
255,303,17501,1,8
173,274,17687,2,0,B|146:164|256:116|365:164|338:274,1,330
255,303,18427,2,0,B|257:74,1,220,2|2
96,32,19168,5,8
32,96,19353,2,0,B|32:224|128:256|192:224,1,220,0|8
162,145,19909,2,0,B|34:145|2:241|34:305,1,220
86,337,20464,1,8
192,192,20835,2,0,B|224:192|257:339|257:339|288:192|320:192,1,330
192,80,21761,5,0
256,144,21946,1,8
320,80,22131,1,0
256,16,22316,2,0,B|256:272,1,220,0|8
192,160,22872,5,0
129,222,23057,1,0
192,288,23242,1,0
256,224,23427,1,8
320,288,23613,1,0
384,224,23798,2,2,B|427:136|384:49|296:5|209:49,1,330
147,111,24538,2,4,B|103:198|147:285|234:329|321:285,1,330,4|4
416,192,25279,5,6
320,96,25464,1,6
224,192,25650,1,6
320,288,25834,1,0
407,320,26019,2,0,B|479:321|528:272|476:208|398:208,1,220,8|0
313,208,26574,2,0,B|216:267|134:118|-15:202,1,330,0|8
120,320,27500,2,0,B|167:374|212:321,1,110,0|4
256,64,28241,5,6
208,192,28426,1,6
256,320,28612,1,6
304,192,28797,1,0
384,160,28982,2,0,B|457:128|531:185|457:256|389:221,1,220,8|0
304,240,29537,2,2,B|208:272|159:193|159:193|208:112|304:144,1,330,2|8
256,320,30463,1,4
256,320,30649,1,4
0,192,31204,5,6
112,128,31389,1,6
112,256,31574,1,6
224,192,31760,1,0
351,156,31945,1,8
432,256,32130,2,0,B|432:320|384:352|384:352|336:320|336:256,1,220
256,32,33056,2,0,B|256:256,1,220,8|0
256,340,33612,1,4
32,192,34167,5,0
32,192,34352,2,0,B|128:256|256:192,1,220,2|0
366,74,35093,1,8
480,192,35463,2,0,B|480:320|416:384|352:352,1,220,2|0
288,359,36019,1,8
200,359,36204,1,0
112,359,36389,2,0,B|73:383|9:319|9:191,1,220,0|12
256,192,36945,12,4,39167
256,352,40093,5,0
256,32,40463,1,12
32,192,40834,1,0
480,192,41204,1,12
168,225,41574,2,2,B|197:283|256:306|312:283|341:225,1,220,2|10
169,154,42130,2,2,B|197:96|254:75|312:96|341:154,1,220
256,192,42686,1,8
0,32,43056,5,0
256,368,43426,1,12
512,32,43797,1,0
256,368,44167,1,12
192,16,44537,2,0,B|192:80|256:94|256:94|320:80|320:16,1,220,0|8
256,16,45093,1,4
256,368,45463,1,4
0,192,46389,6,0,B|64:288|192:288,2,220,8|0|8
144,96,47500,2,2,B|176:48|240:32|304:48|336:96,1,220,2|10
333,181,48056,2,2,B|301:229|240:240|173:229|141:181,1,220
239,138,48612,1,8
32,224,48982,5,0
160,320,49229,1,8
192,160,49476,1,0
320,256,49723,1,0
352,96,49970,1,8
480,160,50216,1,0
480,352,50463,5,2
32,352,50834,1,12
128,192,51204,2,2,B|192:256|254:144|254:144|320:256|384:192,1,330,2|4
256,192,51945,12,4,53056
0,352,53612,5,4
512,352,54167,1,4
256,32,54723,1,4
256,192,54908,12,0,56389
