osu file format v14

[General]
AudioFilename: Virus_-Ruchki_.mp3
AudioLeadIn: 0
PreviewTime: 71551
Countdown: 0
SampleSet: Soft
StackLeniency: 0.7
Mode: 0
LetterboxInBreaks: 0
WidescreenStoryboard: 0

[Editor]
DistanceSpacing: 1
BeatDivisor: 4
GridSize: 4
TimelineZoom: 1.6

[Metadata]
Title:Ruchki
TitleUnicode:Ручки
Artist:ViRUS!
ArtistUnicode:ViRUS!
Creator:Lally
Version:Medium
Source:
Tags:Do not try to find me techno 1999 Вируc Ты меня не ищи russian
BeatmapID:653604
BeatmapSetID:290066

[Difficulty]
HPDrainRate:4
CircleSize:3
OverallDifficulty:4
ApproachRate:5
SliderMultiplier:1.5
SliderTickRate:1

[Events]
//Background and Video events
0,0,"mirage_and_reality-1600x900.jpg",0,0
//Break Periods
//Storyboard Layer 0 (Background)
//Storyboard Layer 1 (Fail)
//Storyboard Layer 2 (Pass)
//Storyboard Layer 3 (Foreground)
//Storyboard Sound Samples

[TimingPoints]
15412,435.192572713426,4,2,2,60,1,0
15520,-100,4,2,1,60,0,0
28032,-100,4,2,2,60,0,0
29338,-100,4,2,1,60,0,0
41958,-100,4,2,2,60,0,0
43264,-100,4,2,1,40,0,0
43373,-100,4,2,1,60,0,0
54144,-100,4,2,1,20,0,0
57190,-100,4,2,1,40,0,0
58931,-100,4,2,1,60,0,0
71551,-100,4,2,2,60,0,0
72857,-100,4,2,1,70,0,1
85369,-100,4,2,1,30,0,1
86783,-100,4,2,1,30,0,0

[Colours]
Combo1 : 134,197,234
Combo2 : 228,228,228
Combo3 : 113,113,255
Combo4 : 187,196,253

[HitObjects]
204,56,14106,5,2,0:0:0:0:
104,168,14541,1,2,0:0:0:0:
168,308,14976,1,2,0:0:0:0:
320,296,15412,6,0,P|368:296|428:252,2,112.5,6|0|0,0:0|0:0|0:0,0:0:0:0:
276,264,16282,2,0,L|276:172,2,75,2|0|8,0:0|0:0|0:0,0:0:0:0:
200,136,17152,2,0,P|244:100|324:108,1,112.5,2|0,0:0|0:0,0:0:0:0:
396,148,17805,1,0,0:0:0:0:
396,148,18023,2,0,L|440:296,1,150,2|8,0:0|0:0,0:0:0:0:
408,336,18675,1,2,0:0:0:0:
364,368,18893,6,0,B|316:344|288:356|256:380|188:352,1,150,2|8,0:0|0:0,0:0:0:0:
172,336,19546,1,0,0:0:0:0:
148,288,19763,2,0,P|132:200|84:160,2,150,2|8|2,0:0|0:0|0:0,0:0:0:0:
216,148,21069,2,0,P|184:96|100:56,2,150,8|2|8,0:0|0:0|0:0,0:0:0:0:
308,268,22375,6,0,P|352:248|376:172,2,112.5,2|2|0,0:0|0:0|0:0,0:0:0:0:
260,288,23245,2,0,L|300:364,2,75,2|0|8,0:0|0:0|0:0,0:0:0:0:
308,148,24115,2,0,P|360:112|432:132,1,112.5,2|2,0:0|0:0,0:0:0:0:
444,224,24768,1,0,0:0:0:0:
444,224,24986,2,0,B|420:296|420:296|344:348,1,150,2|8,0:0|0:0,0:0:0:0:
304,328,25639,1,2,0:0:0:0:
256,304,25856,6,0,P|224:272|112:288,1,150,2|8,0:0|0:0,0:0:0:0:
84,312,26509,1,0,0:0:0:0:
40,280,26727,2,0,P|24:240|24:128,2,150,2|8|2,0:0|0:0|0:0,0:0:0:0:
160,188,28032,5,2,0:0:0:0:
256,72,28467,1,2,0:0:0:0:
352,188,28902,1,2,0:0:0:0:
256,304,29338,6,0,P|192:332|128:308,2,112.5,2|2|0,0:0|0:0|0:0,0:0:0:0:
300,272,30208,2,0,L|384:268,2,75,2|0|8,0:0|0:0|0:0,0:0:0:0:
176,188,31078,2,0,P|136:128|76:104,1,112.5,2|2,0:0|0:0,0:0:0:0:
68,216,31731,1,0,0:0:0:0:
68,216,31949,2,0,P|100:272|184:300,1,150,2|8,0:0|0:0,0:0:0:0:
300,216,32819,6,0,P|336:156|408:140,1,112.5,2|2,0:0|0:0,0:0:0:0:
408,248,33472,1,0,0:0:0:0:
408,248,33690,2,0,P|368:304|280:328,1,150,2|8,0:0|0:0,0:0:0:0:
164,252,34560,1,2,0:0:0:0:
240,124,34995,2,0,B|288:96|332:120|332:120|420:120,2,150,8|2|8,0:0|0:0|0:0,0:0:0:0:
108,200,36301,6,0,P|88:248|128:320,1,112.5,2|2,0:0|0:0,0:0:0:0:
212,348,36954,1,0,0:0:0:0:
212,348,37171,2,0,P|264:324|352:352,1,150,2|8,0:0|0:0,0:0:0:0:
500,352,38042,6,0,P|496:272|472:228,2,112.5,2|2|0,0:0|0:0|0:0,0:0:0:0:
448,360,38912,2,0,P|428:316|396:296,1,75,2|0,0:0|0:0,0:0:0:0:
356,284,39347,2,0,P|328:259|315:224,1,75,8|0,0:0|0:0,0:0:0:0:
324,172,39782,6,0,L|212:228,2,112.5,2|2|0,0:0|0:0|0:0,0:0:0:0:
368,140,40653,2,0,P|356:92|320:64,1,75,2|0,0:0|0:0,0:0:0:0:
292,48,41088,2,0,L|216:72,2,75,8|2|2,0:0|0:0|0:0,0:0:0:0:
436,84,41958,2,0,B|472:144|436:192|436:192|448:240,2,150,2|2|2,0:0|0:0|0:0,0:0:0:0:
296,32,43264,5,6,0:0:0:0:
164,104,43699,2,0,B|128:152|156:220|104:256,1,150,8|2,0:0|0:0,0:0:0:0:
80,284,44352,1,0,0:0:0:0:
44,324,44569,2,0,L|196:336,1,150,8|2,0:0|0:0,0:0:0:0:
344,316,45440,2,0,P|372:276|372:220,2,75,8|0|2,0:0|0:0|0:0,0:0:0:0:
300,172,46310,2,0,P|340:140|376:136,1,75,8|2,0:0|0:0,0:0:0:0:
420,136,46745,6,0,P|408:68|336:36,1,150,2|8,0:0|0:0,0:0:0:0:
288,52,47398,1,0,0:0:0:0:
240,80,47616,2,0,P|196:96|104:40,1,150,2|0,0:0|0:0,0:0:0:0:
64,196,48486,2,0,L|104:296,1,75,2|0,0:0|0:0,0:0:0:0:
96,320,48921,2,0,P|136:292|260:324,2,150,8|2|8,0:0|0:0|0:0,0:0:0:0:
188,200,50227,6,0,P|272:220|324:280,1,150,2|8,0:0|0:0,0:0:0:0:
344,308,50880,1,0,0:0:0:0:
376,348,51097,2,0,P|412:320|404:208,1,150,2|8,0:0|0:0,0:0:0:0:
384,180,51750,1,2,0:0:0:0:
352,140,51968,6,0,L|408:56,1,75,2|0,0:0|0:0,0:0:0:0:
376,28,52403,2,0,P|324:44|196:32,1,150,8|2,0:0|0:0,0:0:0:0:
80,52,53273,2,0,P|88:104|108:128,2,75,8|2|2,0:0|0:0|0:0,0:0:0:0:
256,192,54144,12,6,57190,0:0:0:0:
192,88,58931,6,0,P|144:88|84:132,2,112.5,2|2|0,0:0|0:0|0:0,0:0:0:0:
236,120,59801,2,0,L|236:212,2,75,2|0|8,0:0|0:0|0:0,0:0:0:0:
312,248,60672,2,0,P|268:284|188:276,1,112.5,2|2,0:0|0:0,0:0:0:0:
116,236,61324,1,0,0:0:0:0:
116,236,61542,2,0,L|68:88,1,150,2|8,0:0|0:0,0:0:0:0:
112,60,62195,1,2,0:0:0:0:
156,32,62412,6,0,B|204:56|232:44|264:20|332:48,1,150,2|8,0:0|0:0,0:0:0:0:
352,56,63065,1,0,0:0:0:0:
372,104,63283,2,0,P|388:192|436:232,2,150,2|8|2,0:0|0:0|0:0,0:0:0:0:
296,236,64588,2,0,P|328:288|412:328,2,150,8|2|8,0:0|0:0|0:0,0:0:0:0:
204,116,65894,6,0,P|160:136|136:212,2,112.5,2|2|0,0:0|0:0|0:0,0:0:0:0:
252,92,66764,2,0,L|212:16,2,75,2|0|8,0:0|0:0|0:0,0:0:0:0:
204,236,67635,2,0,P|152:272|80:252,1,112.5,2|2,0:0|0:0,0:0:0:0:
68,160,68287,1,0,0:0:0:0:
68,160,68505,2,0,B|92:88|92:88|168:36,1,150,2|8,0:0|0:0,0:0:0:0:
204,64,69158,1,2,0:0:0:0:
256,80,69375,6,0,P|288:112|400:96,1,150,2|8,0:0|0:0,0:0:0:0:
428,72,70028,1,0,0:0:0:0:
472,104,70246,2,0,P|488:144|488:256,2,150,2|8|2,0:0|0:0|0:0,0:0:0:0:
404,236,71551,2,0,P|416:304|504:332,2,150,2|2|2,0:0|0:0|0:0,0:0:0:0:
316,112,72857,6,0,P|268:80|208:84,1,112.5,2|2,0:0|0:0,0:0:0:0:
124,144,73510,1,0,0:0:0:0:
124,144,73727,2,0,L|108:296,1,150,2|8,0:0|0:0,0:0:0:0:
148,332,74380,1,2,0:0:0:0:
196,304,74598,6,0,P|236:284|336:324,1,150,2|8,0:0|0:0,0:0:0:0:
380,344,75250,2,0,L|416:268,1,75,0|2,0:0|0:0,0:0:0:0:
384,128,75903,2,0,P|352:76|320:64,1,75,8|2,0:0|0:0,0:0:0:0:
288,72,76338,6,0,L|168:96,1,112.5,2|2,0:0|0:0,0:0:0:0:
76,144,76991,1,0,0:0:0:0:
76,144,77209,2,0,L|72:240,2,75,2|0|8,0:0|0:0|0:0,0:0:0:0:
100,96,77862,1,0,0:0:0:0:
136,60,78079,1,2,0:0:0:0:
172,204,78514,2,0,P|208:272|276:296,2,150,8|2|8,0:0|0:0|0:0,0:0:0:0:
200,56,79820,6,0,P|264:32|324:56,1,112.5,2|2,0:0|0:0,0:0:0:0:
384,124,80473,1,0,0:0:0:0:
384,124,80690,2,0,L|424:272,1,150,2|8,0:0|0:0,0:0:0:0:
392,312,81343,1,2,0:0:0:0:
352,348,81561,6,0,P|296:312|204:316,1,150,2|8,0:0|0:0,0:0:0:0:
168,336,82214,1,0,0:0:0:0:
120,360,82431,2,0,P|92:316|100:216,1,150,2|8,0:0|0:0,0:0:0:0:
176,96,83302,2,0,P|216:72|292:80,1,112.5,2|2,0:0|0:0,0:0:0:0:
360,156,83954,1,0,0:0:0:0:
360,156,84172,2,0,L|396:248,2,75,2|0|8,0:0|0:0|0:0,0:0:0:0:
320,120,84825,1,0,0:0:0:0:
268,112,85042,1,2,0:0:0:0:
256,192,85478,12,6,86783,0:0:0:0:
