osu file format v14

[General]
AudioFilename: Virus_-Ruchki_.mp3
AudioLeadIn: 0
PreviewTime: 71551
Countdown: 0
SampleSet: Soft
StackLeniency: 0.7
Mode: 0
LetterboxInBreaks: 0
WidescreenStoryboard: 0

[Editor]
DistanceSpacing: 1
BeatDivisor: 4
GridSize: 4
TimelineZoom: 1.6

[Metadata]
Title:Ruchki
TitleUnicode:Ручки
Artist:ViRUS!
ArtistUnicode:ViRUS!
Creator:Lally
Version:Hands UP!
Source:
Tags:Do not try to find me techno 1999 Вируc Ты меня не ищи russian
BeatmapID:653603
BeatmapSetID:290066

[Difficulty]
HPDrainRate:5
CircleSize:4
OverallDifficulty:5
ApproachRate:7.5
SliderMultiplier:1.8
SliderTickRate:1

[Events]
//Background and Video events
0,0,"mirage_and_reality-1600x900.jpg",0,0
//Break Periods
//Storyboard Layer 0 (Background)
//Storyboard Layer 1 (Fail)
//Storyboard Layer 2 (Pass)
//Storyboard Layer 3 (Foreground)
//Storyboard Sound Samples

[TimingPoints]
15412,435.192572713426,4,2,2,60,1,0
15520,-100,4,2,1,60,0,0
28032,-100,4,2,2,60,0,0
29338,-100,4,2,1,60,0,0
41958,-100,4,2,2,60,0,0
43264,-100,4,2,1,40,0,0
43373,-100,4,2,1,60,0,0
54144,-100,4,2,1,20,0,0
57190,-100,4,2,1,40,0,0
57625,-100,4,2,2,60,0,0
58931,-100,4,2,1,60,0,0
71551,-100,4,2,2,60,0,0
72857,-100,4,2,1,70,0,1
85369,-100,4,2,1,30,0,1
86783,-100,4,2,1,30,0,0

[Colours]
Combo1 : 134,197,234
Combo2 : 228,228,228
Combo3 : 113,113,255
Combo4 : 187,196,253

[HitObjects]
132,72,14106,5,2,0:0:0:0:
380,128,14541,1,2,0:0:0:0:
208,232,14976,1,2,0:0:0:0:
132,72,15412,6,0,P|88:104|80:172,1,90,6|0,0:0|0:0,0:0:0:0:
96,224,15847,2,0,L|152:308,1,90,8|0,0:0|0:0,0:0:0:0:
208,232,16282,2,0,L|264:316,1,90,2|0,0:0|0:0,0:0:0:0:
340,348,16717,2,0,P|348:288|328:248,1,90,8|2,0:0|0:0,0:0:0:0:
308,176,17152,6,0,B|304:116|344:96|344:96|356:44|288:24,1,180,2|8,0:0|0:0,0:0:0:0:
212,32,17805,1,0,0:0:0:0:
136,80,18023,1,2,0:0:0:0:
108,164,18240,1,0,0:0:0:0:
144,248,18458,2,0,P|184:284|192:320,1,90,8|2,0:0|0:0,0:0:0:0:
319,317,18893,6,0,P|333:275|412:236,1,135,2|2,0:0|0:0,0:0:0:0:
432,240,19328,2,0,P|456:176|440:128,1,90,8|0,0:0|0:0,0:0:0:0:
400,84,19763,2,0,L|296:56,1,90,2|0,0:0|0:0,0:0:0:0:
177,112,20199,2,0,L|264:136,1,90,8|2,0:0|0:0,0:0:0:0:
334,247,20634,6,0,L|192:208,1,135,2|0,0:0|0:0,0:0:0:0:
184,208,21069,2,0,P|160:248|164:304,1,90,8|0,0:0|0:0,0:0:0:0:
352,240,21504,2,0,P|376:200|372:144,1,90,2|0,0:0|0:0,0:0:0:0:
176,296,21939,2,0,P|196:340|248:356,1,90,8|2,0:0|0:0,0:0:0:0:
368,148,22375,6,0,P|352:100|264:64,1,135,2|2,0:0|0:0,0:0:0:0:
264,76,22810,2,0,P|208:88|152:64,1,90,8|0,0:0|0:0,0:0:0:0:
88,56,23245,2,0,L|72:144,1,90,2|0,0:0|0:0,0:0:0:0:
160,172,23680,2,0,L|144:260,1,90,8|2,0:0|0:0,0:0:0:0:
80,324,24115,6,0,P|120:292|212:304,1,135,2|2,0:0|0:0,0:0:0:0:
216,316,24551,2,0,L|292:248,1,90,8|0,0:0|0:0,0:0:0:0:
300,240,24877,1,0,0:0:0:0:
316,224,24986,2,0,P|348:188|344:136,1,90,2|0,0:0|0:0,0:0:0:0:
288,80,25421,2,0,P|244:56|184:68,1,90,8|2,0:0|0:0,0:0:0:0:
224,144,25856,6,0,P|180:160|140:240,1,135,2|2,0:0|0:0,0:0:0:0:
140,256,26291,2,0,P|92:228|32:236,2,90,8|0|2,0:0|0:0|0:0,0:0:0:0:
196,328,26944,1,0,0:0:0:0:
280,356,27162,2,0,P|336:344|372:240,1,135,8|2,0:0|0:0,0:0:0:0:
384,256,27597,2,0,L|300:224,1,90,2|0,0:0|0:0,0:0:0:0:
72,60,28032,5,2,0:0:0:0:
80,76,28467,1,2,0:0:0:0:
88,92,28902,1,2,0:0:0:0:
96,108,29338,6,0,P|128:152|176:152,1,90,2|0,0:0|0:0,0:0:0:0:
184,152,29664,1,2,0:0:0:0:
204,148,29773,2,0,P|246:158|268:196,1,90,8|0,0:0|0:0,0:0:0:0:
296,284,30208,2,0,P|364:276|392:240,2,90,2|0|8,0:0|0:0|0:0,0:0:0:0:
212,252,30861,1,2,0:0:0:0:
128,220,31078,6,0,P|60:228|32:264,1,90,2|0,0:0|0:0,0:0:0:0:
36,264,31405,1,2,0:0:0:0:
32,288,31514,2,0,P|52:336|104:352,1,90,8|0,0:0|0:0,0:0:0:0:
172,328,31949,1,2,0:0:0:0:
256,360,32166,1,0,0:0:0:0:
308,284,32384,2,0,P|344:244|408:256,1,90,8|2,0:0|0:0,0:0:0:0:
400,248,32710,1,0,0:0:0:0:
420,260,32819,6,0,P|444:204|392:124,1,135,2|2,0:0|0:0,0:0:0:0:
396,128,33254,2,0,L|452:48,1,90,8|0,0:0|0:0,0:0:0:0:
360,44,33690,2,0,L|304:124,1,90,2|0,0:0|0:0,0:0:0:0:
236,172,34125,2,0,P|192:196|144:176,1,90,8|0,0:0|0:0,0:0:0:0:
96,120,34560,6,0,L|132:276,1,135,2|2,0:0|0:0,0:0:0:0:
132,272,34995,2,0,P|160:312|216:320,1,90,8|0,0:0|0:0,0:0:0:0:
280,284,35430,2,0,P|340:272|380:292,1,90,2|0,0:0|0:0,0:0:0:0:
448,316,35866,2,0,P|480:272|472:232,1,90,8|2,0:0|0:0,0:0:0:0:
464,220,36192,1,0,0:0:0:0:
452,200,36301,6,0,P|424:164|436:80,1,135,2|2,0:0|0:0,0:0:0:0:
448,60,36736,2,0,L|356:36,1,90,8|0,0:0|0:0,0:0:0:0:
280,76,37171,2,0,L|188:52,1,90,2|0,0:0|0:0,0:0:0:0:
104,32,37606,2,0,P|72:88|80:128,1,90,8|0,0:0|0:0,0:0:0:0:
128,184,38042,6,0,P|156:228|132:312,1,135,2|2,0:0|0:0,0:0:0:0:
120,316,38477,2,0,L|220:360,1,90,8|0,0:0|0:0,0:0:0:0:
220,340,38803,1,0,0:0:0:0:
236,328,38912,2,0,L|336:372,1,90,2|0,0:0|0:0,0:0:0:0:
408,344,39347,2,0,P|448:308|452:264,1,90,8|0,0:0|0:0,0:0:0:0:
440,184,39782,6,0,L|316:80,1,135,2|2,0:0|0:0,0:0:0:0:
320,84,40217,2,0,P|292:120|236:128,1,90,8|0,0:0|0:0,0:0:0:0:
228,124,40544,1,0,0:0:0:0:
208,112,40653,2,0,P|172:84|120:80,1,90,2|0,0:0|0:0,0:0:0:0:
44,112,41088,1,8,0:0:0:0:
80,192,41305,1,2,0:0:0:0:
132,268,41523,2,0,B|160:304|204:288|204:288|268:304,1,135,2|2,0:0|0:0,0:0:0:0:
276,312,41958,5,2,0:0:0:0:
424,212,42393,1,2,0:0:0:0:
288,96,42829,1,2,0:0:0:0:
152,212,43264,1,6,0:0:0:0:
232,46,43699,6,0,P|280:22|336:34,1,90,8|0,0:0|0:0,0:0:0:0:
372,92,44134,2,0,L|416:176,1,90,2|0,0:0|0:0,0:0:0:0:
416,260,44569,2,0,P|360:260|324:292,1,90,8|2,0:0|0:0,0:0:0:0:
396,344,45005,6,0,L|256:208,1,180,2|8,0:0|0:0,0:0:0:0:
192,168,45657,1,0,0:0:0:0:
128,104,45875,2,0,P|152:60|208:44,2,90,2|0|8,0:0|0:0|0:0,0:0:0:0:
112,192,46528,1,2,0:0:0:0:
176,256,46745,6,0,B|212:296|212:296|216:352,1,90,2|0,0:0|0:0,0:0:0:0:
336,256,47181,2,0,B|300:296|300:296|296:352,1,90,8|0,0:0|0:0,0:0:0:0:
256,236,47616,2,0,L|256:108,2,90,2|0|8,0:0|0:0|0:0,0:0:0:0:
332,124,48486,6,0,P|328:76|296:40,1,90,2|0,0:0|0:0,0:0:0:0:
257,236,48921,2,0,P|305:264|341:256,1,90,8|0,0:0|0:0,0:0:0:0:
408,204,49357,2,0,P|440:148|396:44,2,180,2|8|2,0:0|0:0|0:0,0:0:0:0:
248,292,50662,6,0,L|160:320,1,90,8|0,0:0|0:0,0:0:0:0:
168,228,51097,2,0,L|80:256,1,90,2|0,0:0|0:0,0:0:0:0:
12,196,51532,2,0,L|97:168,1,90,8|2,0:0|0:0,0:0:0:0:
120,164,51859,1,0,0:0:0:0:
140,160,51968,6,0,B|168:112|248:148|248:148|312:104,1,180,2|8,0:0|0:0,0:0:0:0:
372,64,52620,1,0,0:0:0:0:
412,144,52838,2,0,P|432:184|420:236,1,90,2|0,0:0|0:0,0:0:0:0:
352,280,53273,2,0,P|304:284|260:320,2,90,8|2|2,0:0|0:0|0:0,0:0:0:0:
256,192,54144,12,6,57190,0:0:0:0:
168,32,57625,5,2,0:0:0:0:
324,120,58060,1,2,0:0:0:0:
168,32,58496,1,2,0:0:0:0:
204,208,58931,6,0,P|144:216|72:152,1,135,2|2,0:0|0:0,0:0:0:0:
72,156,59366,2,0,L|48:264,1,90,8|0,0:0|0:0,0:0:0:0:
48,264,59692,1,0,0:0:0:0:
44,284,59801,2,0,P|76:328|132:332,1,90,2|0,0:0|0:0,0:0:0:0:
192,304,60236,2,0,P|252:288|312:308,1,90,8|2,0:0|0:0,0:0:0:0:
360,336,60672,6,0,P|412:292|416:232,1,90,2|0,0:0|0:0,0:0:0:0:
428,252,60998,1,2,0:0:0:0:
436,232,61107,2,0,L|456:136,1,90,8|0,0:0|0:0,0:0:0:0:
388,80,61542,2,0,L|368:176,1,90,2|0,0:0|0:0,0:0:0:0:
310,31,61977,2,0,L|292:120,1,90,8|2,0:0|0:0,0:0:0:0:
216,72,62412,6,0,L|184:224,1,135,2|2,0:0|0:0,0:0:0:0:
180,224,62847,2,0,P|128:224|92:172,1,90,8|0,0:0|0:0,0:0:0:0:
260,204,63283,2,0,P|312:204|348:256,1,90,2|0,0:0|0:0,0:0:0:0:
392,300,63718,2,0,P|432:252|416:200,1,90,8|2,0:0|0:0,0:0:0:0:
416,72,64153,6,0,L|428:206,1,135,2|2,0:0|0:0,0:0:0:0:
448,204,64588,2,0,L|440:112,1,90,8|0,0:0|0:0,0:0:0:0:
348,116,65023,2,0,L|356:208,1,90,2|0,0:0|0:0,0:0:0:0:
296,272,65459,2,0,P|260:300|208:296,1,90,8|2,0:0|0:0,0:0:0:0:
144,244,65894,6,0,L|80:132,1,90,2|0,0:0|0:0,0:0:0:0:
88,148,66220,1,2,0:0:0:0:
76,128,66329,2,0,P|124:92|184:104,1,90,8|0,0:0|0:0,0:0:0:0:
172,104,66655,1,0,0:0:0:0:
192,116,66764,2,0,P|236:132|280:120,1,90,2|0,0:0|0:0,0:0:0:0:
356,76,67199,2,0,P|404:96|424:128,1,90,8|2,0:0|0:0,0:0:0:0:
376,204,67635,6,0,P|328:228|288:300,1,135,2|2,0:0|0:0,0:0:0:0:
288,320,68070,2,0,L|196:360,1,90,8|0,0:0|0:0,0:0:0:0:
120,328,68505,2,0,P|92:288|88:240,1,90,2|0,0:0|0:0,0:0:0:0:
164,200,68940,2,0,P|192:160|196:112,1,90,8|2,0:0|0:0,0:0:0:0:
348,200,69375,6,0,P|320:160|316:112,1,90,2|0,0:0|0:0,0:0:0:0:
316,96,69702,1,2,0:0:0:0:
324,76,69811,2,0,P|368:44|416:44,1,90,8|0,0:0|0:0,0:0:0:0:
456,112,70246,2,0,L|456:220,1,90,2|0,0:0|0:0,0:0:0:0:
396,268,70681,2,0,L|396:376,1,90,8|2,0:0|0:0,0:0:0:0:
316,312,71116,2,0,B|316:204|316:204|292:152,1,135,2|2,0:0|0:0,0:0:0:0:
264,160,71551,6,0,P|216:128|208:80,1,90,2|0,0:0|0:0,0:0:0:0:
296,80,71987,2,0,P|340:112|352:152,1,90,2|0,0:0|0:0,0:0:0:0:
204,236,72422,2,0,P|160:204|148:164,1,90,2|0,0:0|0:0,0:0:0:0:
104,92,72857,6,0,P|64:136|72:220,1,135,2|2,0:0|0:0,0:0:0:0:
76,228,73292,2,0,P|104:272|92:316,1,90,8|0,0:0|0:0,0:0:0:0:
84,328,73619,1,0,0:0:0:0:
76,348,73727,2,0,L|168:360,1,90,2|0,0:0|0:0,0:0:0:0:
216,284,74162,2,0,L|308:296,1,90,8|2,0:0|0:0,0:0:0:0:
396,296,74598,6,0,P|432:252|428:184,1,90,2|0,0:0|0:0,0:0:0:0:
432,200,74924,1,2,0:0:0:0:
424,180,75033,2,0,P|400:132|416:84,1,90,8|0,0:0|0:0,0:0:0:0:
472,36,75468,2,0,P|424:12|376:16,1,90,2|0,0:0|0:0,0:0:0:0:
316,68,75903,2,0,P|264:84|216:60,1,90,8|2,0:0|0:0,0:0:0:0:
148,44,76338,6,0,P|96:32|24:72,1,135,2|2,0:0|0:0,0:0:0:0:
24,92,76774,2,0,P|48:136|44:180,1,90,8|0,0:0|0:0,0:0:0:0:
32,264,77209,2,0,P|80:296|124:292,1,90,2|0,0:0|0:0,0:0:0:0:
188,248,77644,2,0,P|244:232|288:256,1,90,8|2,0:0|0:0,0:0:0:0:
348,288,78079,6,0,P|392:264|400:168,1,135,2|2,0:0|0:0,0:0:0:0:
400,164,78514,2,0,L|392:68,1,90,8|0,0:0|0:0,0:0:0:0:
308,108,78950,2,0,L|315:197,1,90,2|0,0:0|0:0,0:0:0:0:
228,168,79385,2,0,L|220:72,1,90,8|2,0:0|0:0,0:0:0:0:
148,28,79820,6,0,P|96:20|40:72,1,90,2|0,0:0|0:0,0:0:0:0:
52,56,80146,1,2,0:0:0:0:
40,76,80255,2,0,P|24:136|24:188,1,90,8|0,0:0|0:0,0:0:0:0:
48,252,80690,2,0,P|96:292|136:288,1,90,2|0,0:0|0:0,0:0:0:0:
192,236,81126,2,0,P|216:180|216:128,1,90,8|2,0:0|0:0,0:0:0:0:
320,236,81561,6,0,P|296:180|296:128,1,90,2|0,0:0|0:0,0:0:0:0:
300,128,81887,1,2,0:0:0:0:
308,108,81996,2,0,P|340:68|380:60,1,90,8|0,0:0|0:0,0:0:0:0:
400,64,82322,1,0,0:0:0:0:
420,76,82431,2,0,L|456:176,1,90,2|0,0:0|0:0,0:0:0:0:
436,248,82866,2,0,L|405:163,1,90,8|2,0:0|0:0,0:0:0:0:
400,252,83302,6,0,L|353:125,1,135,2|2,0:0|0:0,0:0:0:0:
344,108,83737,2,0,P|316:72|252:64,1,90,8|0,0:0|0:0,0:0:0:0:
224,132,84172,2,0,P|252:168|316:176,1,90,2|0,0:0|0:0,0:0:0:0:
188,52,84607,2,0,P|152:84|140:132,1,90,8|2,0:0|0:0,0:0:0:0:
332,256,85042,2,0,P|368:224|380:176,1,90,2|0,0:0|0:0,0:0:0:0:
256,192,85478,12,6,86783,0:0:0:0:
