osu file format v13

[General]
AudioFilename: Vexare - Ripened Pears.mp3
AudioLeadIn: 0
PreviewTime: 61944
Countdown: 0
SampleSet: Soft
StackLeniency: 0.7
Mode: 0
LetterboxInBreaks: 1
WidescreenStoryboard: 0

[Editor]
DistanceSpacing: 1
BeatDivisor: 4
GridSize: 4
TimelineZoom: 1

[Metadata]
Title:Ripened Pears
TitleUnicode:Ripened Pears
Artist:Vexare
ArtistUnicode:Vexare
Creator:BerkZ
Version:Medium
Source:
Tags:dubstep
BeatmapID:321923
BeatmapSetID:126729

[Difficulty]
HPDrainRate:3
CircleSize:3
OverallDifficulty:4
ApproachRate:3
SliderMultiplier:1
SliderTickRate:2

[Events]
//Background and Video events
0,0,"bg.jpg",0,0
//Break Periods
2,180269,181441
//Storyboard Layer 0 (Background)
//Storyboard Layer 1 (Fail)
//Storyboard Layer 2 (Pass)
//Storyboard Layer 3 (Foreground)
//Storyboard Sound Samples

[TimingPoints]
1944,468.75,4,2,1,10,1,0
16944,-100,4,2,1,15,0,0
31944,-83.3333333333333,4,2,1,40,0,0
46944,-83.3333333333333,4,2,1,45,0,0
58194,-83.3333333333333,4,2,1,10,0,0
61944,-66.6666666666667,4,2,1,60,0,1
62178,-66.6666666666667,4,2,1,60,0,1
120069,-66.6666666666667,4,2,1,45,0,0
151944,-66.6666666666667,4,2,1,60,0,1
179131,-66.6666666666667,4,2,1,40,0,0
182819,-66.6666666666667,4,2,1,60,0,0
183819,-66.6666666666667,4,2,1,60,0,1
209131,-66.6666666666667,4,2,1,10,0,1
210069,-66.6666666666667,4,2,1,5,0,0
211944,-66.6666666666667,4,2,1,40,0,0

[Colours]
Combo1 : 0,255,255
Combo2 : 114,122,141
Combo3 : 192,192,192
Combo4 : 75,75,75
Combo5 : 0,40,85
Combo6 : 0,0,160
Combo7 : 41,104,250

[HitObjects]
92,196,1944,6,0,B|148:196|148:196|204:164|204:164|284:164,1,200
352,236,3350,1,0,0:0:0:0:
276,300,3819,2,0,P|228:324|188:292,2,100
464,316,5694,6,0,B|464:292|440:268|440:268|440:220,1,100
396,132,6631,1,0,0:0:0:0:
204,72,7569,1,0,0:0:0:0:
140,148,8037,1,0,0:0:0:0:
104,240,8506,1,0,0:0:0:0:
284,332,9444,5,0,0:0:0:0:
380,292,9912,2,0,P|420:260|436:204,1,100
268,108,11319,2,0,B|212:76|212:76|100:76|100:76|68:76,1,200
20,160,12725,1,0,0:0:0:0:
68,248,13194,6,0,P|132:328|228:336,1,200
392,228,15069,2,0,P|436:252|468:292,2,100
356,32,16944,53,0,0:0:0:0:
276,88,17412,1,0,0:0:0:0:
188,136,17881,1,0,0:0:0:0:
100,184,18350,1,0,0:0:0:0:
52,272,18819,2,0,B|84:296|140:280|140:280|252:280|252:280,1,200
428,168,20694,5,0,0:0:0:0:
380,80,21162,2,0,L|468:32,2,100
284,108,22569,2,0,B|212:76|164:84|132:108|108:116|84:92,1,200
68,196,23975,1,0,0:0:0:0:
148,260,24444,6,0,P|194:274|240:257,1,100,0|0,0:0|0:0,0:0:0:0:
192,184,25381,2,0,P|256:168|288:184,1,100,0|0,0:0|0:0,0:0:0:0:
352,236,26319,2,0,P|428:152|428:64,1,200
348,48,27725,1,0,0:0:0:0:
264,104,28194,6,0,P|240:176|128:192,1,200
32,224,29600,1,0,0:0:0:0:
68,316,30069,2,0,L|172:316,1,100
268,312,31006,1,0,0:0:0:0:
440,144,31944,6,0,L|320:144,1,119.999996337891,0|8,0:0|0:0,0:0:0:0:
388,44,32881,2,0,L|268:44,1,119.999996337891
160,100,33819,1,0,0:0:0:0:
88,196,34287,1,8,0:0:0:0:
132,308,34756,2,0,P|196:300|244:268,1,119.999996337891
360,256,35694,6,0,L|448:344,1,119.999996337891,0|8,0:0|0:0,0:0:0:0:
484,228,36631,2,0,L|396:140,1,119.999996337891
292,84,37569,1,0,0:0:0:0:
172,96,38037,2,0,P|116:132|104:204,1,119.999996337891,8|0,0:0|0:0,0:0:0:0:
212,200,38975,1,0,0:0:0:0:
172,308,39444,70,0,P|108:308|60:340,2,119.999996337891,0|8|0,0:0|0:0|0:0,0:0:0:0:
292,328,40850,2,0,L|356:224,1,119.999996337891
352,104,41787,2,0,L|240:168,1,119.999996337891,8|0,0:0|0:0,0:0:0:0:
128,160,42725,1,0,0:0:0:0:
64,60,43194,5,0,0:0:0:0:
180,36,43662,1,8,0:0:0:0:
272,116,44131,1,0,0:0:0:0:
384,76,44600,1,0,0:0:0:0:
444,180,45069,5,0,0:0:0:0:
404,292,45537,2,0,P|356:340|300:340,1,119.999996337891,8|0,0:0|0:0,0:0:0:0:
192,312,46475,1,0,0:0:0:0:
76,276,46944,70,0,B|76:204|76:204|116:164,1,119.999996337891,0|8,0:0|0:0,0:0:0:0:
228,192,47881,2,0,B|228:128|228:128|188:88,2,119.999996337891
344,220,49287,1,8,0:0:0:0:
460,248,49756,2,0,P|476:312|440:348,1,119.999996337891
324,332,50694,6,0,L|220:268,1,119.999996337891,0|8,0:0|0:0,0:0:0:0:
124,340,51631,2,0,L|84:220,1,119.999996337891
44,112,52569,2,0,P|108:84|160:76,1,119.999996337891,0|8,0:0|0:0,0:0:0:0:
276,72,53506,1,0,0:0:0:0:
392,96,53975,1,0,0:0:0:0:
440,208,54444,6,0,P|456:272|432:328,2,119.999996337891,0|8|0,0:0|0:0|0:0,0:0:0:0:
348,132,55850,1,0,0:0:0:0:
228,116,56319,2,0,L|116:164,1,119.999996337891,0|8,0:0|0:0,0:0:0:0:
216,232,57256,2,0,L|132:324,1,119.999996337891
256,192,58194,12,4,60069,0:0:0:0:
464,152,61944,5,4,0:0:0:0:
344,60,62412,1,2,0:0:0:0:
196,44,62881,2,0,P|132:52|72:128,1,150.000005722046,0|2,0:0|0:0,0:0:0:0:
72,264,63819,2,0,B|124:320|124:320|204:320,1,150.000005722046,0|2,0:0|0:0,0:0:0:0:
348,320,64756,2,0,B|422:320|422:320|474:264,2,150.000005722046,0|2|0,0:0|0:0|0:0,0:0:0:0:
228,224,66162,53,2,0:0:0:0:
272,80,66631,1,0,0:0:0:0:
420,56,67100,1,2,0:0:0:0:
460,200,67569,2,0,P|440:276|376:312,1,150.000005722046,0|2,0:0|0:0,0:0:0:0:
248,240,68506,2,0,B|172:260|172:260|124:316,2,150.000005722046,0|2|4,0:0|0:0|0:0,0:0:0:0:
312,104,69912,5,2,0:0:0:0:
168,60,70381,2,0,P|104:116|112:180,1,150.000005722046,0|2,0:0|0:0,0:0:0:0:
216,276,71319,6,0,L|160:332,2,75.0000028610231,0|0|2,0:0|0:0|0:0,0:0:0:0:
368,276,72256,2,0,L|432:332,2,75.0000028610231,0|0|2,0:0|0:0|0:0,0:0:0:0:
456,152,73194,5,0,0:0:0:0:
324,76,73662,1,2,0:0:0:0:
180,112,74131,2,0,L|108:248,2,150.000005722046,0|2|0,0:0|0:0|0:0,0:0:0:0:
324,76,75537,2,0,B|404:76|404:76|460:132,1,150.000005722046,2|0,0:0|0:0,0:0:0:0:
244,328,76944,54,0,P|276:256|228:192,1,150.000005722046,4|2,0:0|0:0,0:0:0:0:
92,180,77881,2,0,P|84:104|184:76,1,150.000005722046,0|2,0:0|0:0,0:0:0:0:
288,76,78819,1,0,0:0:0:0:
404,160,79287,1,2,0:0:0:0:
332,292,79756,1,0,0:0:0:0:
180,288,80225,1,2,0:0:0:0:
36,240,80694,6,0,P|48:152|96:96,1,150.000005722046,0|2,0:0|0:0,0:0:0:0:
228,44,81631,2,0,L|388:44,1,150.000005722046,0|2,0:0|0:0,0:0:0:0:
440,180,82569,2,0,P|456:260|440:332,1,150.000005722046,0|2,0:0|0:0,0:0:0:0:
296,296,83506,1,0,0:0:0:0:
160,232,83975,1,2,0:0:0:0:
32,152,84444,6,0,P|60:80|116:32,1,150.000005722046,4|2,0:0|0:0,0:0:0:0:
264,44,85381,2,0,P|236:116|180:164,1,150.000005722046,0|2,0:0|0:0,0:0:0:0:
72,216,86319,1,0,0:0:0:0:
156,312,86787,2,0,P|244:340|308:316,1,150.000005722046,2|0,0:0|0:0,0:0:0:0:
324,172,87725,1,2,0:0:0:0:
448,84,88194,5,0,0:0:0:0:
484,228,88662,1,2,0:0:0:0:
364,316,89131,2,0,L|220:260,1,150.000005722046,0|2,0:0|0:0,0:0:0:0:
144,136,90069,53,4,0:0:0:0:
60,316,91944,6,0,P|140:300|188:252,1,150.000005722046,4|2,0:0|0:0,0:0:0:0:
68,160,92881,1,0,0:0:0:0:
192,76,93350,1,2,0:0:0:0:
340,80,93819,2,0,P|396:96|452:184,1,150.000005722046,0|2,0:0|0:0,0:0:0:0:
420,316,94756,2,0,B|316:316|316:316|276:276,1,150.000005722046,0|2,0:0|0:0,0:0:0:0:
368,160,95694,5,0,0:0:0:0:
236,88,96162,2,0,B|188:48|188:48|92:48,1,150.000005722046,2|0,0:0|0:0,0:0:0:0:
32,184,97100,1,2,0:0:0:0:
72,328,97569,2,0,B|160:328|160:328|208:288,1,150.000005722046,0|2,0:0|0:0,0:0:0:0:
288,164,98506,2,0,B|248:92|240:92|240:92|172:64,2,150.000005722046,0|2|4,0:0|0:0|0:0,0:0:0:0:
376,284,99912,5,2,0:0:0:0:
400,176,100381,2,0,P|412:108|488:52,2,150.000005722046,0|2|0,0:0|0:0|0:0,0:0:0:0:
288,164,101787,2,0,B|216:124|216:124|140:124,2,150.000005722046,2|0|2,0:0|0:0|0:0,0:0:0:0:
228,272,103194,54,0,P|168:320|88:332,2,150.000005722046,0|2|0,0:0|0:0|0:0,0:0:0:0:
376,332,104600,1,2,0:0:0:0:
504,252,105069,1,0,0:0:0:0:
408,136,105537,2,0,B|360:48|360:48|296:48,1,150.000005722046,2|0,0:0|0:0,0:0:0:0:
268,180,106475,1,0,0:0:0:0:
120,172,106944,6,0,B|104:132|120:100|120:100|184:60,2,150.000005722046,4|2|0,0:0|0:0|0:0,0:0:0:0:
120,324,108350,2,0,B|176:344|216:300|216:300|284:328,1,150.000005722046,2|0,0:0|0:0,0:0:0:0:
396,264,109287,1,2,0:0:0:0:
328,128,109756,2,0,B|392:88|392:88|472:88,2,150.000005722046,0|2|0,0:0|0:0|0:0,0:0:0:0:
180,148,111162,6,0,P|120:136|80:56,2,150.000005722046,2|0|2,0:0|0:0|0:0,0:0:0:0:
108,280,112569,1,0,0:0:0:0:
256,304,113037,1,2,0:0:0:0:
404,280,113506,1,0,0:0:0:0:
500,160,113975,1,2,0:0:0:0:
436,24,114444,6,0,P|348:40|316:96,1,150.000005722046,4|2,0:0|0:0,0:0:0:0:
288,236,115381,1,0,0:0:0:0:
164,152,115850,2,0,L|100:304,1,150.000005722046,2|0,0:0|0:0,0:0:0:0:
252,320,116787,2,0,P|332:336|404:320,1,150.000005722046,2|0,0:0|0:0,0:0:0:0:
492,204,117725,1,2,0:0:0:0:
364,124,118194,54,0,B|300:84|300:84|252:100|220:76,1,150.000005722046,0|2,0:0|0:0,0:0:0:0:
84,128,119131,1,0,0:0:0:0:
112,260,119600,2,0,P|156:328|240:324,1,150.000005722046,2|0,0:0|0:0,0:0:0:0:
196,252,121475,6,0,P|232:248|272:268,2,75.0000028610231
348,248,122412,5,8,0:0:0:0:
344,100,122881,2,0,B|296:52|296:52|208:52,1,150.000005722046
72,100,123819,2,0,P|64:180|96:244,1,150.000005722046,0|8,0:0|0:0,0:0:0:0:
212,336,124756,1,0,0:0:0:0:
360,312,125225,2,0,P|408:248|392:168,1,150.000005722046
464,48,126162,22,0,B|356:48|356:48|304:88,1,150.000005722046,8|0,0:0|0:0,0:0:0:0:
232,188,127100,1,0,0:0:0:0:
84,176,127569,2,0,P|76:104|36:36,2,150.000005722046,0|8|0,0:0|0:0|0:0,0:0:0:0:
128,324,128975,1,0,0:0:0:0:
280,320,129444,6,0,B|312:272|312:224|312:224|368:216,1,150.000005722046,0|8,0:0|0:0,0:0:0:0:
452,336,130381,2,0,P|480:260|468:180,1,150.000005722046
396,60,131319,2,0,B|300:60|300:60|252:100,1,150.000005722046,0|8,0:0|0:0,0:0:0:0:
128,104,132256,1,0,0:0:0:0:
56,236,132725,1,0,0:0:0:0:
168,336,133194,6,0,B|224:336|248:320|288:304|328:304,1,150.000005722046,0|8,0:0|0:0,0:0:0:0:
428,208,134131,1,0,0:0:0:0:
472,64,134600,1,0,0:0:0:0:
324,60,135069,2,0,P|244:80|200:136,2,150.000005722046,0|8|0,0:0|0:0|0:0,0:0:0:0:
448,144,136475,2,0,B|436:228|436:228|396:288,1,150.000005722046
256,324,137412,5,8,0:0:0:0:
112,282,137881,2,0,B|76:228|76:228|64:144,1,150.000005722046
188,72,138819,2,0,L|344:48,1,150.000005722046,0|8,0:0|0:0,0:0:0:0:
432,164,139756,2,0,P|452:216|456:316,1,150.000005722046
308,288,140694,5,0,0:0:0:0:
180,208,141162,2,0,B|156:268|156:268|96:340,2,150.000005722046,8|0|0,0:0|0:0|0:0,0:0:0:0:
224,68,142569,1,0,0:0:0:0:
376,72,143037,2,0,P|444:96|476:168,1,150.000005722046,8|0,0:0|0:0,0:0:0:0:
328,188,143975,1,0,0:0:0:0:
448,268,144444,6,0,P|388:320|316:312,1,150.000005722046,0|8,0:0|0:0,0:0:0:0:
216,208,145381,2,0,L|136:336,1,150.000005722046
48,212,146319,2,0,L|128:84,1,150.000005722046,0|8,0:0|0:0,0:0:0:0:
276,60,147256,2,0,B|356:64|388:48|388:48|424:84,1,150.000005722046
256,192,148194,12,4,150069,0:0:0:0:
392,344,151944,6,0,B|332:320|332:320|272:256,1,150.000005722046,4|2,0:0|0:0,0:0:0:0:
420,228,152881,2,0,B|361:165|361:165|301:141,1,150.000005722046,0|2,0:0|0:0,0:0:0:0:
152,164,153819,1,0,0:0:0:0:
248,56,154287,1,2,0:0:0:0:
396,56,154756,2,0,P|468:96|492:160,1,150.000005722046,0|2,0:0|0:0,0:0:0:0:
388,264,155694,54,0,B|388:352|388:352|452:388,2,150.000005722046,0|2|0,0:0|0:0|0:0,0:0:0:0:
304,140,157100,1,2,0:0:0:0:
208,256,157569,2,0,P|156:304|76:304,1,150.000005722046,0|2,0:0|0:0,0:0:0:0:
52,156,158506,2,0,P|64:96|144:56,1,150.000005722046,0|2,0:0|0:0,0:0:0:0:
268,56,159444,5,4,0:0:0:0:
396,136,159912,1,2,0:0:0:0:
468,268,160381,2,0,B|436:296|436:296|312:296,1,150.000005722046,0|2,0:0|0:0,0:0:0:0:
180,292,161319,1,0,0:0:0:0:
76,176,161787,2,0,P|112:120|188:96,2,150.000005722046,2|0|2,0:0|0:0|0:0,0:0:0:0:
120,320,163194,6,0,L|264:368,1,150.000005722046,0|2,0:0|0:0,0:0:0:0:
352,244,164131,2,0,L|200:264,1,150.000005722046,0|2,0:0|0:0,0:0:0:0:
304,152,165069,1,0,0:0:0:0:
164,96,165537,1,2,0:0:0:0:
32,168,166006,1,0,0:0:0:0:
308,56,166944,6,0,B|252:104|252:104|216:184,1,150.000005722046,4|2,0:0|0:0,0:0:0:0:
100,264,167881,1,0,0:0:0:0:
236,324,168350,1,2,0:0:0:0:
400,316,168819,2,0,P|460:275|472:203,1,150.000005722046,0|2,0:0|0:0,0:0:0:0:
344,200,169756,2,0,P|355:127|416:88,1,150.000005722046,0|2,0:0|0:0,0:0:0:0:
472,204,170694,53,0,0:0:0:0:
416,88,171162,2,0,B|352:64|352:64|256:64,1,150.000005722046,2|0,0:0|0:0,0:0:0:0:
256,196,172100,1,2,0:0:0:0:
348,304,172569,2,0,P|404:276|452:200,2,150.000005722046,0|2|0,0:0|0:0|0:0,0:0:0:0:
208,304,173975,2,0,L|64:252,1,150.000005722046,2|4,0:0|0:0,0:0:0:0:
16,108,174912,5,2,0:0:0:0:
160,68,175381,2,0,B|224:52|224:52|300:92,1,150.000005722046,0|2,0:0|0:0,0:0:0:0:
432,160,176319,2,0,L|492:108,2,75.0000028610231,0|0|2,0:0|0:0|0:0,0:0:0:0:
384,300,177256,2,0,L|472:316,2,75.0000028610231,0|0|2,0:0|0:0|0:0,0:0:0:0:
232,304,178194,6,0,L|116:204,1,150.000005722046,0|2,0:0|0:0,0:0:0:0:
176,68,179131,1,0,0:0:0:0:
320,104,179600,1,0,0:0:0:0:
432,204,180069,1,0,0:0:0:0:
168,216,182881,6,0,B|152:296|152:296|92:348|92:348,2,150.000005722046,0|0|4,0:0|0:0|0:0,0:0:0:0:
176,64,184287,53,2,0:0:0:0:
328,84,184756,2,0,B|404:104|404:104|456:156,1,150.000005722046,0|2,0:0|0:0,0:0:0:0:
320,224,185694,2,0,B|332:280|332:280|420:336|420:336,2,150.000005722046,0|2|0,0:0|0:0|0:0,0:0:0:0:
172,204,187100,1,2,0:0:0:0:
172,72,187569,2,0,P|252:40|324:60,1,150.000005722046,0|2,0:0|0:0,0:0:0:0:
416,164,188506,2,0,B|440:208|440:208|440:236|440:236,1,75.0000028610231
364,232,188975,2,0,B|360:280|360:280|376:316|376:316,1,75.0000028610231,2|0,0:0|0:0,0:0:0:0:
304,336,189444,6,0,P|236:304|196:236,1,150.000005722046,4|2,0:0|0:0,0:0:0:0:
212,92,190381,2,0,L|368:40,2,150.000005722046,0|2|0,0:0|0:0|0:0,0:0:0:0:
112,204,191787,1,2,0:0:0:0:
224,288,192256,2,0,B|304:336|304:336|380:336,1,150.000005722046,0|2,0:0|0:0,0:0:0:0:
476,236,193194,5,0,0:0:0:0:
440,92,193662,2,0,B|360:92|360:92|300:44|300:44,1,150.000005722046,2|0,0:0|0:0,0:0:0:0:
156,56,194600,2,0,P|88:76|44:152,1,150.000005722046,2|0,0:0|0:0,0:0:0:0:
116,272,195537,1,2,0:0:0:0:
256,320,196006,1,0,0:0:0:0:
424,316,196944,6,0,P|376:292|356:204,1,150.000005722046,4|2,0:0|0:0,0:0:0:0:
452,88,197881,2,0,P|380:60|304:88,1,150.000005722046,0|2,0:0|0:0,0:0:0:0:
176,148,198819,2,0,B|108:76|108:76|56:68|56:68,2,150.000005722046,0|2|0,0:0|0:0|0:0,0:0:0:0:
160,296,200225,1,2,0:0:0:0:
308,316,200694,54,0,P|392:292|416:236,1,150.000005722046,0|2,0:0|0:0,0:0:0:0:
392,92,201631,2,0,P|312:128|308:192,1,150.000005722046,0|2,0:0|0:0,0:0:0:0:
176,104,202569,1,0,0:0:0:0:
68,212,203037,1,2,0:0:0:0:
180,308,203506,1,0,0:0:0:0:
328,328,203975,2,0,B|416:304|416:304|460:248|460:248,1,150.000005722046,2|4,0:0|0:0,0:0:0:0:
372,132,204912,5,2,0:0:0:0:
212,124,205381,2,0,P|136:104|100:44,2,150.000005722046,0|2|0,0:0|0:0|0:0,0:0:0:0:
360,156,206787,2,0,P|388:228|332:284,1,150.000005722046,2|0,0:0|0:0,0:0:0:0:
204,320,207725,2,0,L|76:224,1,150.000005722046,2|0,0:0|0:0,0:0:0:0:
120,84,208662,5,2,0:0:0:0:
268,100,209131,2,0,P|336:132|360:200,1,150.000005722046
256,192,210069,12,4,211944,0:0:0:0:
