osu file format v14

[General]
AudioFilename: Vexare - Ripened Pears.mp3
AudioLeadIn: 0
PreviewTime: 61944
Countdown: 0
SampleSet: Soft
StackLeniency: 0.7
Mode: 0
LetterboxInBreaks: 1
WidescreenStoryboard: 0

[Editor]
DistanceSpacing: 1.2
BeatDivisor: 4
GridSize: 4
TimelineZoom: 1

[Metadata]
Title:Ripened Pears
TitleUnicode:Ripened Pears
Artist:Vexare
ArtistUnicode:Vexare
Creator:BerkZ
Version:Light
Source:
Tags:dubstep
BeatmapID:332514
BeatmapSetID:126729

[Difficulty]
HPDrainRate:2
CircleSize:2.5
OverallDifficulty:2
ApproachRate:2
SliderMultiplier:0.7
SliderTickRate:2

[Events]
//Background and Video events
0,0,"bg.jpg",0,0
//Break Periods
2,58394,60384
2,180268,181321
//Storyboard Layer 0 (Background)
//Storyboard Layer 1 (Fail)
//Storyboard Layer 2 (Pass)
//Storyboard Layer 3 (Foreground)
//Storyboard Sound Samples

[TimingPoints]
1944.36458882003,468.75,4,2,1,10,1,0
16944,-100,4,2,1,15,0,0
31944,-83.3333333333333,4,2,1,40,0,0
46944,-83.3333333333333,4,2,1,45,0,0
61944,-66.6666666666667,4,2,1,60,0,1
62413,-66.6666666666667,4,2,1,60,0,1
120069,-66.6666666666667,4,2,1,50,0,0
121944,-66.6666666666667,4,2,1,45,0,0
151944,-83.3333333333333,4,2,1,60,0,1
152413,-66.6666666666667,4,2,1,60,0,1
179131,-66.6666666666667,4,2,1,40,0,0
182819,-50,4,2,1,40,0,0
183819,-66.6666666666667,4,2,1,60,0,1
209069,-66.6666666666667,4,2,1,40,0,1
210069,-66.6666666666667,4,2,1,10,0,0
211944,-66.6666666666667,4,2,1,40,0,0

[Colours]
Combo1 : 0,255,255
Combo2 : 114,122,141
Combo3 : 192,192,192
Combo4 : 75,75,75
Combo5 : 0,40,85
Combo6 : 0,0,160
Combo7 : 41,104,250

[HitObjects]
352,52,1944,6,0,P|376:120|348:184,1,140
220,284,3819,2,0,P|224:320|240:356,2,70
80,192,5694,2,0,B|92:124|92:124|148:80,1,140
308,56,7569,2,0,P|348:68|372:88,1,70
308,140,8506,2,0,P|343:163|375:167,1,70
452,184,9444,6,0,P|416:236|332:240,1,140
180,284,11319,1,0,0:0:0:0:
144,208,11788,1,0,0:0:0:0:
172,128,12256,1,0,0:0:0:0:
332,172,13194,6,0,B|376:120|376:120|376:48,2,140
312,252,15538,2,0,P|344:276|376:284,1,70
228,80,16944,6,0,P|168:124|124:180,1,140
92,252,18350,1,0,0:0:0:0:
152,316,18819,2,0,P|192:312|220:300,1,70
292,252,19756,1,0,0:0:0:0:
204,108,20694,54,0,P|204:68|184:40,2,70
112,248,22569,2,0,P|72:248|44:268,2,70
276,292,24444,5,0,0:0:0:0:
420,220,25381,2,0,L|364:92,1,140
292,48,26788,1,0,0:0:0:0:
208,52,27256,1,0,0:0:0:0:
76,156,28194,1,0,0:0:0:0:
200,256,29131,2,0,B|284:228|284:228|336:228,2,140
392,304,31944,6,0,P|428:224|392:152,1,167.999994873047
336,228,33350,1,0,0:0:0:0:
276,156,33819,2,0,P|244:231|280:304,1,167.999994873047
196,344,35225,1,0,0:0:0:0:
108,328,35694,6,0,P|92:289|58:265,1,83.9999974365235
128,200,36631,2,0,P|96:160|92:124,1,83.9999974365235
152,72,37569,2,0,B|204:72|204:72|240:120|240:120|304:120,1,167.999994873047
380,132,38975,1,0,0:0:0:0:
396,216,39444,6,0,P|448:188|460:136,2,83.9999974365235
324,256,40850,1,0,0:0:0:0:
236,272,41319,2,0,P|229:312|200:350,2,83.9999974365235
148,280,42725,1,0,0:0:0:0:
84,216,43194,22,0,P|60:132|84:52,1,167.999994873047
164,48,44600,1,0,0:0:0:0:
240,84,45069,2,0,L|328:84,1,83.9999974365235
380,152,46006,2,0,L|317:214,1,83.9999974365235
232,216,46944,6,0,B|164:284|164:284|148:364,2,167.999994873047
320,176,49288,2,0,P|356:148|372:108,1,83.9999974365235
424,48,50225,1,0,0:0:0:0:
476,116,50694,6,0,B|464:200|464:200|404:268|404:268,2,167.999994873047
424,48,53038,1,0,0:0:0:0:
352,92,53506,2,0,P|312:116|272:116,1,83.9999974365235
200,156,54444,6,0,L|264:212,1,83.9999974365235
204,272,55381,2,0,L|268:328,1,83.9999974365235
352,316,56319,2,0,P|388:288|412:248,2,83.9999974365235
324,236,57725,1,0,0:0:0:0:
260,180,58194,5,4,0:0:0:0:
156,136,61944,22,0,P|108:176|100:216,2,105.000004005432,4|2|0,0:0|0:0|0:0,0:0:0:0:
228,60,63350,1,2,0:0:0:0:
312,124,63819,2,0,L|348:228,1,105.000004005432,0|2,0:0|0:0,0:0:0:0:
448,200,64756,2,0,L|433:312,1,105.000004005432,0|2,0:0|0:0,0:0:0:0:
312,332,65694,53,0,0:0:0:0:
212,296,66163,1,2,0:0:0:0:
120,244,66631,2,0,P|92:192|92:144,1,105.000004005432,0|2,0:0|0:0,0:0:0:0:
152,64,67569,2,0,L|256:104,1,105.000004005432,0|2,0:0|0:0,0:0:0:0:
348,144,68506,2,0,P|396:240|320:284,1,210.000008010865,0|4,0:0|0:0,0:0:0:0:
216,300,69913,5,2,0:0:0:0:
140,228,70381,1,0,0:0:0:0:
92,136,70850,1,2,0:0:0:0:
188,92,71319,2,0,P|244:125|289:125,1,105.000004005432,0|2,0:0|0:0,0:0:0:0:
332,32,72256,2,0,P|396:48|428:79,1,105.000004005432,0|2,0:0|0:0,0:0:0:0:
500,148,73194,6,0,B|459:188|459:188|404:204,1,105.000004005432,0|2,0:0|0:0,0:0:0:0:
320,248,74131,1,0,0:0:0:0:
300,348,74600,2,0,L|200:304,1,105.000004005432,2|0,0:0|0:0,0:0:0:0:
104,292,75538,2,0,P|128:236|168:212,1,105.000004005432,2|0,0:0|0:0,0:0:0:0:
408,64,76944,5,4,0:0:0:0:
356,148,77413,1,2,0:0:0:0:
264,184,77881,2,0,B|212:160|188:112|188:112,2,105.000004005432,0|2|0,0:0|0:0|0:0,0:0:0:0:
340,244,79288,1,2,0:0:0:0:
296,324,79756,2,0,P|188:304|120:228,1,210.000008010865
68,140,81163,54,0,L|168:100,1,105.000004005432,2|0,0:0|0:0,0:0:0:0:
272,96,82100,1,2,0:0:0:0:
376,120,82569,2,0,L|400:224,1,105.000004005432,0|2,0:0|0:0,0:0:0:0:
340,308,83506,1,0,0:0:0:0:
236,332,83975,1,2,0:0:0:0:
156,264,84444,6,0,B|104:268|104:268|60:308,2,105.000004005432,4|2|0,0:0|0:0|0:0,0:0:0:0:
220,180,85850,2,0,P|240:132|288:100,1,105.000004005432,2|0,0:0|0:0,0:0:0:0:
384,124,86788,2,0,L|400:228,1,105.000004005432,2|0,0:0|0:0,0:0:0:0:
344,316,87725,1,2,0:0:0:0:
260,252,88194,6,0,P|212:224|160:236,2,105.000004005432,0|2|0,0:0|0:0|0:0,0:0:0:0:
344,316,89600,2,0,P|404:308|436:272,1,105.000004005432,2|4,0:0|0:0,0:0:0:0:
120,100,91944,5,4,0:0:0:0:
152,200,92413,1,2,0:0:0:0:
216,284,92881,2,0,P|260:316|312:320,1,105.000004005432,0|2,0:0|0:0,0:0:0:0:
384,248,93819,2,0,P|416:296|412:348,2,105.000004005432,0|2|0,0:0|0:0|0:0,0:0:0:0:
336,152,95225,1,2,0:0:0:0:
260,76,95694,54,0,L|160:132,1,105.000004005432,0|2,0:0|0:0,0:0:0:0:
240,196,96631,2,0,L|140:252,1,105.000004005432,0|2,0:0|0:0,0:0:0:0:
92,328,97569,1,0,0:0:0:0:
196,348,98038,1,2,0:0:0:0:
300,336,98506,1,0,0:0:0:0:
400,300,98975,1,2,0:0:0:0:
408,196,99444,6,0,P|447:149|452:108,2,105.000004005432,4|2|0,0:0|0:0|0:0,0:0:0:0:
348,112,100850,1,2,0:0:0:0:
252,80,101319,2,0,P|192:64|144:68,1,105.000004005432,0|2,0:0|0:0,0:0:0:0:
60,124,102256,2,0,L|44:228|44:228,1,105.000004005432,0|2,0:0|0:0,0:0:0:0:
124,296,103194,5,0,0:0:0:0:
224,292,103663,2,0,P|288:296|328:268,1,105.000004005432,2|0,0:0|0:0,0:0:0:0:
256,192,104600,2,0,P|311:167|366:185,1,105.000004005432,2|0,0:0|0:0,0:0:0:0:
428,104,105538,2,0,P|372:76|328:68,1,105.000004005432,2|0,0:0|0:0,0:0:0:0:
144,108,106944,6,0,B|128:160|128:160|168:208,1,105.000004005432,4|2,0:0|0:0,0:0:0:0:
228,280,107881,2,0,B|276:308|276:308|332:288,1,105.000004005432,0|2,0:0|0:0,0:0:0:0:
416,248,108819,1,0,0:0:0:0:
460,152,109288,1,2,0:0:0:0:
384,80,109756,2,0,P|268:72|200:132,1,210.000008010865
132,208,111163,53,2,0:0:0:0:
232,244,111631,2,0,L|291:330,1,105.000004005432,0|2,0:0|0:0,0:0:0:0:
396,332,112569,2,0,L|456:244,1,105.000004005432,0|2,0:0|0:0,0:0:0:0:
496,148,113506,1,0,0:0:0:0:
404,100,113975,2,0,L|284:80,1,105.000004005432,2|0,0:0|0:0,0:0:0:0:
188,88,114913,5,2,0:0:0:0:
104,152,115381,1,0,0:0:0:0:
64,248,115850,1,2,0:0:0:0:
148,308,116319,2,0,P|212:300|248:268,1,105.000004005432,0|2,0:0|0:0,0:0:0:0:
344,256,117256,2,0,B|392:284|392:284|416:336,2,105.000004005432,0|2|0,0:0|0:0|0:0,0:0:0:0:
256,200,118663,5,2,0:0:0:0:
152,204,119131,2,0,P|96:212|40:184,1,105.000004005432,0|2,0:0|0:0,0:0:0:0:
112,108,120069,1,4,0:0:0:0:
220,308,121944,22,0,P|324:304|388:220,1,210.000008010865
364,124,123350,1,0,0:0:0:0:
260,80,123819,2,0,P|204:64|156:72,1,105.000004005432
200,164,124756,2,0,P|180:224|144:252,1,105.000004005432
60,304,125694,6,0,B|100:344|100:344|264:344,1,210.000008010865
336,280,127100,1,0,0:0:0:0:
296,184,127569,2,0,L|212:248,1,105.000004005432
168,152,128506,2,0,L|252:88,1,105.000004005432
352,60,129444,5,0,0:0:0:0:
388,160,129913,1,0,0:0:0:0:
436,248,130381,2,0,P|380:260|328:236,1,105.000004005432
248,184,131319,2,0,P|192:212|160:248,1,105.000004005432
96,324,132256,1,0,0:0:0:0:
24,248,132725,1,0,0:0:0:0:
52,148,133194,6,0,L|118:66,1,105.000004005432
216,104,134131,2,0,L|144:192,1,105.000004005432
88,264,135069,2,0,P|104:320|148:336,2,105.000004005432
124,164,136475,1,0,0:0:0:0:
192,84,136944,6,0,P|240:60|292:68,1,105.000004005432
376,124,137881,2,0,L|420:224,1,105.000004005432
400,324,138819,1,0,0:0:0:0:
296,312,139288,1,0,0:0:0:0:
200,272,139756,1,0,0:0:0:0:
112,212,140225,1,0,0:0:0:0:
96,108,140694,6,0,B|48:76|48:76|0:72,2,105.000004005432
192,68,142100,2,0,L|296:108,1,105.000004005432
364,32,143038,2,0,L|436:112,1,105.000004005432
472,208,143975,1,0,0:0:0:0:
384,264,144444,21,0,0:0:0:0:
292,312,144913,2,0,L|192:268,1,105.000004005432
120,196,145850,1,0,0:0:0:0:
160,100,146319,1,0,0:0:0:0:
264,76,146788,2,0,L|368:88,1,105.000004005432
448,156,147725,1,0,0:0:0:0:
256,192,148194,12,0,150069,0:0:0:0:
104,72,151944,85,4,0:0:0:0:
200,112,152413,2,0,B|256:112|256:112|304:64,2,105.000004005432,2|0|2,0:0|0:0|0:0,0:0:0:0:
104,72,153819,2,0,P|96:136|128:180,1,105.000004005432,0|2,0:0|0:0,0:0:0:0:
192,248,154756,2,0,P|296:280|388:240,1,210.000008010865
464,172,156163,53,2,0:0:0:0:
380,108,156631,2,0,B|332:72|332:72|276:72,1,105.000004005432,0|2,0:0|0:0,0:0:0:0:
184,96,157569,2,0,L|140:192,1,105.000004005432,0|2,0:0|0:0,0:0:0:0:
36,200,158506,2,0,L|84:304,1,105.000004005432,0|2,0:0|0:0,0:0:0:0:
180,328,159444,6,0,P|240:312|288:280,1,105.000004005432,4|2,0:0|0:0,0:0:0:0:
356,224,160381,2,0,P|376:272|364:336,2,105.000004005432,0|2|0,0:0|0:0|0:0,0:0:0:0:
280,148,161788,1,2,0:0:0:0:
176,168,162256,1,0,0:0:0:0:
104,244,162725,1,2,0:0:0:0:
184,316,163194,6,0,P|240:308|284:276,1,105.000004005432,0|2,0:0|0:0,0:0:0:0:
380,260,164131,2,0,P|372:204|388:156,1,105.000004005432,0|2,0:0|0:0,0:0:0:0:
368,56,165069,1,0,0:0:0:0:
272,96,165538,2,0,B|212:116|212:116|184:160,1,105.000004005432,2|0,0:0|0:0,0:0:0:0:
140,328,166944,6,0,L|92:232,1,105.000004005432,4|2,0:0|0:0,0:0:0:0:
148,136,167881,2,0,L|194:229,1,105.000004005432,0|2,0:0|0:0,0:0:0:0:
264,312,168819,1,0,0:0:0:0:
368,332,169288,1,2,0:0:0:0:
460,284,169756,2,0,B|452:224|416:204|416:204|420:136|364:100,1,210.000008010865
272,88,171163,54,0,P|212:108|188:140,1,105.000004005432,2|0,0:0|0:0,0:0:0:0:
280,192,172100,2,0,P|244:236|192:244,2,105.000004005432,2|0|2,0:0|0:0|0:0,0:0:0:0:
272,88,173506,2,0,L|376:68,1,105.000004005432,0|2,0:0|0:0,0:0:0:0:
456,136,174444,5,4,0:0:0:0:
456,240,174913,2,0,P|412:284|360:288,1,105.000004005432,2|0,0:0|0:0,0:0:0:0:
268,316,175850,2,0,B|212:308|212:308|172:276,1,105.000004005432,2|0,0:0|0:0,0:0:0:0:
116,188,176788,1,2,0:0:0:0:
160,92,177256,1,0,0:0:0:0:
260,64,177725,1,2,0:0:0:0:
348,120,178194,6,0,L|456:136,1,105.000004005432,0|2,0:0|0:0,0:0:0:0:
476,236,179131,2,0,P|448:280|300:300,1,210.000008010865
112,140,182881,5,0,0:0:0:0:
216,92,183350,1,0,0:0:0:0:
336,76,183819,54,0,P|388:100|408:144,1,105.000004005432,4|2,0:0|0:0,0:0:0:0:
372,240,184756,2,0,B|288:248|288:248|244:296|172:312,1,210.000008010865
80,284,186163,1,2,0:0:0:0:
56,184,186631,2,0,B|76:148|108:128|116:124|124:92,1,105.000004005432,0|2,0:0|0:0,0:0:0:0:
212,52,187569,6,0,B|272:68|272:68|308:104,1,105.000004005432,0|2,0:0|0:0,0:0:0:0:
384,164,188506,1,0,0:0:0:0:
396,268,188975,1,2,0:0:0:0:
320,340,189444,6,0,L|216:312,2,105.000004005432,4|2|0,0:0|0:0|0:0,0:0:0:0:
336,236,190850,1,2,0:0:0:0:
320,132,191319,2,0,L|420:92,2,105.000004005432,0|2|0,0:0|0:0|0:0,0:0:0:0:
232,72,192725,1,2,0:0:0:0:
176,160,193194,6,0,L|236:252,1,105.000004005432,0|2,0:0|0:0,0:0:0:0:
152,316,194131,2,0,L|252:356,1,105.000004005432,0|2,0:0|0:0,0:0:0:0:
344,312,195069,2,0,P|448:268|472:172,1,210.000008010865
268,136,196944,54,0,P|288:80|332:60,2,105.000004005432,4|2|0,0:0|0:0|0:0,0:0:0:0:
208,220,198350,1,2,0:0:0:0:
252,316,198819,2,0,L|360:344,1,105.000004005432,0|2,0:0|0:0,0:0:0:0:
448,296,199756,2,0,L|372:216,1,105.000004005432,0|2,0:0|0:0,0:0:0:0:
332,124,200694,5,0,0:0:0:0:
240,72,201163,1,2,0:0:0:0:
136,76,201631,2,0,P|88:116|92:156,1,105.000004005432,0|2,0:0|0:0,0:0:0:0:
132,252,202569,2,0,L|52:324,2,105.000004005432,0|2|0,0:0|0:0|0:0,0:0:0:0:
236,272,203975,1,2,0:0:0:0:
332,232,204444,6,0,B|312:176|356:152|348:128,1,105.000004005432,4|2,0:0|0:0,0:0:0:0:
296,40,205381,2,0,B|236:64|236:64|204:100,1,105.000004005432,0|2,0:0|0:0,0:0:0:0:
140,176,206319,2,0,P|148:232|184:272,1,105.000004005432,0|2,0:0|0:0,0:0:0:0:
280,296,207256,2,0,P|316:244|352:212,1,105.000004005432,0|2,0:0|0:0,0:0:0:0:
448,188,208194,6,0,B|440:124|416:88|412:88,1,105.000004005432,0|2,0:0|0:0,0:0:0:0:
312,64,209131,2,0,P|264:128|188:136,1,157.500006008148
256,192,210069,12,4,211944,0:0:0:0:
