osu file format v13

[General]
AudioFilename: Vexare - Ripened Pears.mp3
AudioLeadIn: 0
PreviewTime: 61944
Countdown: 0
SampleSet: Soft
StackLeniency: 0.7
Mode: 0
LetterboxInBreaks: 1
WidescreenStoryboard: 0

[Editor]
DistanceSpacing: 1
BeatDivisor: 8
GridSize: 4
TimelineZoom: 1

[Metadata]
Title:Ripened Pears
TitleUnicode:Ripened Pears
Artist:Vexare
ArtistUnicode:Vexare
Creator:BerkZ
Version:Hard
Source:
Tags:dubstep
BeatmapID:321921
BeatmapSetID:126729

[Difficulty]
HPDrainRate:6
CircleSize:4
OverallDifficulty:6
ApproachRate:7
SliderMultiplier:1.4
SliderTickRate:2

[Events]
//Background and Video events
0,0,"bg.jpg",0,0
//Break Periods
2,180269,181981
//Storyboard Layer 0 (Background)
//Storyboard Layer 1 (Fail)
//Storyboard Layer 2 (Pass)
//Storyboard Layer 3 (Foreground)
//Storyboard Sound Samples

[TimingPoints]
1944,468.75,4,2,1,10,1,0
16944,-100,4,2,1,15,0,0
31944,-83.3333333333333,4,2,1,40,0,0
46944,-83.3333333333333,4,2,1,45,0,0
59131,-83.3333333333333,4,2,1,30,0,0
60069,-83.3333333333333,4,2,1,15,0,0
60944,-83.3333333333333,4,2,1,40,0,0
61533,-83.3333333333333,4,2,1,20,0,0
61944,-66.6666666666667,4,2,1,60,0,1
120069,-66.6666666666667,4,2,1,60,0,0
121475,-66.6666666666667,4,2,1,30,0,0
121944,-66.6666666666667,4,2,1,40,0,0
136944,-66.6666666666667,4,2,1,45,0,0
151471,-50,4,2,1,20,0,0
151944,-83.3333333333333,4,2,1,60,0,1
152061,-66.6666666666667,4,2,1,60,0,1
179131,-66.6666666666667,4,2,1,20,0,0
182819,-50,4,2,1,50,0,0
183819,-66.6666666666667,4,2,1,60,0,1
209069,-66.6666666666667,4,2,1,20,0,1
210069,-66.6666666666667,4,2,1,5,0,0
211944,-66.6666666666667,4,2,1,30,0,0

[Colours]
Combo1 : 0,255,255
Combo2 : 114,122,141
Combo3 : 192,192,192
Combo4 : 75,75,75
Combo5 : 0,40,85
Combo6 : 0,0,160
Combo7 : 41,104,250

[HitObjects]
456,128,1475,5,0,0:0:0:0:
392,172,1709,1,0,0:0:0:0:
348,108,1944,2,0,P|268:68|212:92,1,140
200,156,2647,2,0,P|164:136|148:96,1,70
252,216,3350,1,0,0:0:0:0:
80,272,3819,6,0,P|92:312|120:336,1,70
176,292,4287,2,0,P|200:312|248:320,1,70
312,312,4756,2,0,L|448:216,1,140
440,152,5459,1,0,0:0:0:0:
456,72,5694,6,0,P|400:80|360:160,1,140
324,216,6397,1,0,0:0:0:0:
280,152,6631,1,0,0:0:0:0:
160,84,7100,1,0,0:0:0:0:
48,168,7569,6,0,P|43:133|19:108,2,70
184,240,8506,2,0,L|320:292,1,140
376,240,9209,2,0,L|324:184,1,70
456,120,9912,53,0,0:0:0:0:
392,64,10147,1,0,0:0:0:0:
308,56,10381,1,0,0:0:0:0:
144,144,10850,1,0,0:0:0:0:
212,296,11319,6,0,P|256:320|280:316,1,70
264,244,11787,1,0,0:0:0:0:
332,92,12256,2,0,P|376:144|360:208,1,140
304,160,13194,6,0,L|176:88,1,140
104,76,13897,1,0,0:0:0:0:
80,152,14131,1,0,0:0:0:0:
256,320,14600,1,0,0:0:0:0:
448,232,15069,5,0,0:0:0:0:
392,172,15303,2,0,P|360:140|348:104,1,70
228,56,16006,1,0,0:0:0:0:
100,120,16944,54,0,B|100:184|76:224|76:224|100:272,1,140
148,312,17647,1,0,0:0:0:0:
224,340,17881,1,0,0:0:0:0:
392,336,18350,2,0,P|376:264|424:208,1,140
388,132,19053,6,0,L|324:68,1,70
172,104,19756,1,0,0:0:0:0:
172,104,20225,1,0,0:0:0:0:
112,240,20694,6,0,B|104:288|160:328|160:328|216:328,1,140
248,256,21397,2,0,L|328:256,1,70
456,328,22100,1,0,0:0:0:0:
424,168,22569,5,0,0:0:0:0:
368,108,22803,1,0,0:0:0:0:
296,72,23037,1,0,0:0:0:0:
100,156,23506,2,0,P|140:164|116:252,1,140
264,312,24444,54,0,L|408:312,1,140
460,256,25147,2,0,P|472:224|460:188,1,70
256,68,25850,1,0,0:0:0:0:
104,72,26319,6,0,L|160:128,2,70
96,216,27256,2,0,P|108:272|188:300,1,140
236,220,28194,6,0,P|292:232|324:308,1,140
400,304,28897,2,0,L|432:232,1,70
360,120,29600,1,0,0:0:0:0:
232,72,30069,6,0,L|168:120,1,70
120,184,30537,2,0,B|152:208|152:208|144:312,1,140
280,320,31944,6,0,P|320:304|368:312,1,83.9999974365235
472,208,32412,2,0,P|416:224|376:208,1,83.9999974365235,8|0,0:0|0:0,0:0:0:0:
392,40,32881,2,0,L|456:112,1,83.9999974365235
328,128,33350,2,0,L|264:56,1,83.9999974365235
180,92,33819,5,0,0:0:0:0:
96,140,34053,1,0,0:0:0:0:
64,224,34287,2,0,L|64:312,1,83.9999974365235,8|0,0:0|0:0,0:0:0:0:
208,288,34756,2,0,P|172:328|132:328,1,83.9999974365235
204,208,35225,2,0,P|248:212|280:248,1,83.9999974365235
336,312,35694,21,0,0:0:0:0:
400,248,35928,1,0,0:0:0:0:
360,168,36162,2,0,L|396:84,1,83.9999974365235,8|0,0:0|0:0,0:0:0:0:
336,36,36631,1,0,0:0:0:0:
209,57,36865,2,0,L|284:96,2,83.9999974365235
120,96,37569,6,0,L|120:192,1,83.9999974365235
40,176,38037,2,0,L|80:256,1,83.9999974365235,8|0,0:0|0:0,0:0:0:0:
24,304,38506,2,0,L|112:344,1,83.9999974365235
188,300,38975,1,0,0:0:0:0:
276,256,39209,1,0,0:0:0:0:
368,224,39444,6,0,P|400:260|412:304,2,83.9999974365235,0|0|8,0:0|0:0|0:0,0:0:0:0:
276,164,40147,2,0,L|364:132,2,83.9999974365235
84,160,40850,1,0,0:0:0:0:
112,232,41084,1,0,0:0:0:0:
152,304,41319,6,0,B|176:304|196:304|196:304|248:284,1,83.9999974365235
312,260,41787,2,0,B|360:260|360:260|392:272|394:271,1,83.9999974365235,8|0,0:0|0:0,0:0:0:0:
424,72,42256,2,0,L|472:144,1,83.9999974365235
408,184,42725,2,0,L|336:136,1,83.9999974365235
264,80,43194,5,0,0:0:0:0:
176,108,43428,1,0,0:0:0:0:
132,184,43662,2,0,P|132:224|100:256,1,83.9999974365235,8|0,0:0|0:0,0:0:0:0:
220,344,44131,2,0,P|176:344|148:316,1,83.9999974365235
244,276,44600,2,0,L|320:220|320:220,1,83.9999974365235
452,276,45069,6,0,L|384:224,1,83.9999974365235
304,148,45537,2,0,P|344:132|400:148,1,83.9999974365235,8|0,0:0|0:0,0:0:0:0:
468,48,46006,2,0,P|428:64|380:56,1,83.9999974365235
260,56,46475,2,0,P|237:105|210:124,1,83.9999974365235
136,72,46944,22,0,P|104:116|100:148,1,83.9999974365235
92,228,47412,1,8,0:0:0:0:
112,312,47647,2,0,P|152:288|176:240,1,83.9999974365235
248,220,48115,2,0,P|268:264|312:292,1,83.9999974365235
408,276,48584,1,0,0:0:0:0:
352,200,48819,6,0,L|352:112,1,83.9999974365235
424,176,49287,1,8,0:0:0:0:
352,116,49522,2,0,L|280:52,1,83.9999974365235
400,60,49990,1,0,0:0:0:0:
288,60,50225,2,0,L|200:60,1,83.9999974365235
104,36,50694,6,0,P|100:72|124:116,1,83.9999974365235
204,152,51162,2,0,P|224:188|221:229,1,83.9999974365235,8|0,0:0|0:0,0:0:0:0:
128,212,51631,2,0,P|96:252|96:292,1,83.9999974365235
172,332,52100,2,0,P|216:340|256:316,1,83.9999974365235
336,296,52569,5,0,0:0:0:0:
368,200,52803,1,0,0:0:0:0:
400,104,53037,1,8,0:0:0:0:
264,104,53272,2,0,L|328:40,1,83.9999974365235
184,104,53740,1,0,0:0:0:0:
104,104,53975,2,0,L|40:168,1,83.9999974365235
212,184,54444,6,0,L|152:248,2,83.9999974365235,0|0|8,0:0|0:0|0:0,0:0:0:0:
288,128,55147,1,0,0:0:0:0:
360,192,55381,2,0,L|360:280,1,83.9999974365235
276,316,55850,1,0,0:0:0:0:
196,260,56084,1,0,0:0:0:0:
104,240,56319,6,0,B|104:288|104:288|72:320|72:320,2,83.9999974365235,0|0|8,0:0|0:0|0:0,0:0:0:0:
152,168,57022,1,0,0:0:0:0:
224,112,57256,2,0,B|224:64|224:64|256:32,2,83.9999974365235
152,168,57959,1,0,0:0:0:0:
152,256,58194,22,0,L|68:296,1,83.9999974365235
224,300,58662,2,0,L|308:260,1,83.9999974365235,8|0,0:0|0:0,0:0:0:0:
344,184,59131,1,0,0:0:0:0:
388,264,59365,1,0,0:0:0:0:
300,264,59600,2,0,P|268:236|252:196,1,83.9999974365235
176,156,60069,5,0,0:0:0:0:
152,236,60303,2,0,P|116:220|96:180,2,83.9999974365235
248,292,61006,6,0,L|268:248,4,41.9999987182618
368,288,61709,1,0,0:0:0:0:
404,204,61944,54,0,B|372:148|372:148|348:124|316:124,1,105.000004005432,0|0,0:0|0:0,0:0:0:0:
272,176,62412,2,0,B|240:120|240:120|216:96|184:96,1,105.000004005432,2|0,0:0|0:0,0:0:0:0:
120,112,62881,2,0,L|88:160,1,52.5000020027161
152,192,63115,2,0,L|136:256,1,52.5000020027161
152,316,63350,2,0,P|208:332|264:308,1,105.000004005432,2|0,0:0|0:0,0:0:0:0:
312,240,63819,53,0,0:0:0:0:
384,312,64053,1,0,0:0:0:0:
403,214,64287,2,0,B|384:176|384:176|336:136,1,105.000004005432,2|0,0:0|0:0,0:0:0:0:
464,48,64756,2,0,B|432:24|368:48|312:64|240:44,1,210.000008010865,0|2,0:0|0:0,0:0:0:0:
256,48,65459,1,0,0:0:0:0:
160,76,65694,5,0,0:0:0:0:
120,160,65928,2,0,P|100:216|124:264,1,105.000004005432,0|2,0:0|0:0,0:0:0:0:
176,336,66397,1,0,0:0:0:0:
272,332,66631,2,0,L|309:294,1,52.5000020027161
300,216,66865,2,0,L|348:168,2,52.5000020027161,0|0|2,0:0|0:0|0:0,0:0:0:0:
292,108,67334,1,0,0:0:0:0:
216,76,67569,6,0,P|156:80|104:108,1,105.000004005432
176,156,68037,2,0,P|128:180|92:220,1,105.000004005432,2|0,0:0|0:0,0:0:0:0:
144,304,68506,5,0,0:0:0:0:
228,344,68740,1,0,0:0:0:0:
288,248,68975,1,2,0:0:0:0:
376,280,69209,1,0,0:0:0:0:
420,188,69444,54,0,B|412:160|412:112|412:112|384:72,1,105.000004005432,4|0,0:0|0:0,0:0:0:0:
304,32,69912,2,0,B|272:40|272:40|280:80|208:72,1,105.000004005432,2|0,0:0|0:0,0:0:0:0:
128,80,70381,2,0,L|104:136,1,52.5000020027161
168,168,70615,2,0,L|152:232,2,52.5000020027161,0|0|2,0:0|0:0|0:0,0:0:0:0:
92,256,71084,2,0,P|144:292|196:280,1,105.000004005432
268,248,71553,5,0,0:0:0:0:
168,168,71787,2,0,L|190:65,1,105.000004005432,2|0,0:0|0:0,0:0:0:0:
64,80,72256,2,0,L|41:182,1,105.000004005432
292,72,72725,2,0,L|392:42,1,105.000004005432,2|0,0:0|0:0,0:0:0:0:
456,124,73194,6,0,P|404:164|408:216,1,105.000004005432
384,280,73662,2,0,L|276:312,1,105.000004005432,2|0,0:0|0:0,0:0:0:0:
168,284,74131,2,0,L|196:336,1,52.5000020027161
168,212,74365,2,0,L|224:224,1,52.5000020027161
112,164,74600,1,2,0:0:0:0:
44,136,74834,2,0,P|84:96|140:96,1,105.000004005432
216,132,75303,5,0,0:0:0:0:
296,184,75537,2,0,P|324:272|232:316,1,210.000008010865,2|0,0:0|0:0,0:0:0:0:
120,272,76240,2,0,L|112:300,4,26.2500010013581
72,168,76944,53,4,0:0:0:0:
160,120,77178,2,0,L|256:72,1,105.000004005432,0|2,0:0|0:0,0:0:0:0:
336,96,77647,2,0,L|312:208,1,105.000004005432
312,216,77998,2,0,L|374:249,3,52.5000020027161,0|0|0|2,0:0|0:0|0:0|0:0,0:0:0:0:
264,296,78584,1,0,0:0:0:0:
168,320,78819,5,0,0:0:0:0:
80,284,79053,2,0,P|112:232|96:180,1,105.000004005432,0|2,0:0|0:0,0:0:0:0:
48,128,79522,2,0,L|136:64,1,105.000004005432
256,64,79990,1,0,0:0:0:0:
256,64,80108,1,0,0:0:0:0:
256,64,80225,1,2,0:0:0:0:
376,64,80459,2,0,B|400:88|400:88|400:160,1,105.000004005432
312,136,80928,6,0,L|312:248,1,105.000004005432,0|2,0:0|0:0,0:0:0:0:
272,320,81397,2,0,B|248:296|240:272|240:272|192:280,1,105.000004005432
184,280,81748,2,0,L|168:224,3,52.5000020027161,0|0|0|2,0:0|0:0|0:0|0:0,0:0:0:0:
96,192,82334,2,0,P|72:144|80:80,1,105.000004005432
160,64,82803,5,0,0:0:0:0:
256,64,83037,2,0,L|368:64,1,105.000004005432,2|0,0:0|0:0,0:0:0:0:
312,136,83506,2,0,L|424:184,1,105.000004005432
328,224,83975,2,0,L|384:320|384:320,1,105.000004005432,2|0,0:0|0:0,0:0:0:0:
224,312,84444,53,4,0:0:0:0:
144,264,84678,1,0,0:0:0:0:
64,228,84912,2,0,B|64:196|80:180|80:180|96:124,1,105.000004005432,2|0,0:0|0:0,0:0:0:0:
160,72,85381,2,0,L|208:48,1,52.5000020027161
240,120,85615,2,0,L|304:120,2,52.5000020027161,0|0|2,0:0|0:0|0:0,0:0:0:0:
372,136,86084,2,0,P|412:184|392:228,1,105.000004005432
352,288,86553,5,0,0:0:0:0:
272,320,86787,1,2,0:0:0:0:
192,300,87022,2,0,B|144:268|144:268|144:220,1,105.000004005432
104,152,87490,1,0,0:0:0:0:
72,80,87725,2,0,B|112:48|112:48|176:48,1,105.000004005432,2|0,0:0|0:0,0:0:0:0:
264,48,88194,5,0,0:0:0:0:
264,48,88428,2,0,P|316:56|368:72,1,105.000004005432,0|2,0:0|0:0,0:0:0:0:
368,160,88897,1,0,0:0:0:0:
400,240,89131,2,0,L|352:288,1,52.5000020027161
344,352,89365,2,0,L|272:344,2,52.5000020027161,0|0|2,0:0|0:0|0:0,0:0:0:0:
216,312,89834,1,0,0:0:0:0:
144,256,90069,5,4,0:0:0:0:
72,88,91944,54,0,L|176:64,1,105.000004005432,4|0,0:0|0:0,0:0:0:0:
120,160,92412,2,0,L|240:188,1,105.000004005432,2|0,0:0|0:0,0:0:0:0:
272,256,92881,2,0,L|220:268,1,52.5000020027161,0|0,0:0|0:0,0:0:0:0:
248,344,93115,2,0,L|196:356,2,52.5000020027161,0|0|2,0:0|0:0|0:0,0:0:0:0:
336,320,93584,2,0,L|448:296,1,105.000004005432
448,200,94053,5,0,0:0:0:0:
348,204,94287,2,0,P|376:136|420:112,1,105.000004005432,2|0,0:0|0:0,0:0:0:0:
352,32,94756,2,0,B|312:48|288:24|280:56|280:56|240:48|192:48|160:80,1,210.000008010865,0|2,0:0|0:0,0:0:0:0:
160,80,95459,1,0,0:0:0:0:
112,140,95694,5,0,0:0:0:0:
96,216,95928,2,0,P|88:256|128:312,1,105.000004005432,0|2,0:0|0:0,0:0:0:0:
208,288,96397,2,0,L|328:288,1,105.000004005432
328,280,96748,2,0,L|352:224,3,52.5000020027161,0|0|0|2,0:0|0:0|0:0|0:0,0:0:0:0:
384,144,97334,2,0,B|368:104|368:104|304:64,1,105.000004005432
232,112,97803,5,0,0:0:0:0:
152,152,98037,1,2,0:0:0:0:
88,216,98272,1,0,0:0:0:0:
88,320,98506,54,0,L|192:272,1,105.000004005432
248,320,98975,2,0,L|352:288,1,105.000004005432,2|0,0:0|0:0,0:0:0:0:
352,208,99444,6,0,P|394:178|404:128,2,105.000004005432,4|0|2,0:0|0:0|0:0,0:0:0:0:
324,132,100147,1,0,0:0:0:0:
256,88,100381,2,0,L|224:136,4,52.5000020027161,0|0|0|0|2,0:0|0:0|0:0|0:0|0:0,0:0:0:0:
64,160,101084,2,0,L|128:72,1,105.000004005432
128,224,101553,5,0,0:0:0:0:
128,224,101787,2,0,P|200:296|312:296,1,210.000008010865,2|0,0:0|0:0,0:0:0:0:
304,300,102490,1,0,0:0:0:0:
388,272,102725,2,0,P|412:228|396:172,1,105.000004005432,2|0,0:0|0:0,0:0:0:0:
336,112,103194,5,0,0:0:0:0:
256,80,103428,2,0,P|200:64|152:80,1,105.000004005432,0|2,0:0|0:0,0:0:0:0:
88,144,103897,1,0,0:0:0:0:
182,151,104131,2,0,L|216:192,1,52.5000020027161
160,256,104365,2,0,L|200:304,2,52.5000020027161,0|0|2,0:0|0:0|0:0,0:0:0:0:
288,312,104834,2,0,L|376:240,2,105.000004005432
176,280,105537,53,2,0:0:0:0:
112,192,105772,1,0,0:0:0:0:
80,88,106006,2,0,B|104:72|136:56|136:56|176:64|248:72|288:56,1,210.000008010865,0|2,0:0|0:0,0:0:0:0:
384,64,106709,1,0,0:0:0:0:
416,80,106826,1,0,0:0:0:0:
448,96,106944,6,0,L|408:208,1,105.000004005432,4|0,0:0|0:0,0:0:0:0:
300,208,107412,2,0,L|380:304,1,105.000004005432,2|0,0:0|0:0,0:0:0:0:
256,312,107881,2,0,L|208:256,1,52.5000020027161
200,192,108115,2,0,L|136:192,2,52.5000020027161,0|0|2,0:0|0:0|0:0,0:0:0:0:
56,192,108584,2,0,P|40:136|64:88,1,105.000004005432
152,64,109053,5,0,0:0:0:0:
248,88,109287,2,0,B|288:88|288:88|336:40,1,105.000004005432,2|0,0:0|0:0,0:0:0:0:
404,80,109756,2,0,B|348:140|348:140|348:272,1,210.000008010865,0|2,0:0|0:0,0:0:0:0:
416,336,110459,1,0,0:0:0:0:
288,336,110694,6,0,P|248:328|184:296,1,105.000004005432
120,336,111162,2,0,P|88:288|72:232,1,105.000004005432,2|0,0:0|0:0,0:0:0:0:
40,172,111631,2,0,L|80:136,1,52.5000020027161,0|0,0:0|0:0,0:0:0:0:
160,168,111865,2,0,L|199:132,2,52.5000020027161,0|0|2,0:0|0:0|0:0,0:0:0:0:
256,64,112334,1,0,0:0:0:0:
344,72,112569,54,0,P|360:112|408:160,1,105.000004005432
432,336,113037,2,0,P|416:280|384:248,1,105.000004005432,2|0,0:0|0:0,0:0:0:0:
184,312,113506,2,0,L|304:312,1,105.000004005432
240,224,113975,2,0,L|120:224,1,105.000004005432,2|0,0:0|0:0,0:0:0:0:
104,216,114326,1,0,0:0:0:0:
80,192,114444,6,0,P|64:136|88:88,1,105.000004005432,4|0,0:0|0:0,0:0:0:0:
176,112,114912,2,0,P|232:128|280:104,1,105.000004005432,2|0,0:0|0:0,0:0:0:0:
368,88,115381,2,0,L|408:48,4,52.5000020027161,0|0|0|0|2,0:0|0:0|0:0|0:0|0:0,0:0:0:0:
400,180,116084,1,0,0:0:0:0:
376,272,116319,6,0,B|312:272|312:272|272:224,2,105.000004005432,0|0|2,0:0|0:0|0:0,0:0:0:0:
256,348,117022,1,0,0:0:0:0:
144,196,117256,2,0,L|208:288,1,105.000004005432
116,352,117725,2,0,L|56:265,1,105.000004005432,2|0,0:0|0:0,0:0:0:0:
56,168,118194,6,0,P|92:128|140:100,1,105.000004005432
224,80,118662,2,0,L|336:80,1,105.000004005432,2|0,0:0|0:0,0:0:0:0:
408,128,119131,2,0,L|432:192,1,52.5000020027161
344,192,119365,2,0,L|344:264,2,52.5000020027161,0|0|2,0:0|0:0|0:0,0:0:0:0:
288,316,119834,2,0,P|224:300|176:268,1,105.000004005432,0|4,0:0|0:0,0:0:0:0:
408,64,121475,5,0,0:0:0:0:
304,80,121709,1,0,0:0:0:0:
200,96,121944,6,0,B|144:96|144:96|104:144,1,105.000004005432
168,208,122412,2,0,P|184:264|160:304,1,105.000004005432,8|0,0:0|0:0,0:0:0:0:
280,336,122881,2,0,L|368:280,1,105.000004005432
400,176,123350,2,0,L|304:224,1,105.000004005432
408,56,123819,5,0,0:0:0:0:
336,120,124053,1,0,0:0:0:0:
232,120,124287,1,8,0:0:0:0:
160,56,124522,1,0,0:0:0:0:
80,112,124756,2,0,P|72:160|96:216,1,105.000004005432
160,272,125225,1,0,0:0:0:0:
244,312,125459,2,0,L|364:312,1,105.000004005432
420,244,125928,5,0,0:0:0:0:
336,212,126162,2,0,P|360:168|420:156,1,105.000004005432,8|0,0:0|0:0,0:0:0:0:
360,72,126631,1,0,0:0:0:0:
272,48,126865,2,0,L|160:48,1,105.000004005432
88,96,127334,1,0,0:0:0:0:
64,184,127569,6,0,P|68:244|100:280,1,105.000004005432,0|0,0:0|0:0,0:0:0:0:
184,304,128037,2,0,L|272:232,1,105.000004005432,8|0,0:0|0:0,0:0:0:0:
320,288,128506,2,0,L|400:208,1,105.000004005432
356,124,128975,1,0,0:0:0:0:
356,124,129209,1,0,0:0:0:0:
268,68,129444,6,0,P|216:60|160:84,1,105.000004005432
80,128,129912,2,0,B|80:192|80:192|40:232,1,105.000004005432,8|0,0:0|0:0,0:0:0:0:
120,280,130381,2,0,B|148:251|148:251|212:251,1,105.000004005432,0|0,0:0|0:0,0:0:0:0:
312,268,130850,2,0,L|424:268,1,105.000004005432
444,176,131319,21,0,0:0:0:0:
380,120,131553,1,0,0:0:0:0:
296,128,131787,2,0,P|240:136|176:112,1,105.000004005432,8|0,0:0|0:0,0:0:0:0:
128,176,132256,1,0,0:0:0:0:
128,176,132490,1,0,0:0:0:0:
144,256,132725,2,0,L|56:336,2,105.000004005432
256,216,133428,6,0,B|256:176|256:176|224:168|200:128,2,105.000004005432,0|8|0,0:0|0:0|0:0,0:0:0:0:
256,312,134131,2,0,L|368:312,1,105.000004005432
360,240,134600,2,0,L|448:168,1,105.000004005432
424,72,135069,5,0,0:0:0:0:
320,88,135303,1,0,0:0:0:0:
216,112,135537,1,8,0:0:0:0:
116,144,135772,1,0,0:0:0:0:
24,192,136006,5,0,0:0:0:0:
108,252,136240,1,0,0:0:0:0:
204,300,136475,1,0,0:0:0:0:
304,328,136709,1,0,0:0:0:0:
416,340,136944,6,0,B|416:296|392:272|392:272|392:224,1,105.000004005432
352,156,137412,1,8,0:0:0:0:
380,72,137647,2,0,P|420:88|444:152,2,105.000004005432
280,48,138350,2,0,L|216:136,1,105.000004005432
192,312,138819,6,0,L|256:216,1,105.000004005432
160,192,139287,1,8,0:0:0:0:
64,192,139522,1,0,0:0:0:0:
56,288,139756,2,0,B|72:336|72:336|136:336,1,105.000004005432
172,272,140225,2,0,B|226:272|226:272|242:320,1,105.000004005432
336,336,140694,21,0,0:0:0:0:
404,292,140928,1,0,0:0:0:0:
256,192,141162,2,0,P|312:176|368:208,1,105.000004005432,8|0,0:0|0:0,0:0:0:0:
436,200,141631,2,0,P|456:152|432:104,1,105.000004005432
340,96,142100,2,0,L|228:76,1,105.000004005432
144,80,142569,5,0,0:0:0:0:
56,136,142803,1,0,0:0:0:0:
56,248,143037,1,8,0:0:0:0:
144,312,143272,1,0,0:0:0:0:
256,224,143506,2,0,P|312:224|352:184,1,105.000004005432
256,312,143975,2,0,P|312:312|352:352,1,105.000004005432
432,296,144444,6,0,L|432:184,1,105.000004005432
512,192,144912,2,0,L|512:72,1,105.000004005432,8|0,0:0|0:0,0:0:0:0:
296,72,145381,2,0,L|400:40,1,105.000004005432
192,128,145850,2,0,L|304:152,1,105.000004005432
100,120,146319,5,0,0:0:0:0:
72,208,146553,2,0,B|120:240|120:240|120:288,2,105.000004005432,0|8|0,0:0|0:0|0:0,0:0:0:0:
192,248,147256,2,0,B|192:296|192:296|236:336|236:336,2,105.000004005432
256,192,147959,1,0,0:0:0:0:
348,121,148194,6,0,P|307:91|256:96,1,105.000004005432
326,284,148662,2,0,P|356:243|352:192,1,105.000004005432,8|0,0:0|0:0,0:0:0:0:
163,262,149131,2,0,P|204:292|256:288,1,105.000004005432
185,99,149600,2,0,P|155:140|160:192,1,105.000004005432
256,192,150069,5,4,0:0:0:0:
88,96,151475,54,0,L|240:48,1,140
88,192,151944,54,0,P|72:232|96:272,1,83.9999974365235,4|0,0:0|0:0,0:0:0:0:
160,232,152412,2,0,P|176:280|152:328,1,105.000004005432,2|0,0:0|0:0,0:0:0:0:
260,296,152881,2,0,L|312:264,1,52.5000020027161
344,340,153115,2,0,L|396:336,2,52.5000020027161,0|0|2,0:0|0:0|0:0,0:0:0:0:
468,280,153584,2,0,L|488:172,1,105.000004005432
416,120,154053,54,0,L|372:232,1,105.000004005432,0|2,0:0|0:0,0:0:0:0:
300,92,154522,1,0,0:0:0:0:
300,92,154756,2,0,P|192:104|88:156,1,210.000008010865,0|2,0:0|0:0,0:0:0:0:
84,232,155459,2,0,P|112:280|176:300,1,105.000004005432
200,192,155928,6,0,P|256:216|284:260,1,105.000004005432,0|2,0:0|0:0,0:0:0:0:
156,300,156397,1,0,0:0:0:0:
280,250,156631,2,0,L|328:200,1,52.5000020027161
256,164,156865,2,0,L|280:100,2,52.5000020027161,0|0|2,0:0|0:0|0:0,0:0:0:0:
164,112,157334,1,0,0:0:0:0:
100,180,157569,5,0,0:0:0:0:
80,272,157803,2,0,B|104:272|104:272|112:296|172:320,1,105.000004005432,0|2,0:0|0:0,0:0:0:0:
216,252,158272,2,0,P|240:204|280:172,2,105.000004005432
248,328,158975,2,0,P|296:312|344:272,1,105.000004005432,2|0,0:0|0:0,0:0:0:0:
368,184,159444,5,4,0:0:0:0:
368,184,159678,1,0,0:0:0:0:
312,96,159912,1,2,0:0:0:0:
312,96,160147,1,0,0:0:0:0:
224,72,160381,2,0,L|180:100,2,52.5000020027161,0|0|0,0:0|0:0|0:0,0:0:0:0:
116,52,160733,2,0,L|72:80,1,52.5000020027161,0|2,0:0|0:0,0:0:0:0:
64,192,161084,2,0,P|64:240|104:288,1,105.000004005432
188,328,161553,53,0,0:0:0:0:
288,312,161787,2,0,L|408:336,1,105.000004005432,2|0,0:0|0:0,0:0:0:0:
496,288,162256,2,0,L|376:256,1,105.000004005432
376,160,162725,2,0,L|480:208,2,105.000004005432,2|0|0,0:0|0:0|0:0,0:0:0:0:
360,80,163428,5,0,0:0:0:0:
280,64,163662,2,0,P|224:40|176:48,1,105.000004005432,2|0,0:0|0:0,0:0:0:0:
112,96,164131,2,0,L|88:160,1,52.5000020027161
164,168,164365,2,0,L|140:224,1,52.5000020027161
88,264,164600,1,2,0:0:0:0:
172,312,164834,1,0,0:0:0:0:
272,308,165069,5,0,0:0:0:0:
360,256,165303,2,0,L|440:184,1,105.000004005432,0|2,0:0|0:0,0:0:0:0:
344,152,165772,2,0,L|300:52,1,105.000004005432
176,64,166240,2,0,L|152:80,4,26.2500010013581
80,192,166944,6,0,P|112:232|100:284,1,105.000004005432,4|0,0:0|0:0,0:0:0:0:
224,304,167412,2,0,P|200:256|208:204,1,105.000004005432,2|0,0:0|0:0,0:0:0:0:
296,244,167881,2,0,L|336:284,1,52.5000020027161
408,292,168115,2,0,L|472:272,1,52.5000020027161
480,204,168350,1,2,0:0:0:0:
432,128,168584,2,0,L|336:84,1,105.000004005432
260,128,169053,54,0,L|152:168,1,105.000004005432,0|2,0:0|0:0,0:0:0:0:
80,204,169522,1,0,0:0:0:0:
44,280,169756,2,0,B|88:300|136:268|136:268|248:316,1,210.000008010865,0|2,0:0|0:0,0:0:0:0:
324,324,170459,2,0,P|380:316|428:284,1,105.000004005432
432,216,170928,5,0,0:0:0:0:
352,184,171162,2,0,P|380:144|452:136,1,105.000004005432,2|0,0:0|0:0,0:0:0:0:
324,80,171631,2,0,L|364:40,4,52.5000020027161,0|0|0|0|2,0:0|0:0|0:0|0:0|0:0,0:0:0:0:
240,104,172334,2,0,P|192:144|168:184,1,105.000004005432
120,260,172803,6,0,P|88:216|72:168,2,105.000004005432,0|2|0,0:0|0:0|0:0,0:0:0:0:
120,260,173506,1,0,0:0:0:0:
192,320,173740,2,0,P|240:304|272:260,1,105.000004005432,0|2,0:0|0:0,0:0:0:0:
360,280,174209,2,0,L|416:316,2,52.5000020027161,0|0|4,0:0|0:0|0:0,0:0:0:0:
472,256,174678,5,0,0:0:0:0:
468,172,174912,2,0,P|460:124|424:76,1,105.000004005432,2|0,0:0|0:0,0:0:0:0:
348,52,175381,2,0,L|288:68,1,52.5000020027161
292,148,175615,2,0,L|232:140,1,52.5000020027161,0|0,0:0|0:0,0:0:0:0:
168,96,175850,1,2,0:0:0:0:
104,144,176084,2,0,L|68:248,1,105.000004005432
100,320,176553,53,0,0:0:0:0:
176,288,176787,2,0,B|200:288|200:288|264:352,1,105.000004005432,2|0,0:0|0:0,0:0:0:0:
304,272,177256,2,0,B|361:329|361:329|385:329,1,105.000004005432,0|0,0:0|0:0,0:0:0:0:
440,268,177725,2,0,L|440:156,1,105.000004005432,2|0,0:0|0:0,0:0:0:0:
328,40,178194,6,0,P|288:80|240:80,1,105.000004005432
232,212,178662,2,0,P|272:172|324:172,1,105.000004005432,2|0,0:0|0:0,0:0:0:0:
112,80,179131,2,0,P|80:192|128:272,1,210.000008010865
224,336,180069,1,0,0:0:0:0:
440,128,182881,6,0,L|312:192,1,140
200,344,183350,2,0,L|128:320,1,70
180,264,183584,2,0,L|196:192,1,70
120,200,183819,6,0,P|80:144|88:104,1,105.000004005432,4|0,0:0|0:0,0:0:0:0:
144,24,184287,2,0,P|176:80|160:120,1,105.000004005432,2|0,0:0|0:0,0:0:0:0:
240,152,184756,2,0,P|332:128|428:212,1,210.000008010865,0|2,0:0|0:0,0:0:0:0:
416,280,185459,1,0,0:0:0:0:
344,324,185694,53,0,0:0:0:0:
256,328,185928,2,0,P|200:304|168:264,1,105.000004005432,0|2,0:0|0:0,0:0:0:0:
140,176,186397,1,0,0:0:0:0:
196,100,186631,2,0,L|148:68,1,52.5000020027161
272,88,186865,2,0,L|320:120,2,52.5000020027161,0|0|2,0:0|0:0|0:0,0:0:0:0:
408,48,187334,2,0,P|440:104|416:152,1,105.000004005432
376,216,187803,5,0,0:0:0:0:
312,296,188037,1,2,0:0:0:0:
220,344,188272,1,0,0:0:0:0:
72,304,188506,6,0,L|160:248,1,105.000004005432
192,128,188975,2,0,L|96:200,1,105.000004005432,2|0,0:0|0:0,0:0:0:0:
192,32,189444,6,0,B|256:32|256:32|304:72,1,105.000004005432,4|0,0:0|0:0,0:0:0:0:
352,120,189912,1,2,0:0:0:0:
400,196,190147,1,0,0:0:0:0:
384,288,190381,2,0,L|440:280,4,52.5000020027161,0|0|0|0|2,0:0|0:0|0:0|0:0|0:0,0:0:0:0:
288,240,191084,1,0,0:0:0:0:
216,304,191319,53,0,0:0:0:0:
120,304,191553,1,0,0:0:0:0:
48,256,191787,2,0,P|64:200|112:168,1,105.000004005432,2|0,0:0|0:0,0:0:0:0:
208,128,192256,1,0,0:0:0:0:
208,128,192490,1,0,0:0:0:0:
160,48,192725,1,2,0:0:0:0:
160,48,192959,1,0,0:0:0:0:
56,28,193194,6,0,P|28:68|56:124,1,105.000004005432
120,156,193662,2,0,B|192:156|192:156|216:116,1,105.000004005432,2|0,0:0|0:0,0:0:0:0:
312,112,194131,2,0,L|360:144,1,52.5000020027161
432,112,194365,2,0,L|432:176,1,52.5000020027161
400,232,194600,1,2,0:0:0:0:
384,320,194834,2,0,P|344:304|312:240,1,105.000004005432
240,200,195303,5,0,0:0:0:0:
160,240,195537,2,0,P|128:280|128:336,1,105.000004005432,2|0,0:0|0:0,0:0:0:0:
64,192,196006,1,4,0:0:0:0:
88,40,196944,6,0,P|140:52|176:92,1,105.000004005432,4|0,0:0|0:0,0:0:0:0:
272,100,197412,2,0,L|372:60,1,105.000004005432,2|0,0:0|0:0,0:0:0:0:
416,160,197881,2,0,L|464:208,1,52.5000020027161
364,208,198115,2,0,L|364:272,2,52.5000020027161,0|0|2,0:0|0:0|0:0,0:0:0:0:
280,328,198584,1,0,0:0:0:0:
184,328,198819,54,0,P|160:272|192:224,1,105.000004005432
72,184,199287,2,0,P|120:144|160:152,1,105.000004005432,2|0,0:0|0:0,0:0:0:0:
288,48,199756,2,0,P|248:96|256:144,1,105.000004005432
360,280,200225,2,0,P|320:240|264:232,1,105.000004005432,2|0,0:0|0:0,0:0:0:0:
192,164,200694,6,0,L|136:256,1,105.000004005432
88,328,201162,1,2,0:0:0:0:
88,328,201397,1,0,0:0:0:0:
216,328,201631,2,0,P|272:312|304:272,1,105.000004005432
348,200,202100,1,2,0:0:0:0:
440,200,202334,2,0,P|456:152|424:88,1,105.000004005432
352,56,202803,5,0,0:0:0:0:
256,72,203037,2,0,L|152:112,1,105.000004005432,2|0,0:0|0:0,0:0:0:0:
56,192,203506,5,0,0:0:0:0:
104,280,203740,1,0,0:0:0:0:
200,320,203975,2,0,L|304:280,1,105.000004005432,2|0,0:0|0:0,0:0:0:0:
384,192,204444,54,0,P|432:168|432:112,2,105.000004005432,4|0|2,0:0|0:0|0:0,0:0:0:0:
296,152,205147,1,0,0:0:0:0:
216,80,205381,2,0,L|152:64,1,52.5000020027161
148,136,205615,2,0,L|92:152,2,52.5000020027161,0|0|2,0:0|0:0|0:0,0:0:0:0:
64,216,206084,2,0,P|48:272|64:320,2,105.000004005432
152,304,206787,6,0,L|264:256,1,105.000004005432,2|0,0:0|0:0,0:0:0:0:
288,312,207256,2,0,L|368:240|368:240,1,105.000004005432
424,280,207725,2,0,L|432:176,1,105.000004005432,2|0,0:0|0:0,0:0:0:0:
408,88,208194,5,0,0:0:0:0:
304,48,208428,1,0,0:0:0:0:
192,72,208662,2,0,P|176:128|192:176,1,105.000004005432,2|0,0:0|0:0,0:0:0:0:
284,216,209131,1,0,0:0:0:0:
88,296,209600,1,0,0:0:0:0:
256,192,210069,12,4,211944,0:0:0:0:
