osu file format v12

[General]
AudioFilename: lonely night track 06.mp3
AudioLeadIn: 0
PreviewTime: 66529
Countdown: 0
SampleSet: Soft
StackLeniency: 0.7
Mode: 0
LetterboxInBreaks: 0
WidescreenStoryboard: 1

[Editor]
DistanceSpacing: 1.5
BeatDivisor: 3
GridSize: 4

[Metadata]
Title:Night Hunter
TitleUnicode:Night Hunter
Artist:Vesuvia Project
ArtistUnicode:Vesuvia Project
Creator:Niva
Version:Hard
Source:Touhou
Tags:Nivalis Lonely Night Ecky Pramuhandita Bamboo Forest of the Full Moon Bandung Indonesia
BeatmapID:286257
BeatmapSetID:109283

[Difficulty]
HPDrainRate:6
CircleSize:4
OverallDifficulty:6
ApproachRate:7
SliderMultiplier:1.5
SliderTickRate:2

[Events]
//Background and Video events
0,0,"bg-resize2.jpg",0,0
//Break Periods
2,50229,50975
//Storyboard Layer 0 (Background)
//Storyboard Layer 1 (Fail)
//Storyboard Layer 2 (Pass)
//Storyboard Layer 3 (Foreground)
//Storyboard Sound Samples
//Background Colour Transformations
3,100,163,162,255

[TimingPoints]
183,461.538461538462,4,2,3,40,1,0
3991,-100,4,2,1,40,0,0
4798,-100,4,2,2,40,0,0
4914,-100,4,2,1,40,0,0
5491,-100,4,2,2,40,0,0
5606,-100,4,2,1,40,0,0
6414,-100,4,2,2,40,0,0
6529,-100,4,2,1,40,0,0
6645,-100,4,2,2,40,0,0
6875,-100,4,2,1,40,0,0
7337,-100,4,2,2,40,0,0
7452,-100,4,2,1,40,0,0
8491,-100,4,2,2,40,0,0
8606,-100,4,2,1,40,0,0
9183,-100,4,2,2,40,0,0
9298,-100,4,2,1,40,0,0
11260,-100,4,2,3,40,0,0
11375,-100,4,2,1,40,0,0
12183,-100,4,2,2,40,0,0
12298,-100,4,2,1,40,0,0
12760,-100,4,2,2,40,0,0
12991,-100,4,2,1,40,0,0
14029,-100,4,2,2,40,0,0
14145,-100,4,2,1,40,0,0
14721,-100,4,2,2,40,0,0
14837,-100,4,2,1,40,0,0
15875,-100,4,2,2,40,0,0
15991,-100,4,2,1,40,0,0
16568,-100,4,2,2,40,0,0
16683,-100,4,2,1,40,0,0
18645,-100,4,2,1,10,0,0
19106,-100,4,2,1,12,0,0
19568,-100,4,2,1,15,0,0
20029,-100,4,2,1,17,0,0
20491,-100,4,2,3,40,0,0
20606,-100,4,2,1,40,0,0
20721,-100,4,2,2,40,0,0
20952,-100,4,2,1,40,0,0
21183,-100,4,2,2,40,0,0
21414,-100,4,2,1,40,0,0
22568,-100,4,2,2,40,0,0
22798,-100,4,2,1,40,0,0
23029,-100,4,2,2,40,0,0
23260,-100,4,2,1,40,0,0
24414,-100,4,2,2,40,0,0
24529,-100,4,2,1,40,0,0
24875,-100,4,2,2,40,0,0
24991,-100,4,2,1,40,0,0
26721,-100,4,2,2,40,0,0
26837,-100,4,2,1,40,0,0
28106,-100,4,2,2,40,0,0
28337,-100,4,2,1,40,0,0
28568,-100,4,2,2,40,0,0
28683,-100,4,2,1,40,0,0
29952,-100,4,2,2,40,0,0
30183,-100,4,2,1,40,0,0
30414,-100,4,2,2,40,0,0
30645,-100,4,2,1,40,0,0
31798,-100,4,2,2,40,0,0
31914,-100,4,2,1,40,0,0
32260,-100,4,2,2,40,0,0
32375,-100,4,2,1,40,0,0
33645,-100,4,2,2,40,0,0
33760,-100,4,2,1,40,0,0
34106,-100,4,2,2,40,0,0
34221,-100,4,2,1,40,0,0
34568,-100,4,2,2,40,0,0
34683,-100,4,2,1,40,0,0
35029,-100,4,2,2,40,0,0
35145,-100,4,2,1,40,0,0
35260,-100,4,2,3,40,0,0
35491,-100,4,2,2,40,0,0
35606,-100,4,2,1,40,0,0
35952,-100,4,2,2,40,0,0
36068,-100,4,2,1,40,0,0
37337,-100,4,2,2,40,0,0
37452,-100,4,2,1,40,0,0
37798,-100,4,2,2,40,0,0
37914,-100,4,2,1,40,0,0
39183,-100,4,2,2,40,0,0
39298,-100,4,2,1,40,0,0
39645,-100,4,2,2,40,0,0
39760,-100,4,2,1,40,0,0
41375,-100,4,2,2,40,0,0
41606,-100,4,2,1,40,0,0
42875,-100,4,2,2,40,0,0
42991,-100,4,2,1,40,0,0
43337,-100,4,2,2,40,0,0
43452,-100,4,2,1,40,0,0
44721,-100,4,2,2,40,0,0
44837,-100,4,2,1,40,0,0
45183,-100,4,2,2,40,0,0
45298,-100,4,2,1,40,0,0
46568,-100,4,2,2,40,0,0
46683,-100,4,2,1,40,0,0
47029,-100,4,2,2,40,0,0
47145,-100,4,2,1,40,0,0
48414,-100,4,2,2,40,0,0
48529,-100,4,2,1,40,0,0
48875,-100,4,2,2,40,0,0
48991,-100,4,2,1,40,0,0
49337,-100,4,2,2,40,0,0
49452,-100,4,2,1,40,0,0
49798,-100,4,2,2,40,0,0
49914,-100,4,2,1,40,0,0
50029,-100,4,2,3,40,0,0
50145,-100,4,2,1,40,0,0
52568,-100,4,2,2,40,0,0
53260,-100,4,2,1,40,0,0
54414,-100,4,2,2,40,0,0
54645,-100,4,2,1,40,0,0
56260,-100,4,2,2,40,0,0
56359,-100,4,2,1,40,0,0
56721,-100,4,2,2,40,0,0
56837,-100,4,2,1,40,0,0
58106,-100,4,2,2,40,0,0
58221,-100,4,2,1,40,0,0
58568,-100,4,2,2,40,0,0
58683,-100,4,2,1,40,0,0
59260,-100,4,2,3,40,0,0
59375,-100,4,2,1,40,0,0
60183,-100,4,2,2,40,0,0
60298,-100,4,2,1,40,0,0
61106,-100,4,2,2,40,0,0
61221,-100,4,2,1,40,0,0
62029,-100,4,2,2,40,0,0
62145,-100,4,2,1,40,0,0
62260,-100,4,2,2,40,0,0
62375,-100,4,2,1,40,0,0
62952,-100,4,2,2,40,0,0
63068,-100,4,2,1,40,0,0
63875,-100,4,2,2,40,0,0
63991,-100,4,2,1,40,0,0
64798,-100,4,2,2,40,0,0
64914,-100,4,2,1,40,0,0
65721,-100,4,2,2,40,0,0
65837,-100,4,2,1,40,0,0
65952,-100,4,2,2,40,0,0
66068,-100,4,2,1,40,0,0
66414,-100,4,2,2,40,0,0
66529,-100,4,2,1,40,0,0
66645,-100,4,2,3,40,0,1
66760,-100,4,2,2,40,0,1
66952,-100,4,2,4,40,0,1
67106,-100,4,2,4,40,0,1
67721,-100,4,2,2,40,0,1
67875,-100,4,2,4,40,0,1
68645,-100,4,2,2,40,0,1
68798,-100,4,2,4,40,0,1
68952,-100,4,2,4,40,0,1
69568,-100,4,2,2,40,0,1
69644,-100,4,2,4,40,0,1
69875,-100,4,2,4,20,0,1
69991,-100,4,2,4,40,0,1
70491,-100,4,2,2,40,0,1
70645,-100,4,2,2,40,0,1
70798,-100,4,2,4,40,0,1
71414,-100,4,2,2,40,0,1
71568,-100,4,2,4,40,0,1
72337,-100,4,2,2,40,0,1
72491,-100,4,2,4,40,0,1
73260,-100,4,2,2,40,0,1
73336,-100,4,2,4,40,0,1
73568,-100,4,2,4,50,0,1
74029,-100,4,2,4,40,0,1
74183,-100,4,2,2,40,0,1
74337,-100,4,2,4,40,0,1
75106,-100,4,2,2,40,0,1
75260,-100,4,2,4,40,0,1
76029,-100,4,2,2,40,0,1
76183,-100,4,2,4,40,0,1
76952,-100,4,2,2,40,0,1
77029,-100,4,2,4,40,0,1
77260,-100,4,2,4,20,0,1
77375,-100,4,2,4,40,0,1
77875,-100,4,2,2,40,0,1
78029,-100,4,2,4,40,0,1
78798,-100,4,2,2,40,0,1
78952,-100,4,2,4,40,0,1
79721,-100,4,2,2,40,0,1
79875,-100,4,2,4,40,0,1
80645,-100,4,2,2,40,0,1
80798,-100,4,2,4,40,0,1
81298,-100,4,2,4,40,0,0
81414,-90.9090909090909,4,2,3,40,0,1
81529,-90.9090909090909,4,2,2,40,0,1
81721,-90.9090909090909,4,2,4,40,0,1
82491,-90.9090909090909,4,2,2,40,0,1
82645,-90.9090909090909,4,2,4,40,0,1
83414,-90.9090909090909,4,2,2,40,0,1
83568,-90.9090909090909,4,2,4,40,0,1
84337,-90.9090909090909,4,2,2,40,0,1
84413,-90.9090909090909,4,2,4,40,0,1
84491,-90.9090909090909,4,2,4,40,0,1
84645,-90.9090909090909,4,2,4,20,0,1
84760,-90.9090909090909,4,2,4,40,0,1
85260,-90.9090909090909,4,2,2,40,0,1
85414,-90.9090909090909,4,2,4,40,0,1
86183,-90.9090909090909,4,2,2,40,0,1
86337,-90.9090909090909,4,2,4,40,0,1
87106,-90.9090909090909,4,2,2,40,0,1
87260,-90.9090909090909,4,2,4,40,0,1
88029,-90.9090909090909,4,2,2,40,0,1
88106,-90.9090909090909,4,2,4,40,0,1
88337,-90.9090909090909,4,2,4,50,0,1
88798,-90.9090909090909,4,2,4,40,0,1
88952,-90.9090909090909,4,2,2,40,0,1
89106,-90.9090909090909,4,2,4,40,0,1
89875,-90.9090909090909,4,2,2,40,0,1
90029,-90.9090909090909,4,2,4,40,0,1
90798,-90.9090909090909,4,2,2,40,0,1
90952,-90.9090909090909,4,2,4,40,0,1
91721,-90.9090909090909,4,2,2,40,0,1
91798,-90.9090909090909,4,2,4,40,0,1
92029,-90.9090909090909,4,2,4,20,0,1
92145,-90.9090909090909,4,2,4,40,0,1
92645,-90.9090909090909,4,2,2,40,0,1
92798,-90.9090909090909,4,2,4,40,0,1
93568,-90.9090909090909,4,2,2,40,0,1
93721,-90.9090909090909,4,2,4,40,0,1
94491,-90.9090909090909,4,2,2,40,0,1
94645,-90.9090909090909,4,2,4,40,0,1
95568,-90.9090909090909,4,2,2,40,0,1
95721,-90.9090909090909,4,2,4,50,0,1
96068,-90.9090909090909,4,2,4,40,0,0
96183,-90.9090909090909,4,2,3,40,0,1
96298,-90.9090909090909,4,2,4,40,0,0

[Colours]
Combo1 : 223,247,255
Combo2 : 173,254,177
Combo3 : 120,233,185

[HitObjects]
53,287,3875,2,0,P|107:335|186:324,1,150,12|2,0:3|0:3,0:0:0:0:
256,358,4568,1,8,0:3:0:0:
372,241,5029,2,0,P|416:248|448:248,2,75,4|10|2,0:3|0:3|0:3,0:0:0:0:
315,300,5721,6,0,B|322:251|322:251|302:200|302:200|309:146,1,150,4|2,0:3|0:3,0:0:0:0:
317,72,6414,1,8,0:3:0:0:
183,169,6875,1,4,0:3:0:0:
101,179,7106,1,10,0:3:0:0:
22,152,7337,1,2,0:3:0:0:
0,77,7568,6,0,L|7:238,1,150,4|2,0:3|0:3,0:0:0:0:
10,309,8260,1,8,0:3:0:0:
163,370,8721,1,4,0:3:0:0:
240,340,8952,2,0,B|266:341|266:341|287:347|287:347|314:347,1,75,10|2,0:3|0:3,0:0:0:0:
384,303,9414,6,0,P|413:238|377:168,1,150,4|2,0:3|0:3,0:0:0:0:
329,238,10106,1,8,0:3:0:0:
427,103,10568,2,0,L|411:25,2,75,4|10|4,0:3|0:3|0:3,0:0:0:0:
489,171,11260,6,0,P|430:135|351:151,1,150,12|2,0:3|0:3,0:0:0:0:
293,205,11952,1,8,0:3:0:0:
244,47,12414,1,4,0:3:0:0:
168,80,12645,2,0,P|130:85|86:69,1,75,10|2,0:3|0:3,0:0:0:0:
52,0,13106,6,0,B|58:42|58:42|47:103|47:103|54:150,1,150,4|2,0:3|0:3,0:0:0:0:
67,229,13798,1,8,0:3:0:0:
152,369,14260,1,4,0:3:0:0:
216,317,14491,1,10,0:3:0:0:
298,317,14721,1,2,0:3:0:0:
360,369,14952,6,0,P|431:379|487:331,1,150,4|2,0:3|0:3,0:0:0:0:
481,248,15645,1,8,0:3:0:0:
422,60,16106,1,4,0:3:0:0:
395,138,16337,2,0,L|407:216,1,75,10|2,0:3|0:3,0:0:0:0:
481,248,16798,6,0,P|409:228|348:273,1,150,4|2,0:3|0:3,0:0:0:0:
424,314,17491,1,8,0:3:0:0:
305,198,17952,1,4,0:3:0:0:
224,215,18183,1,10,0:3:0:0:
144,193,18414,1,0,0:3:0:0:
94,126,18645,6,0,L|105:40,1,75,4|0,0:3|0:0,0:0:0:0:
144,193,19106,2,0,L|134:275,1,75,4|0,0:2|0:0,0:0:0:0:
73,322,19568,1,4,0:3:0:0:
142,277,19798,1,4,0:2:0:0:
233,263,20029,1,4,0:2:0:0:
324,295,20260,1,0,0:0:0:0:
408,360,20491,6,0,P|480:374|538:329,1,150,12|10,0:3|0:3,0:0:0:0:
467,142,21414,2,0,B|471:193|471:193|452:238|452:238|458:289,1,150,12|10,0:3|0:3,0:0:0:0:
379,103,22337,2,0,L|387:177,2,75,12|2|2,0:3|0:3|0:3,0:0:0:0:
388,21,23029,1,10,0:3:0:0:
311,52,23260,2,0,B|253:52|253:52|220:84|166:80,1,150,12|2,0:3|0:3,0:0:0:0:
90,51,23952,1,0,0:3:0:0:
14,83,24183,6,0,P|-21:148|10:212,1,150,12|10,0:3|0:3,0:0:0:0:
144,318,25106,2,0,B|104:318|76:291|76:291|49:317|5:317,1,150,12|10,0:3|0:3,0:0:0:0:
151,212,26029,2,0,B|185:227|224:211|224:211|260:196|301:210,1,150,12|10,0:3|0:3,0:0:0:0:
373,241,26721,1,0,0:3:0:0:
448,208,26952,2,0,L|439:125,1,75,12|0,0:3|0:3,0:0:0:0:
468,46,27414,2,0,P|431:56|386:46,1,75,2|12,0:3|0:3,0:0:0:0:
318,27,27875,6,0,B|263:27|263:27|227:59|173:50,2,150,4|2|12,0:3|0:3|0:3,0:0:0:0:
417,158,29260,2,0,L|409:255,1,75,2|0,0:3|0:3,0:0:0:0:
465,299,29721,2,0,P|408:256|333:269,1,150,12|2,0:3|0:3,0:0:0:0:
186,149,30645,2,0,B|229:155|256:175|256:175|280:155|325:146,1,150,12|2,0:3|0:3,0:0:0:0:
177,268,31568,6,0,P|106:253|47:299,1,150,12|2,0:3|0:3,0:0:0:0:
125,340,32260,1,2,0:3:0:0:
125,340,32491,2,0,B|120:290|120:290|96:241|96:241|92:196,1,150,4|2,0:3|0:3,0:0:0:0:
176,212,33183,1,8,0:3:0:0:
175,200,33298,1,0,0:3:0:0:
173,190,33414,6,0,L|167:134,2,37.5,4|0|10,0:3|0:0|0:3,0:0:0:0:
256,150,33875,2,0,L|256:98,2,37.5,2|0|10,0:3|0:0|0:3,0:0:0:0:
339,190,34337,2,0,L|345:134,2,37.5,4|0|10,0:3|0:3|0:3,0:0:0:0:
256,239,34798,1,2,0:3:0:0:
256,252,34914,1,0,0:3:0:0:
256,266,35029,2,0,L|256:333,2,37.5,14|0|12,0:3|0:3|0:3,0:0:0:0:
467,376,35721,6,0,B|420:376|420:376|374:350|374:350|321:350,2,150,10|12|10,0:3|0:3|0:3,0:0:0:0:
250,384,37106,2,0,P|241:348|260:296,1,75,12|2,0:3|0:3,0:0:0:0:
285,237,37568,2,0,P|293:200|284:164,1,75,2|10,0:3|0:3,0:0:0:0:
208,121,38029,2,0,P|281:138|349:98,1,150,12|2,0:3|0:3,0:0:0:0:
378,28,38721,1,0,0:3:0:0:
378,28,38952,6,0,L|361:195,1,150,12|10,0:3|0:3,0:0:0:0:
134,28,39875,2,0,L|149:177,1,150,12|10,0:3|0:3,0:0:0:0:
325,301,40798,2,0,P|255:276|186:303,1,150,12|10,0:3|0:3,0:0:0:0:
111,336,41491,1,0,0:3:0:0:
114,253,41721,2,0,L|102:171,1,75,12|0,0:3|0:3,0:0:0:0:
209,125,42183,2,0,L|204:200,1,75,2|12,0:3|0:3,0:0:0:0:
157,57,42645,6,0,P|220:101|286:84,2,150,4|2|12,0:3|0:3|0:3,0:0:0:0:
359,46,44029,1,2,0:3:0:0:
354,128,44260,1,0,0:0:0:0:
348,210,44491,2,0,B|344:264|344:264|322:300|322:300|316:355,1,150,12|2,0:3|0:3,0:0:0:0:
164,210,45414,2,4,B|168:264|168:264|190:300|190:300|196:355,1,150,12|2,0:3|0:3,0:0:0:0:
257,218,46337,6,0,L|257:63,1,150,12|2,0:3|0:3,0:0:0:0:
318,8,47029,1,2,0:3:0:0:
318,8,47260,2,0,P|253:47|177:31,1,150,4|2,0:3|0:3,0:0:0:0:
102,16,47952,1,8,0:3:0:0:
103,28,48068,1,0,0:3:0:0:
105,41,48183,6,0,L|112:89,2,37.5,4|0|10,0:3|0:0|0:3,0:0:0:0:
39,124,48645,2,0,L|31:75,2,37.5,2|0|10,0:3|0:0|0:3,0:0:0:0:
126,157,49106,2,0,L|133:205,2,37.5,4|0|10,0:3|0:3|0:3,0:0:0:0:
60,242,49568,2,0,L|52:193,2,37.5,2|0|14,0:3|0:3|0:3,0:0:0:0:
62,254,49914,1,0,0:3:0:0:
64,267,50029,5,12,0:3:0:0:
313,205,51875,6,0,P|263:260|265:333,1,150,4|10,0:3|0:3,0:0:0:0:
273,126,52798,2,0,P|324:177|398:181,1,150,0|10,0:0|0:3,0:0:0:0:
193,164,53721,6,0,P|244:112|248:38,1,150,4|10,0:3|0:3,0:0:0:0:
226,249,54645,2,0,P|174:197|100:193,1,150,0|10,0:0|0:3,0:0:0:0:
255,134,55568,6,0,L|261:90,2,37.5,4|0|8,0:3|0:0|0:3,0:0:0:0:
322,181,56029,2,0,L|314:236,2,37.5,2|0|10,0:3|0:0|0:3,0:0:0:0:
375,287,56491,2,0,P|316:248|241:265,1,150,8|2,0:3|0:3,0:0:0:0:
136,137,57414,6,0,L|144:63,2,75,0|12|2,0:3|0:3|0:3,0:0:0:0:
126,219,58106,1,10,0:3:0:0:
206,195,58337,2,0,P|242:187|283:197,1,75,0|14,0:3|0:3,0:0:0:0:
365,221,58798,2,0,P|401:229|437:221,1,75,2|12,0:3|0:3,0:0:0:0:
479,131,59260,6,0,L|472:88,3,37.5,12|0|0|0,0:3|0:3|0:3|0:3,0:0:0:0:
482,54,59721,2,0,P|449:70|410:68,1,75,10|4,0:3|0:3,0:0:0:0:
332,43,60183,2,0,L|288:43,3,37.5,2|0|4|0,0:3|0:0|0:3|0:0,0:0:0:0:
254,30,60645,2,0,B|228:31|228:31|204:41|204:41|177:41,1,75,10|4,0:3|0:3,0:0:0:0:
98,31,61106,6,0,L|103:82,3,37.5,2|0|4|0,0:3|0:0|0:3|0:0,0:0:0:0:
73,98,61568,2,0,L|78:142,3,37.5,10|0|4|0,0:3|0:0|0:3|0:0,0:0:0:0:
110,159,62029,2,0,L|116:200,3,37.5,2|0|6|0,0:3|0:0|0:3|0:0,0:0:0:0:
87,226,62491,2,0,L|92:272,2,37.5,10|0|4,0:3|0:0|0:3,0:0:0:0:
158,313,62952,6,0,L|201:313,3,37.5,6|0|0|0,0:3|0:3|0:3|0:3,0:0:0:0:
228,337,63414,2,0,P|263:328|302:339,1,75,10|4,0:3|0:3,0:0:0:0:
358,280,63875,2,0,L|401:280,3,37.5,2|0|4|0,0:3|0:3|0:3|0:3,0:0:0:0:
428,255,64337,2,0,P|463:264|502:253,1,75,10|4,0:3|0:3,0:0:0:0:
463,180,64798,6,0,L|467:131,3,37.5,2|0|4|0,0:3|0:0|0:3|0:0,0:0:0:0:
485,106,65260,2,0,P|460:106|433:101,3,37.5,10|0|4|0,0:3|0:0|0:3|0:0,0:0:0:0:
409,88,65721,2,0,L|358:88,3,37.5,6|0|6|0,0:3|0:0|0:3|0:0,0:0:0:0:
331,99,66183,2,0,L|282:99,2,37.5,10|0|6,0:3|0:0|0:3,0:0:0:0:
219,129,66645,6,0,P|194:133|166:128,1,50,12|10,0:3|0:3,0:0:0:0:
115,77,66952,1,4,0:3:0:0:
115,77,67106,2,0,B|112:111|112:111|119:146|119:146|115:184,1,100,10|2,0:3|0:3,0:0:0:0:
97,249,67568,1,4,0:3:0:0:
169,233,67721,2,0,L|220:233,2,50,10|4|10,0:3|0:3|0:3,0:0:0:0:
368,285,68337,1,2,0:3:0:0:
367,286,68491,6,0,L|316:286,2,50,4|10|4,0:3|0:3|0:3,0:0:0:0:
437,311,68952,2,0,P|403:270|412:226,1,100,10|2,0:3|0:3,0:0:0:0:
453,164,69414,2,0,B|452:132|452:132|466:105|466:105|466:66,1,100,4|8,0:3|0:3,0:0:0:0:
502,1,69875,2,0,P|459:23|402:17,1,100,4|0,0:2|0:0,0:0:0:0:
338,47,70337,5,4,0:3:0:0:
268,17,70491,2,0,L|205:18,1,50,10|4,0:3|0:3,0:0:0:0:
149,47,70798,2,0,P|129:93|155:145,1,100,10|10,0:3|0:3,0:0:0:0:
127,210,71260,1,4,0:3:0:0:
109,282,71414,2,0,P|117:307|121:338,2,50,10|4|10,0:3|0:3|0:3,0:0:0:0:
237,380,72029,1,2,0:3:0:0:
238,380,72183,6,0,L|183:380,2,50,4|10|4,0:3|0:3|0:3,0:0:0:0:
304,345,72645,2,0,B|331:348|352:359|352:359|376:348|401:345,1,100,10|2,0:3|0:3,0:0:0:0:
470,370,73106,2,0,P|439:329|447:281,1,100,12|4,0:3|0:3,0:0:0:0:
483,217,73568,2,0,P|489:171|461:125,1,100,10|2,0:3|0:3,0:0:0:0:
483,54,74029,5,4,0:3:0:0:
449,121,74183,1,10,0:3:0:0:
376,140,74337,1,4,0:3:0:0:
304,117,74491,2,0,B|267:117|267:117|243:139|208:138,1,100,10|2,0:3|0:3,0:0:0:0:
215,62,74952,1,4,0:3:0:0:
215,62,75106,2,0,L|220:0,2,50,10|4|10,0:3|0:3|0:3,0:0:0:0:
292,196,75721,1,2,0:3:0:0:
292,196,75875,6,0,L|288:260,1,50,4|10,0:3|0:3,0:0:0:0:
280,320,76183,1,4,0:3:0:0:
350,294,76337,2,0,B|372:302|398:294|398:294|424:287|449:293,1,100,10|2,0:3|0:3,0:0:0:0:
506,244,76798,2,0,P|523:198|504:153,1,100,4|8,0:3|0:3,0:0:0:0:
441,114,77260,2,0,B|416:120|390:113|390:113|364:105|342:113,1,100,4|0,0:2|0:0,0:0:0:0:
257,80,77721,6,0,L|257:27,2,50,4|10|4,0:3|0:3|0:3,0:0:0:0:
171,113,78183,2,0,B|135:114|135:114|107:127|107:127|71:128,1,100,10|2,0:3|0:3,0:0:0:0:
1,106,78645,1,4,0:3:0:0:
17,178,78798,2,0,L|26:227,2,50,10|4|10,0:3|0:3|0:3,0:0:0:0:
102,325,79414,1,2,0:3:0:0:
103,326,79568,6,0,L|112:277,2,50,4|10|4,0:3|0:3|0:3,0:0:0:0:
56,384,80029,2,0,P|106:369|156:379,1,100,10|4,0:3|0:3,0:0:0:0:
227,383,80491,1,12,0:3:0:0:
298,359,80645,1,2,0:3:0:0:
333,293,80798,1,2,0:3:0:0:
320,219,80952,1,12,0:3:0:0:
320,219,81414,6,0,L|323:151,1,55.0000016784668,12|10,0:3|0:3,0:0:0:0:
326,81,81721,1,4,0:3:0:0:
369,10,81875,2,0,P|322:33|262:26,1,110.000003356934,10|2,0:3|0:3,0:0:0:0:
185,5,82337,1,4,0:3:0:0:
104,23,82491,2,0,L|39:23,2,55.0000016784668,10|4|10,0:3|0:3|0:3,0:0:0:0:
0,149,83106,1,2,0:3:0:0:
1,150,83260,6,0,L|60:150,2,55.0000016784668,4|10|4,0:3|0:3|0:3,0:0:0:0:
127,189,83721,2,0,P|183:200|232:173,1,110.000003356934,10|2,0:3|0:3,0:0:0:0:
287,119,84183,2,0,L|278:234,1,110.000003356934,4|8,0:3|0:3,0:0:0:0:
264,310,84645,2,0,B|299:316|325:296|325:296|374:296,1,110.000003356934,4|0,0:2|0:0,0:0:0:0:
420,230,85106,6,0,L|479:229,2,55.0000016784668,4|10|4,0:3|0:3|0:3,0:0:0:0:
373,161,85568,2,0,B|327:161|327:161|301:141|266:147,1,110.000003356934,10|2,0:3|0:3,0:0:0:0:
217,228,86029,1,4,0:3:0:0:
217,228,86183,2,0,L|282:228,2,55.0000016784668,10|4|10,0:3|0:3|0:3,0:0:0:0:
428,161,86798,1,2,0:3:0:0:
428,161,86952,6,0,L|365:162,2,55.0000016784668,4|10|4,0:3|0:3|0:3,0:0:0:0:
499,202,87414,2,0,P|472:156|486:102,1,110.000003356934,10|10,0:3|0:3,0:0:0:0:
506,24,87875,2,0,B|469:24|469:24|436:35|436:35|395:35,1,110.000003356934,12|4,0:3|0:3,0:0:0:0:
318,60,88337,2,0,P|269:77|215:61,1,110.000003356934,10|2,0:3|0:3,0:0:0:0:
136,34,88798,5,4,0:3:0:0:
149,115,88952,2,0,L|158:172,1,55.0000016784668,10|4,0:3|0:3,0:0:0:0:
116,238,89260,2,0,P|164:215|226:226,1,110.000003356934,10|2,0:3|0:3,0:0:0:0:
294,255,89721,1,4,0:3:0:0:
370,223,89875,2,0,L|427:223,2,55.0000016784668,10|4|10,0:3|0:3|0:3,0:0:0:0:
204,115,90491,1,2,0:3:0:0:
204,115,90645,6,0,L|140:115,2,55.0000016784668,4|10|4,0:3|0:3|0:3,0:0:0:0:
201,30,91106,2,0,B|231:30|254:43|254:43|277:30|306:30,1,110.000003356934,10|2,0:3|3:0,0:0:0:0:
305,115,91568,2,0,B|342:116|342:116|374:128|374:128|414:128,1,110.000003356934,4|8,0:3|0:3,0:0:0:0:
486,90,92029,2,0,P|495:151|466:194,1,110.000003356934,4|0,0:2|0:0,0:0:0:0:
472,273,92491,5,4,0:3:0:0:
398,241,92645,2,0,L|338:241,1,55.0000016784668,10|4,0:3|0:3,0:0:0:0:
268,277,92952,2,0,P|220:296|163:280,1,110.000003356934,10|2,0:3|0:3,0:0:0:0:
93,240,93414,1,4,0:3:0:0:
101,157,93568,2,0,L|108:103,2,55.0000016784668,10|4|10,0:3|0:3|0:3,0:0:0:0:
239,29,94183,1,2,0:3:0:0:
239,29,94337,6,0,L|232:90,2,55.0000016784668,4|10|4,0:3|0:3|0:3,0:0:0:0:
184,139,94798,2,0,P|230:122|288:133,1,110.000003356934,10|2,0:3|3:0,0:0:0:0:
355,181,95260,2,0,P|385:175|413:165,2,55.0000016784668,12|0|6,0:3|0:0|0:3,0:0:0:0:
299,242,95721,2,0,P|269:233|240:229,2,55.0000016784668,10|2|2,0:3|0:3|0:3,0:0:0:0:
361,296,96183,5,12,0:3:0:0:
