osu file format v11

[General]
AudioFilename: Vertical Horizon - Everything You Want.mp3
AudioLeadIn: 0
PreviewTime: 61352
Countdown: 0
SampleSet: Soft
StackLeniency: 0.7
Mode: 0
LetterboxInBreaks: 0

[Editor]
DistanceSpacing: 0.8
BeatDivisor: 4
GridSize: 8

[Metadata]
Title:Everything You Want
TitleUnicode:Everything You Want
Artist:Vertical Horizon
ArtistUnicode:Vertical Horizon
Creator:Behonkiss
Version:Normal
Source:
Tags:alternative rock 90s
BeatmapID:70389
BeatmapSetID:20111

[Difficulty]
HPDrainRate:4
CircleSize:4
OverallDifficulty:4
ApproachRate:6
SliderMultiplier:2.4
SliderTickRate:2

[Events]
//Background and Video events
0,0,"verticalhorizon.jpg"
Video,10900,"everythingyouwant.avi"
//Break Periods
2,41955,60507
2,82836,91807
2,168501,176839
//Storyboard Layer 0 (Background)
//Storyboard Layer 1 (Fail)
//Storyboard Layer 2 (Pass)
//Storyboard Layer 3 (Foreground)
//Storyboard Sound Samples
//Background Colour Transformations
3,100,163,162,255

[TimingPoints]
21314.4891569055,638.773554774832,4,2,0,80,1,0
41116,-100,4,1,0,80,0,0
62196,-100,4,1,0,80,0,1
82637,-100,4,1,0,80,0,0
92857,-100,4,2,0,80,0,0
112672,639.590661976335,4,1,0,80,1,0
113311,-100,4,1,0,80,0,1
133780,639.181847235539,4,1,0,79,1,0
158075,639.181847235539,4,2,0,79,1,0
177889,-100,4,1,0,79,0,0
178528,-100,4,1,0,79,0,1
205294,-100,4,1,0,79,0,0
205374,-100,4,1,0,79,0,1
219436,-100,4,1,0,79,0,0

[HitObjects]
256,80,21314,1,4,0:0:0
360,176,21793,1,2,0:0:0
360,272,22112,1,0,0:0:0
360,272,22272,2,0,B|248:328|80:264,1,240,2|8,0:0|0:0,0:0:0
64,208,23230,2,8,B|32:136|80:24|224:32,1,240,8|0,0:0|0:0,0:0:0
320,32,24348,5,2,0:0:0
256,104,24668,1,0,0:0:0
256,104,24827,1,2,0:0:0
344,144,25147,1,8,0:0:0
432,184,25466,1,8,0:0:0
360,248,25785,2,0,B|312:360|128:352,1,240,8|0,0:0|0:0,0:0:0
72,240,26903,5,2,0:0:0
96,144,27223,1,0,0:0:0
96,144,27382,1,0,0:0:0
184,112,27702,2,2,B|376:112,2,180,2|2|0,0:0|0:0|0:0,0:0:0
160,200,28979,5,8,0:0:0
256,304,29458,1,8,0:0:0
336,184,29937,2,0,B|448:224|504:64|368:24,1,240,8|0,0:0|0:0,0:0:0
312,48,30896,1,0,0:0:0
216,48,31215,1,0,0:0:0
120,48,31534,1,4,0:0:0
40,104,31854,5,0,0:0:0
40,104,32013,1,2,0:0:0
40,200,32333,1,0,0:0:0
40,200,32493,1,2,0:0:0
184,328,33131,2,8,B|312:328,1,120
440,192,34089,1,0,0:0:0
336,88,34569,5,2,0:0:0
192,88,35048,1,2,0:0:0
104,120,35367,2,0,B|56:144|56:192|120:224,2,120
176,176,36325,1,0,0:0:0
176,272,36645,1,0,0:0:0
32,240,37124,5,2,0:0:0
80,328,37443,1,2,0:0:0
176,328,37762,2,2,B|328:344|464:256|520:80,1,420
432,48,39200,1,8,0:0:0
288,48,39679,2,0,B|256:152|104:152,2,180,8|8|0,0:0|0:0|0:0,0:0:0
144,72,41116,5,0,0:0:0
80,144,41435,1,0,0:0:0
16,216,41755,1,4,0:0:0
440,328,61557,6,2,B|504:224|432:72,1,240,2|6,0:0|0:0,0:0:0
344,96,62515,1,0,0:0:0
256,48,62834,1,0,0:0:0
168,96,63154,1,8,0:0:0
80,48,63473,1,8,0:0:0
232,160,64112,6,2,B|104:192|48:352,1,240,2|6,0:0|0:0,0:0:0
160,296,65070,1,0,0:0:0
248,336,65389,1,0,0:0:0
336,296,65709,1,8,0:0:0
424,336,66028,1,8,0:0:0
376,152,66667,6,0,B|128:152,2,240,2|6|0,0:0|0:0|0:0,0:0:0
408,64,68264,1,0,0:0:0
312,64,68583,1,8,0:0:0
216,64,68903,1,8,0:0:0
120,64,69222,1,8,0:0:0
64,144,69541,1,0,0:0:0
40,240,69861,2,0,B|40:320|112:344|192:320|192:232,2,240,2|2|4,0:0|0:0|0:0,0:0:0
208,144,71777,5,2,0:0:0
208,144,72096,1,2,0:0:0
208,144,72416,1,4,0:0:0
256,328,73055,1,8,0:0:0
424,240,73693,1,8,0:0:0
320,80,74332,5,2,0:0:0
320,80,74652,1,2,0:0:0
320,80,74971,1,4,0:0:0
456,216,75610,1,8,0:0:0
456,120,75929,1,8,0:0:0
264,152,76568,2,2,B|112:88|16:328|216:368,1,360,2|6,0:0|0:0,0:0:0
272,336,77845,5,0,0:0:0
360,288,78165,1,2,0:0:0
448,248,78484,1,0,0:0:0
448,152,78804,2,0,B|448:24,3,120,8|8|2|0,0:0|0:0|0:0|0:0,0:0:0
368,80,80081,1,0,0:0:0
176,48,80720,6,0,B|40:120|40:256|184:336,2,360,2|0|4,0:0|0:0|0:0,0:0:0
152,312,92857,5,4,0:0:0
64,200,93336,1,2,0:0:0
64,104,93655,1,0,0:0:0
136,40,93974,1,0,0:0:0
136,136,94294,2,8,B|168:240|288:216,1,180
400,72,95412,1,0,0:0:0
400,216,95891,5,2,0:0:0
400,312,96210,1,0,0:0:0
264,264,96689,2,0,B|144:320|24:256,2,240,8|8|0,0:0|0:0|0:0,0:0:0
144,176,98446,5,2,0:0:0
72,112,98765,1,0,0:0:0
8,40,99085,1,0,0:0:0
104,32,99404,2,2,B|224:32|232:160,1,180
328,136,100203,5,0,0:0:0
384,208,100522,1,8,0:0:0
488,104,101001,1,8,0:0:0
488,248,101480,2,0,B|464:384|296:368,2,240,8|0|0,0:0|0:0|0:0,0:0:0
424,176,103077,1,4,0:0:0
296,248,103556,5,2,0:0:0
216,192,103875,1,0,0:0:0
120,192,104195,1,2,0:0:0
152,280,104514,2,8,B|72:280|32:232|32:160,1,180
32,80,105313,1,0,0:0:0
32,80,105632,1,0,0:0:0
168,48,106111,5,2,0:0:0
312,48,106590,1,0,0:0:0
240,112,106910,1,8,0:0:0
240,208,107229,1,8,0:0:0
240,304,107548,1,8,0:0:0
320,256,107868,1,8,0:0:0
320,160,108187,1,4,0:0:0
440,72,108666,5,2,0:0:0
440,168,108986,1,0,0:0:0
440,264,109305,2,2,B|432:352|336:352,2,120
296,296,110423,1,0,0:0:0
200,296,110742,2,8,B|-8:296,2,180
488,328,112672,6,2,B|536:208|480:72,1,240,2|6,0:0|0:0,0:0:0
392,88,113631,1,0,0:0:0
304,48,113951,1,0,0:0:0
216,88,114270,1,8,0:0:0
128,48,114590,1,8,0:0:0
280,168,115230,6,2,B|144:192|96:360,1,240,2|6,0:0|0:0,0:0:0
208,312,116189,1,0,0:0:0
304,336,116509,1,0,0:0:0
400,312,116829,1,8,0:0:0
496,336,117149,1,8,0:0:0
424,152,117788,6,2,B|176:152,2,240,2|6|2,0:0|0:0|0:0,0:0:0
448,64,119387,1,0,0:0:0
352,64,119707,1,8,0:0:0
256,64,120027,1,8,0:0:0
160,64,120347,1,8,0:0:0
96,136,120666,1,0,0:0:0
96,232,120986,2,0,B|96:312|168:336|248:312|248:224,2,240,2|2|4,0:0|0:0|0:0,0:0:0
256,128,122905,5,2,0:0:0
256,128,123225,1,2,0:0:0
256,128,123545,1,4,0:0:0
304,312,124184,1,8,0:0:0
472,224,124824,1,8,0:0:0
360,72,125463,5,2,0:0:0
360,72,125783,1,2,0:0:0
360,72,126103,1,4,0:0:0
496,208,126742,1,8,0:0:0
496,112,127062,1,8,0:0:0
304,152,127702,2,2,B|120:96|88:336|248:352,1,360,2|6,0:0|0:0,0:0:0
320,328,128981,5,0,0:0:0
408,296,129301,1,2,0:0:0
496,256,129621,1,0,0:0:0
496,160,129940,2,0,B|496:32,3,120,8|8|2|0,0:0|0:0|0:0|0:0,0:0:0
416,96,131220,1,0,0:0:0
232,40,131859,6,2,B|88:72|64:288|288:296,2,360,2|2|6,0:0|0:0|0:0,0:0:0
384,160,134419,5,8,0:0:0
384,352,135058,1,0,0:0:0
288,352,135377,1,2,0:0:0
192,352,135697,1,2,0:0:0
96,352,136017,2,0,B|-32:280|16:120,1,240,2|8,0:0|0:0,0:0:0
176,48,137295,5,0,0:0:0
272,48,137615,1,2,0:0:0
368,48,137934,1,2,0:0:0
448,104,138254,1,2,0:0:0
448,200,138573,2,0,B|336:296|224:192,1,240,2|8,0:0|0:0,0:0:0
120,48,139852,5,0,0:0:0
24,48,140171,1,0,0:0:0
0,144,140491,1,0,0:0:0
0,240,140811,1,2,0:0:0
0,336,141130,1,2,0:0:0
80,288,141450,5,8,0:0:0
224,288,141929,1,8,0:0:0
112,200,142408,2,0,B|136:-32|312:0|464:-24|496:200,1,600,8|4,0:0|0:0,0:0:0
328,304,144646,5,8,0:0:0
256,128,145285,1,0,0:0:0
256,32,145604,1,2,0:0:0
352,32,145924,1,2,0:0:0
352,128,146244,2,0,B|472:136|496:224|488:304,1,240,2|8,0:0|0:0,0:0:0
296,304,147522,5,0,0:0:0
200,304,147842,1,2,0:0:0
104,304,148161,1,2,0:0:0
40,240,148481,1,2,0:0:0
40,144,148800,2,0,B|104:32|272:48,1,240,2|8,0:0|0:0,0:0:0
392,168,150079,5,0,0:0:0
296,168,150398,1,2,0:0:0
200,168,150718,1,2,0:0:0
248,248,151037,1,8,0:0:0
344,248,151357,1,8,0:0:0
296,328,151677,2,4,B|104:328,1,180
256,192,152635,12,4,158075,0:0:0
456,56,158554,6,0,B|360:128|464:208,1,180,2|0,0:0|0:0,0:0:0
456,296,159353,2,2,B|352:384|224:296,2,240,2|2|8,0:0|0:0|0:0,0:0:0
344,200,161111,1,0,0:0:0
344,56,161590,1,0,0:0:0
248,56,161910,2,2,B|96:48|16:168,2,240,2|2|8,0:0|0:0|0:0,0:0:0
160,168,163667,5,2,0:0:0
272,320,164307,2,2,B|408:320|464:176,1,240
400,64,165425,1,0,0:0:0
400,64,165745,1,8,0:0:0
256,64,166224,1,8,0:0:0
112,64,166703,2,0,B|120:192|264:264,2,240,8|0|0,0:0|0:0|0:0,0:0:0
16,64,168301,1,4,0:0:0
24,328,177889,6,2,B|-24:200|32:72,1,240,2|6,0:0|0:0,0:0:0
120,96,178848,1,0,0:0:0
208,48,179168,1,0,0:0:0
296,96,179487,1,8,0:0:0
384,48,179807,1,8,0:0:0
240,152,180446,6,2,B|360:200|424:344,1,240,2|6,0:0|0:0,0:0:0
312,336,181405,1,0,0:0:0
216,336,181724,1,0,0:0:0
120,336,182044,1,8,0:0:0
24,336,182363,1,8,0:0:0
88,160,183003,6,0,B|336:160,2,240,2|4|0,0:0|0:0|0:0,0:0:0
64,64,184601,1,0,0:0:0
160,64,184920,1,8,0:0:0
256,64,185240,1,8,0:0:0
352,64,185559,1,8,0:0:0
400,144,185879,1,0,0:0:0
424,240,186199,2,0,B|424:320|344:336|272:320|272:232,2,240,2|2|4,0:0|0:0|0:0,0:0:0
256,144,188116,5,2,0:0:0
256,144,188436,1,2,0:0:0
256,144,188755,1,4,0:0:0
208,328,189394,1,8,0:0:0
40,240,190034,1,8,0:0:0
144,80,190673,5,2,0:0:0
144,80,190992,1,2,0:0:0
144,80,191312,1,4,0:0:0
8,216,191951,1,8,0:0:0
8,120,192271,1,8,0:0:0
200,152,192910,2,2,B|368:80|456:312|264:368,1,360,2|6,0:0|0:0,0:0:0
216,336,194188,5,0,0:0:0
128,296,194508,1,2,0:0:0
40,256,194827,1,0,0:0:0
40,160,195147,2,0,B|40:32,3,120,8|8|2|0,0:0|0:0|0:0|0:0,0:0:0
120,88,196425,1,0,0:0:0
320,88,197065,2,2,B|416:128|416:240|304:272,1,240,2|6,0:0|0:0,0:0:0
176,288,198183,6,2,B|232:368|360:352,1,180
424,328,198982,1,4,0:0:0
480,248,199302,1,0,0:0:0
480,152,199621,2,0,B|480:8,2,120,0|8|8,0:0|0:0|0:0,0:0:0
312,64,200900,5,0,0:0:0
216,64,201219,1,0,0:0:0
120,64,201539,1,6,0:0:0
24,64,201858,1,2,0:0:0
72,144,202178,2,8,B|72:288,2,120,0|8|8,0:0|0:0|0:0,0:0:0
208,280,203456,5,2,0:0:0
304,280,203776,1,2,0:0:0
400,280,204096,2,0,B|408:136|240:120,1,240,4|0,0:0|0:0,0:0:0
160,120,205054,1,0,0:0:0
224,48,205374,2,0,B|376:40|464:152,1,240,4|0,0:0|0:0,0:0:0
472,216,206333,5,0,0:0:0
472,312,206652,1,2,0:0:0
392,264,206972,1,2,0:0:0
296,264,207292,2,8,B|176:264,2,120
216,88,208570,5,0,0:0:0
216,88,208889,1,0,0:0:0
216,88,209209,1,4,0:0:0
216,88,209529,1,0,0:0:0
120,88,209848,2,0,B|16:160|16:304,1,240,2|2,0:0|0:0,0:0:0
200,336,211127,5,8,0:0:0
296,336,211446,1,8,0:0:0
392,336,211766,1,6,0:0:0
344,256,212085,1,2,0:0:0
248,256,212405,1,0,0:0:0
296,176,212725,1,2,0:0:0
472,96,213364,2,2,B|352:32|200:88,1,240
144,88,214323,5,4,0:0:0
48,88,214642,1,0,0:0:0
48,184,214962,1,2,0:0:0
144,184,215281,1,0,0:0:0
96,272,215601,2,8,B|256:272,1,120
312,272,216240,1,0,0:0:0
408,272,216560,1,0,0:0:0
504,272,216879,1,0,0:0:0
256,192,217359,12,4,219436,0:0:0
