osu file format v11

[General]
AudioFilename: Vertical Horizon - Everything You Want.mp3
AudioLeadIn: 0
PreviewTime: 61352
Countdown: 0
SampleSet: Soft
StackLeniency: 0.7
Mode: 0
LetterboxInBreaks: 0

[Editor]
DistanceSpacing: 1
BeatDivisor: 4
GridSize: 8

[Metadata]
Title:Everything You Want
TitleUnicode:Everything You Want
Artist:Vertical Horizon
ArtistUnicode:Vertical Horizon
Creator:Behonkiss
Version:Easy
Source:
Tags:alternative rock 90s
BeatmapID:70387
BeatmapSetID:20111

[Difficulty]
HPDrainRate:3
CircleSize:3
OverallDifficulty:3
ApproachRate:3
SliderMultiplier:1.6
SliderTickRate:2

[Events]
//Background and Video events
0,0,"verticalhorizon.jpg"
Video,10900,"everythingyouwant.avi"
//Break Periods
2,41955,60117
2,82516,92055
2,168500,176449
//Storyboard Layer 0 (Background)
//Storyboard Layer 1 (Fail)
//Storyboard Layer 2 (Pass)
//Storyboard Layer 3 (Foreground)
//Storyboard Sound Samples
//Background Colour Transformations
3,100,163,162,255

[TimingPoints]
21314.4891569055,638.773554774832,4,2,0,80,1,0
41116,-100,4,1,0,80,0,0
62196,-100,4,1,0,80,0,1
82637,-100,4,1,0,80,0,0
92857,-100,4,2,0,80,0,0
112672,639.590661976335,4,1,0,80,1,0
113311,-100,4,1,0,80,0,1
133780,639.181847235539,4,1,0,79,1,0
158075,639.181847235539,4,2,0,79,1,0
177889,-100,4,1,0,79,0,0
178528,-100,4,1,0,79,0,1
205294,-100,4,1,0,79,0,0
205374,-100,4,1,0,79,0,1
219436,-100,4,1,0,79,0,0

[HitObjects]
40,96,21314,1,4,0:0:0
40,216,21793,2,2,B|48:288|136:312,1,120
272,328,22911,1,8,0:0:0
352,328,23230,2,0,B|352:168,1,160,8|0,0:0|0:0,0:0:0
408,64,24348,6,0,B|352:24|296:64,1,120
216,64,25147,1,2,0:0:0
136,64,25466,1,0,0:0:0
56,64,25785,1,2,0:0:0
192,312,26903,6,0,B|344:312,1,120
296,232,27702,2,2,B|440:232,1,120
456,120,28660,5,0,0:0:0
376,120,28979,1,8,0:0:0
256,120,29458,1,8,0:0:0
136,120,29937,2,0,B|-48:136|-56:360|160:352,1,400,8|4,0:0|0:0,0:0:0
136,232,32013,5,2,0:0:0
256,232,32493,2,0,B|424:232,1,160,2|8,0:0|0:0,0:0:0
496,232,33451,1,8,0:0:0
240,336,34569,5,2,0:0:0
120,336,35048,1,0,0:0:0
48,304,35367,2,2,B|32:112|232:88,1,320
352,88,37124,5,8,0:0:0
416,136,37443,1,8,0:0:0
480,184,37762,2,0,B|480:336|368:360|208:344,1,360,2|2,0:0|0:0,0:0:0
160,240,39679,1,2,0:0:0
280,240,40158,1,2,0:0:0
432,56,41116,5,8,0:0:0
272,56,41755,1,4,0:0:0
256,40,61557,6,0,B|272:144|400:136,1,160,0|4,0:0|0:0,0:0:0
328,288,62834,1,0,0:0:0
168,288,63473,1,2,0:0:0
40,192,64112,6,0,B|48:88|152:72,1,160,0|4,0:0|0:0,0:0:0
256,184,65389,1,0,0:0:0
416,184,66028,1,2,0:0:0
336,320,66667,6,0,B|256:368|168:312,1,160,0|4,0:0|0:0,0:0:0
256,184,67944,1,8,0:0:0
336,48,68583,1,2,0:0:0
176,48,69222,1,8,0:0:0
24,96,69861,5,0,0:0:0
24,256,70500,1,8,0:0:0
24,336,70819,1,0,0:0:0
104,336,71138,1,8,0:0:0
264,336,71777,6,0,B|384:344|384:224,1,160,0|4,0:0|0:0,0:0:0
448,112,73055,1,0,0:0:0
304,48,73693,1,2,0:0:0
256,200,74332,5,8,0:0:0
256,280,74652,1,8,0:0:0
184,240,74971,1,4,0:0:0
80,112,75610,5,0,0:0:0
0,112,75929,1,2,0:0:0
40,264,76568,2,2,B|128:360|272:336,1,240,2|6,0:0|0:0,0:0:0
400,272,78165,5,8,0:0:0
400,112,78804,1,2,0:0:0
256,184,79442,1,8,0:0:0
96,184,80081,1,0,0:0:0
56,32,80720,6,2,B|248:104|464:24,1,400,2|6,0:0|0:0,0:0:0
88,304,93495,5,8,0:0:0
88,184,93974,1,0,0:0:0
168,184,94294,2,2,B|312:184,1,120
400,304,95412,1,8,0:0:0
456,200,95891,5,0,0:0:0
424,88,96370,1,0,0:0:0
344,64,96689,2,0,B|184:8|16:72,1,320,2|8,0:0|0:0,0:0:0
112,200,98606,5,2,0:0:0
224,312,99244,1,0,0:0:0
384,312,99883,1,2,0:0:0
464,312,100203,1,0,0:0:0
464,232,100522,5,8,0:0:0
400,136,101001,1,8,0:0:0
296,72,101480,2,0,B|172:68|16:128|8:320,1,400,8|4,0:0|0:0,0:0:0
168,320,103716,5,8,0:0:0
320,272,104355,2,2,B|400:240|392:136,1,160
88,56,106271,5,8,0:0:0
40,208,106910,2,0,B|112:312|248:312|328:184,1,320,2|0,0:0|0:0,0:0:0
392,72,108826,5,8,0:0:0
416,192,109305,2,0,B|416:280,2,80,0|0|0,0:0|0:0|0:0,0:0:0
264,328,110742,5,0,0:0:0
104,328,111381,2,2,B|40:264|48:176,1,160
128,48,112672,6,0,B|144:152|272:144,1,160,0|4,0:0|0:0,0:0:0
312,288,113951,1,0,0:0:0
152,288,114590,1,2,0:0:0
32,184,115230,6,0,B|32:88|144:64,1,160,0|4,0:0|0:0,0:0:0
248,176,116509,1,0,0:0:0
408,176,117149,1,2,0:0:0
336,320,117788,6,0,B|168:320,1,160,0|4,0:0|0:0,0:0:0
256,176,119067,1,8,0:0:0
336,40,119707,1,2,0:0:0
176,40,120347,1,8,0:0:0
24,88,120986,5,0,0:0:0
24,248,121626,1,8,0:0:0
24,328,121946,1,8,0:0:0
104,328,122265,1,8,0:0:0
264,328,122905,6,0,B|384:336|384:216,1,160,0|4,0:0|0:0,0:0:0
448,104,124184,1,0,0:0:0
296,56,124824,1,2,0:0:0
256,208,125463,5,8,0:0:0
256,288,125783,1,8,0:0:0
184,248,126103,1,4,0:0:0
120,104,126742,5,0,0:0:0
40,104,127062,1,2,0:0:0
40,264,127702,2,2,B|128:360|264:352,1,240,2|6,0:0|0:0,0:0:0
392,272,129301,5,8,0:0:0
392,112,129940,1,2,0:0:0
248,184,130580,1,8,0:0:0
88,184,131220,1,2,0:0:0
16,40,131859,6,0,B|256:96|512:32,1,480,0|4,0:0|0:0,0:0:0
448,192,134419,1,8,0:0:0
368,336,135058,6,0,B|256:280|120:344,1,240,0|2,0:0|0:0,0:0:0
48,208,136656,1,8,0:0:0
96,56,137295,6,0,B|256:104|424:48,1,320,0|2,0:0|0:0,0:0:0
344,192,139213,1,8,0:0:0
136,304,140171,5,0,0:0:0
296,304,140811,1,2,0:0:0
456,304,141450,2,0,B|512:264|480:176,2,120,4|4|4,0:0|0:0|0:0,0:0:0
256,40,144006,5,4,0:0:0
256,200,144646,1,8,0:0:0
128,112,145285,2,0,B|16:168|24:312,1,240,0|2,0:0|0:0,0:0:0
264,352,147202,5,8,0:0:0
408,288,147842,2,0,B|496:184|408:64,1,240,0|2,0:0|0:0,0:0:0
168,72,149759,1,8,0:0:0
56,184,150398,5,0,0:0:0
120,328,151037,1,2,0:0:0
280,328,151677,2,2,B|424:328,1,120
256,192,152635,8,4,158075,0:0:0
56,40,158714,5,8,0:0:0
56,200,159353,2,0,B|80:312|184:368|328:336,1,320,2|8,0:0|0:0,0:0:0
424,232,161270,5,0,0:0:0
424,72,161910,2,2,B|352:16|272:72,2,160,2|2|8,0:0|0:0|0:0,0:0:0
360,216,163827,5,0,0:0:0
200,216,164466,2,2,B|104:248|32:176,1,160
168,88,165745,5,8,0:0:0
288,88,166224,1,8,0:0:0
408,88,166703,2,0,B|408:224|288:336|112:320,1,400,8|4,0:0|0:0,0:0:0
256,40,177889,6,0,B|272:144|400:136,1,160,0|4,0:0|0:0,0:0:0
328,288,179168,1,0,0:0:0
168,288,179807,1,2,0:0:0
40,192,180446,6,0,B|48:88|152:72,1,160,0|4,0:0|0:0,0:0:0
256,184,181724,1,0,0:0:0
416,184,182363,1,2,0:0:0
328,320,183003,6,0,B|160:320,1,160,0|4,0:0|0:0,0:0:0
256,184,184281,1,8,0:0:0
336,48,184920,1,2,0:0:0
176,48,185559,1,8,0:0:0
24,88,186199,5,0,0:0:0
24,248,186838,1,8,0:0:0
24,328,187157,1,0,0:0:0
104,328,187477,1,8,0:0:0
264,328,188116,6,0,B|384:336|384:216,1,160,0|4,0:0|0:0,0:0:0
448,104,189394,1,0,0:0:0
296,56,190034,1,2,0:0:0
256,208,190673,5,8,0:0:0
256,208,190992,1,8,0:0:0
256,208,191312,1,4,0:0:0
104,152,191951,5,0,0:0:0
104,152,192271,1,2,0:0:0
8,280,192910,2,2,B|96:376|240:368,1,240,2|6,0:0|0:0,0:0:0
360,288,194508,5,8,0:0:0
360,128,195147,1,2,0:0:0
216,200,195786,1,8,0:0:0
56,200,196425,1,0,0:0:0
144,72,197065,5,8,0:0:0
144,72,197384,1,8,0:0:0
144,72,197704,1,0,0:0:0
264,72,198183,6,2,B|416:72,1,120
384,152,198982,2,0,B|480:152|496:256,2,160,4|0|2,0:0|0:0|0:0,0:0:0
296,280,200900,5,8,0:0:0
216,280,201219,1,8,0:0:0
136,280,201539,2,0,B|32:280|-8:368,2,160,4|0|2,0:0|0:0|0:0,0:0:0
288,328,203456,5,8,0:0:0
368,328,203776,1,8,0:0:0
448,328,204096,2,0,B|520:288|512:192,3,160,4|2|4|2,0:0|0:0|0:0|0:0,0:0:0
384,96,206652,5,0,0:0:0
224,96,207292,1,2,0:0:0
224,96,207611,1,2,0:0:0
224,96,207931,1,2,0:0:0
72,56,208570,6,0,B|32:128|40:224,1,160,8|12,0:0|0:0,0:0:0
152,328,209848,1,0,0:0:0
312,328,210487,1,2,0:0:0
224,192,211127,5,0,0:0:0
384,192,211766,1,12,0:0:0
464,192,212085,1,8,0:0:0
336,88,212725,5,2,0:0:0
176,88,213364,2,2,B|32:112|16:264,1,240,2|6,0:0|0:0,0:0:0
160,320,214962,5,8,0:0:0
320,320,215601,1,0,0:0:0
240,184,216240,1,8,0:0:0
400,184,216879,1,0,0:0:0
256,192,217518,8,4,219436,0:0:0
