osu file format v14

[General]
AudioFilename: terteterterterterterte.mp3
AudioLeadIn: 0
PreviewTime: 11630
Countdown: 0
SampleSet: None
StackLeniency: 0.7
Mode: 0
LetterboxInBreaks: 0
WidescreenStoryboard: 0

[Editor]
Bookmarks: 45975,99354
DistanceSpacing: 0.9
BeatDivisor: 2
GridSize: 4
TimelineZoom: 0.8999996

[Metadata]
Title:Novogodnyaya
TitleUnicode:Новогодняя
Artist:Verka Serdyuchka
ArtistUnicode:Верка Сердючка
Creator:Marmowka
Version:Normal Collab
Source:
Tags:андрей данилко russian new year pop christmas bakari namki
BeatmapID:824036
BeatmapSetID:376376

[Difficulty]
HPDrainRate:4
CircleSize:3
OverallDifficulty:4
ApproachRate:5
SliderMultiplier:1.3
SliderTickRate:1

[Events]
//Background and Video events
0,0,"016.jpg",0,0
//Break Periods
2,99567,108099
//Storyboard Layer 0 (Background)
//Storyboard Layer 1 (Fail)
//Storyboard Layer 2 (Pass)
//Storyboard Layer 3 (Foreground)
//Storyboard Sound Samples

[TimingPoints]
58,413.793103448276,4,3,0,45,1,0
13299,-100,4,3,0,45,0,1
26540,-100,4,3,0,45,0,0
66264,-100,4,3,0,45,0,1
79506,-100,4,3,0,45,0,0
112609,-100,4,3,0,45,0,1
125437,-100,4,3,0,45,0,0
125851,-100,4,3,0,45,0,1
140747,-100,4,3,0,5,0,0

[Colours]
Combo1 : 188,7,7
Combo2 : 245,10,100
Combo3 : 234,149,21
Combo4 : 225,40,105
Combo5 : 255,192,0

[HitObjects]
120,296,6678,6,0,P|160:280|200:280,1,65,4|0,0:0|0:0,0:0:0:0:
233,304,7092,2,0,L|369:296,2,130,2|0|2,0:0|0:0|0:0,0:0:0:0:
152,216,8333,5,0,0:0:0:0:
224,120,8747,2,0,P|232:96|232:56,2,65,2|0|0,0:0|0:0|0:0,0:0:0:0:
104,112,9575,1,2,0:0:0:0:
32,200,9989,6,0,P|24:256|64:320,2,130,0|2|0,0:0|0:0|0:0,0:0:0:0:
104,112,11230,1,2,0:0:0:0:
204,176,11644,6,0,L|200:244,1,65,8|0,0:0|0:0,0:0:0:0:
260,252,12058,2,0,L|264:320,1,65,8|0,0:0|0:0,0:0:0:0:
312,352,12471,1,10,0:0:0:0:
492,203,13299,6,0,P|500:159|480:75,2,130,6|8|0,1:0|0:0|0:0,0:0:0:0:
444,236,14333,2,0,P|432:268|432:304,2,65,0|8|0,0:0|0:0|0:0,0:0:0:0:
420,184,14954,5,2,1:0:0:0:
320,244,15368,2,0,P|264:264|192:244,1,130,8|0,0:0|0:0,0:0:0:0:
156,208,15989,2,0,P|128:204|76:216,2,65,0|8|0,0:0|0:0|0:0,0:0:0:0:
208,180,16609,6,0,P|232:140|220:56,2,130,2|8|0,1:0|0:0|0:0,0:0:0:0:
100,228,17851,1,8,0:0:0:0:
144,336,18264,5,2,0:1:0:0:
248,284,18678,2,0,P|296:272|384:296,1,130,8|0,0:0|0:0,0:0:0:0:
432,280,19299,2,0,P|440:252|437:211,2,65,0|0|0,0:0|0:0|0:0,0:0:0:0:
404,332,19920,5,6,1:0:0:0:
292,364,20333,2,0,L|209:364,1,65,8|0,0:0|0:0,0:0:0:0:
184,324,20747,2,0,L|116:308,2,65,0|0|8,0:0|0:0|0:0,0:0:0:0:
272,246,21575,6,0,P|284:206|256:118,2,130,2|8|0,1:0|0:0|0:0,0:0:0:0:
356,328,22816,2,0,P|384:316|428:312,1,65,8|0,0:0|0:0,0:0:0:0:
472,332,23230,5,2,1:0:0:0:
500,220,23644,2,0,L|493:153,1,65,8|0,0:0|0:0,0:0:0:0:
453,112,24058,2,0,P|417:116|337:176,1,130,0|8,0:0|0:0,0:0:0:0:
239,225,24885,6,0,P|183:225|119:181,2,130,2|8|0,1:0|0:0|0:0,0:0:0:0:
426,85,26540,5,4,0:0:0:0:
476,192,26954,2,0,L|472:276,2,65,8|0|0,0:0|0:0|0:0,0:0:0:0:
360,164,27782,2,0,L|364:300,2,130,8|0|8,0:0|0:0|0:0,0:0:0:0:
276,84,29023,1,0,0:0:0:0:
192,168,29437,2,0,P|184:196|188:244,1,65,8|0,0:0|0:0,0:0:0:0:
228,272,29851,6,0,L|360:264,2,130,0|8|0,0:0|0:0|0:0,0:0:0:0:
148,356,31092,2,0,L|68:348,1,65,8|0,0:0|0:0,0:0:0:0:
28,368,31506,5,0,0:0:0:0:
64,256,31920,2,0,P|72:220|48:128,2,130,8|0|8,0:0|0:0|0:0,0:0:0:0:
172,300,33161,6,0,P|232:288|248:288,1,65,0|0,0:0|0:0,0:0:0:0:
276,328,33575,1,8,0:0:0:0:
352,240,33989,1,0,0:0:0:0:
264,164,34402,2,0,P|260:140|260:100,1,65,8|0,0:0|0:0,0:0:0:0:
220,56,34816,6,0,P|160:40|80:52,2,130,0|8|0,0:0|0:0|0:0,0:0:0:0:
248,168,36058,1,10,2:0:0:0:
308,160,36264,1,2,2:0:0:0:
368,152,36471,5,2,2:0:0:0:
408,264,36885,1,10,2:0:0:0:
348,264,37092,1,2,2:0:0:0:
288,260,37299,1,2,2:0:0:0:
172,248,37713,1,10,2:0:0:0:
180,304,37920,1,2,2:0:0:0:
188,364,38126,6,0,L|336:352,1,130,2|8,2:0|0:0,0:0:0:0:
432,380,38954,1,0,0:0:0:0:
444,324,39161,2,0,L|512:328,2,65,0|8|0,0:0|0:0|0:0,0:0:0:0:
400,280,39782,6,0,P|384:220|416:136,2,130,6|0|0,1:0|0:0|0:0,0:0:0:0:
288,312,41023,2,0,P|244:312|204:320,1,65,8|0,0:0|0:0,0:0:0:0:
171,343,41437,6,0,P|111:347|55:287,2,130,2|0|0,1:0|0:0|0:0,0:0:0:0:
252,256,42678,1,10,2:0:0:0:
248,196,42885,1,2,2:0:0:0:
244,136,43092,5,2,2:0:0:0:
147,71,43506,1,10,2:0:0:0:
144,132,43713,1,2,2:0:0:0:
136,192,43920,1,2,2:0:0:0:
40,260,44333,1,10,2:0:0:0:
36,200,44540,1,2,2:0:0:0:
32,140,44747,5,2,2:0:0:0:
100,44,45161,1,8,0:0:0:0:
196,110,45575,2,0,P|255:131|337:89,1,130,0|8,0:0|0:0,0:0:0:0:
424,68,46402,5,4,1:0:0:0:
400,184,46816,2,0,L|392:248,2,65,8|0|0,0:0|0:0|0:0,0:0:0:0:
284,172,47644,2,0,L|272:42,2,130,8|0|8,0:0|0:0|0:0,0:0:0:0:
168,184,48885,1,0,0:0:0:0:
156,240,49092,1,0,0:0:0:0:
148,296,49299,2,0,L|220:304,1,65,8|0,0:0|0:0,0:0:0:0:
268,288,49713,6,0,P|296:232|276:152,2,130,0|8|0,0:0|0:0|0:0,0:0:0:0:
368,348,50954,2,0,L|520:344,2,130,8|0|8,0:0|0:0|0:0,0:0:0:0:
252,331,52195,1,0,0:0:0:0:
138,304,52609,2,0,L|130:237,1,65,8|0,0:0|0:0,0:0:0:0:
126,180,53023,5,0,0:0:0:0:
193,84,53437,1,8,0:0:0:0:
308,104,53851,1,0,0:0:0:0:
365,205,54264,2,0,L|364:275,1,65,8|0,0:0|0:0,0:0:0:0:
331,318,54678,6,0,P|271:290|247:194,2,130,8|0|8,0:0|0:0|0:0,0:0:0:0:
407,229,55920,1,10,2:0:0:0:
407,169,56126,1,2,2:0:0:0:
407,109,56333,5,2,2:0:0:0:
292,135,56747,1,10,2:0:0:0:
260,183,56954,1,2,2:0:0:0:
228,231,57161,1,2,2:0:0:0:
115,197,57575,1,10,2:0:0:0:
147,151,57782,1,2,2:0:0:0:
180,104,57989,5,2,2:0:0:0:
279,42,58402,2,0,L|354:39,1,65,8|0,0:0|0:0,0:0:0:0:
394,69,58816,1,0,0:0:0:0:
436,109,59023,2,0,L|521:101,2,65,0|8|0,0:0|0:0|0:0,0:0:0:0:
406,160,59644,6,0,P|393:246|422:308,1,130,6|0,1:0|0:0,0:0:0:0:
309,350,60471,1,0,0:0:0:0:
231,262,60885,2,0,L|225:197,1,65,8|0,0:0|0:0,0:0:0:0:
230,138,61299,6,0,P|272:93|360:94,2,130,2|0|0,1:0|0:0|0:0,0:0:0:0:
159,231,62540,1,10,2:0:0:0:
137,285,62747,1,2,2:0:0:0:
115,339,62954,5,2,2:0:0:0:
230,320,63368,1,10,2:0:0:0:
253,266,63575,1,2,2:0:0:0:
277,212,63782,1,2,2:0:0:0:
334,110,64195,1,10,2:0:0:0:
281,83,64402,1,2,2:0:0:0:
226,62,64609,6,0,P|157:43|95:67,1,130,2|8,2:0|0:0,0:0:0:0:
57,168,65437,2,0,L|67:232,1,65,8|0,0:0|0:0,0:0:0:0:
124,245,65851,2,0,L|134:309,1,65,10|0,0:0|0:0,0:0:0:0:
182,342,66264,5,14,1:0:0:0:
297,320,66678,2,0,L|451:309,2,130,8|0|8,0:0|0:0|0:0,0:0:0:0:
250,212,67920,1,2,1:0:0:0:
333,131,68333,2,0,L|401:130,1,65,8|0,0:0|0:0,0:0:0:0:
448,160,68747,2,0,P|458:223|444:300,1,130,0|8,0:0|0:0,0:0:0:0:
410,333,69368,1,0,0:0:0:0:
352,344,69575,5,2,1:0:0:0:
276,254,69989,2,0,L|277:184,2,65,8|0|0,0:0|0:0|0:0,0:0:0:0:
168,207,70816,2,0,L|157:62,2,130,8|2|8,0:0|1:0|0:0,0:0:0:0:
63,259,72058,2,0,P|67:225|60:188,1,65
36,142,72471,2,0,P|32:106|44:74,1,65,8|0,0:0|0:0,0:0:0:0:
82,36,72885,5,6,1:0:0:0:
198,44,73299,2,0,P|234:39|269:49,1,65,8|0,0:0|0:0,0:0:0:0:
308,80,73713,2,0,L|440:72,2,130,0|8|2,0:0|0:0|1:0,0:0:0:0:
261,115,74747,2,0,L|193:114,2,65,0|8|0,0:0|0:0|0:0,0:0:0:0:
291,165,75368,1,0,0:0:0:0:
228,260,75782,2,0,P|218:288|220:332,1,65,8|0,0:0|0:0,0:0:0:0:
260,364,76195,5,2,1:0:0:0:
374,338,76609,1,8,0:0:0:0:
256,192,77023,12,0,78678,0:0:0:0:
177,169,79920,5,0,0:0:0:0:
255,255,80333,1,8,0:0:0:0:
323,159,80747,2,0,L|341:24,2,130,0|8|0,0:0|0:0|0:0,0:0:0:0:
348,273,81989,1,8,0:0:0:0:
252,339,82402,1,0,0:0:0:0:
193,341,82609,1,0,0:0:0:0:
139,317,82816,6,0,P|115:305|91:273,1,65,8|0,0:0|0:0,0:0:0:0:
75,218,83230,2,0,P|90:135|139:98,1,130,0|8,0:0|0:0,0:0:0:0:
232,67,84058,2,0,L|385:45,2,130,0|8|0,0:0|0:0|0:0,0:0:0:0:
122,107,85299,1,8,0:0:0:0:
75,214,85713,6,0,P|21:166|5:105,2,130,0|8|0,0:0|0:0|0:0,0:0:0:0:
127,238,86747,1,0,0:0:0:0:
180,260,86954,1,8,0:0:0:0:
294,233,87368,1,0,0:0:0:0:
337,193,87575,6,0,L|405:193,2,65,0|8|0,0:0|0:0|0:0,0:0:0:0:
307,142,88195,2,0,P|275:90|216:58,1,130,0|8,0:0|0:0,0:0:0:0:
112,64,89023,1,10,2:0:0:0:
96,120,89230,1,2,2:0:0:0:
79,176,89437,5,2,2:0:0:0:
180,252,89851,1,10,2:0:0:0:
196,196,90058,1,2,2:0:0:0:
216,140,90264,1,2,2:0:0:0:
308,212,90678,1,10,2:0:0:0:
292,268,90885,1,2,2:0:0:0:
280,324,91092,6,0,P|348:341|393:285,1,130,2|8,2:0|0:0,0:0:0:0:
455,208,91920,1,0,0:0:0:0:
474,153,92126,2,0,P|481:122|473:86,2,65,0|8|0,0:0|0:0|0:0,0:0:0:0:
415,154,92747,6,0,P|346:143|271:160,2,130,6|0|0,1:0|0:0|0:0,0:0:0:0:
416,260,93989,2,0,P|408:293|369:319,1,65,8|0,0:0|0:0,0:0:0:0:
329,329,94402,6,0,P|247:324|200:268,2,130,2|0|0,1:0|0:0|0:0,0:0:0:0:
320,211,95644,1,10,2:0:0:0:
280,171,95851,1,2,2:0:0:0:
236,131,96058,5,2,2:0:0:0:
152,213,96471,1,10,2:0:0:0:
194,252,96678,1,2,2:0:0:0:
239,288,96885,1,2,2:0:0:0:
144,356,97299,1,10,2:0:0:0:
100,317,97506,1,2,2:0:0:0:
57,276,97713,5,2,2:0:0:0:
78,159,98126,2,0,P|100:130|140:113,1,65,8|0,0:0|0:0,0:0:0:0:
181,132,98540,2,0,P|212:140|245:134,1,65,8|0,0:0|0:0,0:0:0:0:
297,109,98954,2,0,P|359:106|421:142,1,130,8|4,0:0|2:0,0:0:0:0:
256,192,109299,12,0,111782,0:0:0:0:
120,184,113023,6,0,P|106:252|144:328,2,130,8|0|8,0:0|0:0|0:0,0:0:0:0:
180,83,114264,1,2,1:0:0:0:
300,64,114678,2,0,P|303:96|316:125,1,65,8|0,0:0|0:0,0:0:0:0:
364,160,115092,2,0,P|369:233|342:302,1,130,0|8,0:0|0:0,0:0:0:0:
304,320,115713,1,0,0:0:0:0:
245,320,115920,5,2,1:0:0:0:
134,283,116333,2,0,L|-5:277,2,130,8|0|8,0:0|0:0|0:0,0:0:0:0:
200,186,117575,6,0,L|177:124,2,65,2|0|8,1:0|0:0|0:0,0:0:0:0:
289,261,118402,2,0,P|334:252|376:262,1,65,0|0,0:0|0:0,0:0:0:0:
410,247,118816,2,0,P|433:216|435:186,1,65,0|0,0:0|0:0,0:0:0:0:
433,131,119230,5,2,1:0:0:0:
329,76,119644,2,0,L|253:68,2,65,8|0|0,0:0|0:0|0:0,0:0:0:0:
354,128,120264,1,0,0:0:0:0:
323,177,120471,2,0,P|297:247|332:324,1,130,8|2,0:0|1:0,0:0:0:0:
421,336,121299,6,0,P|442:309|450:277,1,65,8|0,0:0|0:0,0:0:0:0:
457,221,121713,2,0,L|463:71,2,130,0|8|2,0:0|0:0|1:0,0:0:0:0:
363,153,122954,1,8,0:0:0:0:
314,120,123161,1,0,0:0:0:0:
255,116,123368,2,0,P|207:167|206:229,1,130,0|8,0:0|0:0,0:0:0:0:
291,302,124195,6,0,L|429:305,1,130,2|8,1:0|0:0,0:0:0:0:
475,200,125023,1,6,2:0:0:0:
458,84,125437,1,4,2:0:0:0:
350,37,125851,5,6,2:0:0:0:
350,37,126264,2,0,L|366:168,1,130,8|0,0:0|0:0,0:0:0:0:
394,279,127092,2,0,P|391:308|370:336,1,65,8|0,0:0|0:0,0:0:0:0:
313,350,127506,5,2,1:0:0:0:
243,249,127920,1,8,0:0:0:0:
235,191,128126,1,0,0:0:0:0:
231,132,128333,6,0,P|275:84|339:74,2,130,0|8|2,0:0|0:0|1:0,0:0:0:0:
335,184,129575,2,0,P|373:183|409:153,1,65,8|0,0:0|0:0,0:0:0:0:
453,151,129989,6,0,P|483:205|468:288,2,130,0|8|2,0:0|0:0|1:0,0:0:0:0:
349,96,131230,2,0,L|269:88,1,65,8|0,0:0|0:0,0:0:0:0:
238,126,131644,2,0,L|150:130,1,65,0|0,0:0|0:0,0:0:0:0:
125,164,132058,1,0,0:0:0:0:
93,276,132471,6,0,P|133:269|173:288,1,65,6|0,1:0|0:0,0:0:0:0:
210,298,132885,2,0,P|283:311|327:277,2,130,8|0|8,0:0|0:0|0:0,0:0:0:0:
201,237,133920,2,0,L|194:168,2,65,0|2|0,0:0|1:0|0:0,0:0:0:0:
259,235,134540,1,8,0:0:0:0:
337,148,134954,2,0,P|348:119|347:84,1,65,8|0,0:0|0:0,0:0:0:0:
334,27,135368,1,8,0:0:0:0:
449,43,135782,5,2,1:0:0:0:
450,159,136195,2,0,L|452:225,2,65,8|0|0,0:0|0:0|0:0,0:0:0:0:
336,127,137023,1,8,0:0:0:0:
256,192,137437,12,4,140747,2:0:0:0:
