osu file format v14

[General]
AudioFilename: terteterterterterterte.mp3
AudioLeadIn: 0
PreviewTime: 11630
Countdown: 0
SampleSet: None
StackLeniency: 0.7
Mode: 0
LetterboxInBreaks: 0
WidescreenStoryboard: 0

[Editor]
Bookmarks: 6664,26526,46388,66250,79492,99354,112595,125630,125837
DistanceSpacing: 1.2
BeatDivisor: 4
GridSize: 4
TimelineZoom: 1.2

[Metadata]
Title:Novogodnyaya
TitleUnicode:Новогодняя
Artist:Verka Serdyuchka
ArtistUnicode:Верка Сердючка
Creator:Marmowka
Version:Hard
Source:
Tags:андрей данилко russian new year pop christmas bakari namki
BeatmapID:824038
BeatmapSetID:376376

[Difficulty]
HPDrainRate:6
CircleSize:4
OverallDifficulty:7
ApproachRate:8
SliderMultiplier:1.8
SliderTickRate:1

[Events]
//Background and Video events
0,0,"016.jpg",0,0
//Break Periods
2,99568,108549
//Storyboard Layer 0 (Background)
//Storyboard Layer 1 (Fail)
//Storyboard Layer 2 (Pass)
//Storyboard Layer 3 (Foreground)
//Storyboard Sound Samples

[TimingPoints]
58,413.793103448276,4,3,0,45,1,0
6678,-133.333333333333,4,3,0,45,0,0
13299,-100,4,3,0,45,0,1
26540,-100,4,3,0,45,0,0
66264,-100,4,3,0,45,0,1
79506,-100,4,3,0,45,0,0
112609,-100,4,3,0,45,0,1
125644,-100,4,3,0,45,0,0
125851,-100,4,3,0,45,0,1
140747,-100,4,3,0,45,0,0

[Colours]
Combo1 : 188,7,7
Combo2 : 245,10,100
Combo3 : 234,149,21
Combo4 : 225,40,105
Combo5 : 255,192,0

[HitObjects]
398,222,6678,5,4,0:0:0:0:
322,166,6885,1,0,0:0:0:0:
226,154,7092,2,0,L|142:158,1,67.5000025749208,2|0,0:0|0:0,0:0:0:0:
85,217,7506,2,0,P|77:257|89:285,1,67.5000025749208,0|0,0:0|0:0,0:0:0:0:
162,344,7920,1,2,0:0:0:0:
246,321,8126,2,0,B|295:313|295:313|355:335|398:289,1,135.000005149842,0|0,0:0|0:0,0:0:0:0:
417,222,8747,6,0,B|413:125,1,67.5000025749208,2|0,0:0|0:0,0:0:0:0:
397,69,9161,2,0,L|312:79,1,67.5000025749208,0|0,0:0|0:0,0:0:0:0:
240,51,9575,1,2,0:0:0:0:
168,109,9782,2,0,P|164:195|198:237,1,135.000005149842,0|0,0:0|0:0,0:0:0:0:
278,222,10402,5,2,0:0:0:0:
325,299,10609,1,0,0:0:0:0:
255,353,10816,2,0,L|169:345,1,67.5000025749208,0|0,0:0|0:0,0:0:0:0:
95,319,11230,1,2,0:0:0:0:
51,244,11437,1,0,0:0:0:0:
63,157,11644,6,0,L|56:70,1,67.5000025749208,8|0,0:0|0:0,0:0:0:0:
142,155,12058,2,0,L|149:243,1,67.5000025749208,8|0,0:0|0:0,0:0:0:0:
219,278,12471,1,10,0:0:0:0:
272,211,12678,1,0,0:0:0:0:
272,211,12782,1,0,0:0:0:0:
272,211,12885,2,0,L|264:127,1,67.5000025749208,2|0,0:0|0:0,0:0:0:0:
316,47,13299,6,0,P|360:36|419:52,1,90,6|0,1:0|0:0,0:0:0:0:
458,137,13713,2,0,L|457:239,1,90,8|0,0:0|0:0,0:0:0:0:
364,282,14126,2,0,L|365:169,1,90
354,83,14540,1,8,0:0:0:0:
255,39,14747,1,0,0:0:0:0:
155,81,14954,2,0,L|61:79,1,90,2|0,1:0|0:0,0:0:0:0:
26,181,15368,6,0,L|128:184,1,90,8|0,0:0|0:0,0:0:0:0:
203,246,15782,2,0,P|215:286|203:338,1,90,0|0,0:0|0:0,0:0:0:0:
108,291,16195,1,8,0:0:0:0:
116,183,16402,1,0,0:0:0:0:
184,99,16609,2,0,L|292:91,1,90,2|0,1:0|0:0,0:0:0:0:
322,192,17023,6,0,P|315:235|345:295,1,90,8|0,0:0|0:0,0:0:0:0:
421,220,17437,2,0,P|430:176|417:133,1,90,0|0,0:0|0:0,0:0:0:0:
356,44,17851,1,8,0:0:0:0:
256,86,18058,1,0,0:0:0:0:
220,187,18264,2,0,L|217:304,1,90,2|0,0:1|0:0,0:0:0:0:
131,342,18678,2,0,L|133:252,1,90,8|0,0:0|0:0,0:0:0:0:
152,146,19092,1,0,0:0:0:0:
254,111,19299,2,0,L|367:106,2,90,0|0|0,0:0|0:0|0:0,0:0:0:0:
152,146,19920,6,0,P|162:197|148:235,1,90,6|0,1:0|0:0,0:0:0:0:
51,276,20333,2,0,P|40:225|66:166,1,90,8|0,0:0|0:0,0:0:0:0:
152,146,20747,2,0,L|262:143,1,90,0|0,0:0|0:0,0:0:0:0:
347,117,21161,1,8,0:0:0:0:
440,170,21368,1,0,0:0:0:0:
405,272,21575,2,0,P|384:303|331:316,1,90,2|0,1:0|0:0,0:0:0:0:
267,230,21989,6,0,L|277:110,1,90,8|0,0:0|0:0,0:0:0:0:
203,59,22402,2,0,L|99:57,1,90,0|0,0:0|0:0,0:0:0:0:
6,76,22816,1,8,0:0:0:0:
21,182,23023,1,0,0:0:0:0:
121,145,23230,2,0,L|116:43,1,90,2|0,1:0|0:0,0:0:0:0:
207,112,23644,6,0,L|212:204,1,90,8|0,0:0|0:0,0:0:0:0:
171,301,24058,2,0,P|126:315|77:290,1,90,0|0,0:0|0:0,0:0:0:0:
49,204,24471,1,8,0:0:0:0:
88,103,24678,1,0,0:0:0:0:
188,62,24885,2,0,P|232:52|278:65,1,90,2|0,1:0|0:0,0:0:0:0:
320,161,25299,2,0,P|277:172|233:162,1,90,8|0,0:0|0:0,0:0:0:0:
350,64,25713,1,0,0:0:0:0:
432,136,25920,1,0,0:0:0:0:
432,136,26023,1,0,0:0:0:0:
432,136,26126,2,0,L|428:236,1,90,2|0,0:0|0:0,0:0:0:0:
336,295,26540,6,0,L|341:182,1,90,4|0,0:0|0:0,0:0:0:0:
290,108,26954,1,8,0:0:0:0:
184,84,27161,1,0,0:0:0:0:
81,117,27368,2,0,P|68:163|82:215,1,90
131,296,27782,5,8,0:0:0:0:
131,296,27989,1,0,0:0:0:0:
236,318,28195,2,0,L|341:315,1,90
419,259,28609,2,0,P|433:216|424:170,1,90,8|0,0:0|0:0,0:0:0:0:
324,213,29023,2,0,P|280:220|226:211,1,90
146,151,29437,5,8,0:0:0:0:
106,46,29644,1,0,0:0:0:0:
35,125,29851,2,0,L|12:225,1,90
42,317,30264,1,8,0:0:0:0:
150,356,30471,1,0,0:0:0:0:
163,244,30678,2,0,L|144:139,1,90
141,49,31092,5,8,0:0:0:0:
238,88,31299,1,0,0:0:0:0:
341,103,31506,2,0,P|392:110|451:94,1,90,0|0,0:0|0:0,0:0:0:0:
429,208,31920,2,0,P|384:199|334:211,1,90,8|0,0:0|0:0,0:0:0:0:
250,267,32333,1,0,0:0:0:0:
155,320,32540,6,0,P|111:329|58:316,1,90,0|8,0:0|0:0,0:0:0:0:
3,231,32954,1,0,0:0:0:0:
56,135,33161,2,0,P|101:121|161:139,1,90
240,174,33575,1,8,0:0:0:0:
343,143,33782,1,0,0:0:0:0:
433,202,33989,2,0,P|442:248|413:308,1,90
324,318,34402,5,8,0:0:0:0:
242,251,34609,1,0,0:0:0:0:
137,223,34816,2,0,P|80:212|27:233,1,90
88,321,35230,1,8,0:0:0:0:
192,347,35437,1,0,0:0:0:0:
291,305,35644,2,0,P|313:261|292:196,1,90
288,114,36058,5,10,2:0:0:0:
288,114,36264,1,2,2:0:0:0:
183,141,36471,2,0,L|87:145,1,90,2|0,2:0|0:0,0:0:0:0:
28,231,36885,5,10,2:0:0:0:
28,231,37092,1,2,2:0:0:0:
131,261,37299,2,0,L|227:252,1,90,2|0,2:0|0:0,0:0:0:0:
311,312,37713,5,10,2:0:0:0:
311,312,37920,1,2,2:0:0:0:
312,204,38126,2,0,L|315:114,1,90,2|0,2:0|0:0,0:0:0:0:
221,59,38540,2,0,B|197:98|217:147,1,90,8|0,0:0|0:0,0:0:0:0:
312,204,38954,2,0,P|386:207|443:108,1,180,0|8,0:0|0:0,0:0:0:0:
415,22,39575,1,0,0:0:0:0:
310,55,39782,6,0,L|203:60,1,90,6|0,1:0|0:0,0:0:0:0:
112,45,40195,1,8,0:0:0:0:
16,95,40402,1,0,0:0:0:0:
53,196,40609,2,0,L|57:303,1,90
154,333,41023,5,8,0:0:0:0:
154,333,41230,1,0,0:0:0:0:
223,250,41437,2,0,P|230:207|221:160,1,90,2|0,1:0|0:0,0:0:0:0:
313,104,41851,2,0,P|360:115|407:102,1,90,8|0,0:0|0:0,0:0:0:0:
485,172,42264,2,0,P|472:220|495:274,1,90
407,334,42678,5,10,2:0:0:0:
407,334,42885,1,2,2:0:0:0:
300,316,43092,2,0,L|201:314,1,90,2|0,2:0|0:0,0:0:0:0:
118,267,43506,5,10,2:0:0:0:
118,267,43713,1,2,2:0:0:0:
148,163,43920,2,0,L|155:54,1,90,2|0,2:0|0:0,0:0:0:0:
242,134,44333,6,0,L|234:250,1,90,10|0,0:2|0:0,0:0:0:0:
299,315,44747,2,0,P|391:337|432:254,1,180,2|8,0:2|0:0,0:0:0:0:
435,169,45368,1,0,0:0:0:0:
346,107,45575,2,0,L|240:101,1,90
218,100,45885,1,0,0:0:0:0:
182,98,45989,1,8,0:0:0:0:
79,64,46195,1,0,0:0:0:0:
54,169,46402,6,0,L|50:258,1,90,4|0,1:0|0:0,0:0:0:0:
99,355,46816,1,8,0:0:0:0:
177,280,47023,1,0,0:0:0:0:
281,252,47230,2,0,P|329:241|380:265,1,90,0|0,0:0|0:0,0:0:0:0:
452,325,47644,5,8,0:0:0:0:
452,325,47851,1,0,0:0:0:0:
476,220,48058,2,0,L|468:104,1,90,0|0,0:0|0:0,0:0:0:0:
373,79,48471,2,0,P|361:122|368:166,1,90,8|0,0:0|0:0,0:0:0:0:
386,273,48885,2,0,P|337:263|286:278,1,90,0|0,0:0|0:0,0:0:0:0:
200,314,49299,5,8,0:0:0:0:
200,314,49506,1,0,0:0:0:0:
115,246,49713,2,0,P|103:201|118:144,1,90,0|0,0:0|0:0,0:0:0:0:
198,99,50126,1,8,0:0:0:0:
198,99,50333,1,0,0:0:0:0:
290,154,50540,2,0,B|324:168|324:168|388:170,1,90,0|0,0:0|0:0,0:0:0:0:
481,138,50954,5,8,0:0:0:0:
491,244,51161,1,0,0:0:0:0:
400,302,51368,2,0,P|355:309|311:301,1,90
207,269,51782,2,0,P|164:260|110:271,1,90,8|0,0:0|0:0,0:0:0:0:
16,302,52195,1,0,0:0:0:0:
28,194,52402,2,0,L|32:77,1,90,0|8,0:0|0:0,0:0:0:0:
110,30,52816,1,0,0:0:0:0:
187,105,53023,6,0,L|184:218,1,90
182,303,53437,1,8,0:0:0:0:
276,249,53644,1,0,0:0:0:0:
370,302,53851,2,0,P|416:311|463:301,1,90,0|0,0:0|0:0,0:0:0:0:
417,203,54264,5,8,0:0:0:0:
465,106,54471,1,0,0:0:0:0:
383,34,54678,2,0,L|273:36,1,90,8|0,0:0|0:0,0:0:0:0:
185,53,55092,1,0,0:0:0:0:
241,145,55299,1,0,0:0:0:0:
173,228,55506,2,0,L|167:342,1,90,8|0,0:0|0:0,0:0:0:0:
66,359,55920,5,10,2:0:0:0:
66,359,56126,1,2,2:0:0:0:
34,255,56333,2,0,P|23:211|40:155,1,90,2|0,2:0|0:0,0:0:0:0:
88,74,56747,5,10,2:0:0:0:
88,74,56954,1,2,2:0:0:0:
177,135,57161,2,0,P|218:147|261:134,1,90,2|0,2:0|0:0,0:0:0:0:
354,77,57575,5,10,2:0:0:0:
354,77,57782,1,2,2:0:0:0:
443,127,57989,2,0,P|452:174|440:217,1,90,2|0,2:0|0:0,0:0:0:0:
342,259,58402,2,0,B|317:217|340:172,1,90,8|0,0:0|0:0,0:0:0:0:
441,214,58816,2,0,P|438:301|329:343,1,180,0|8,0:0|0:0,0:0:0:0:
258,326,59437,1,0,0:0:0:0:
150,321,59644,6,0,B|103:325|103:325|56:348,2,90,6|0|0,1:0|0:0|0:0,0:0:0:0:
258,326,60264,1,0,0:0:0:0:
352,275,60471,2,0,L|356:183,1,90,0|0,0:0|0:0,0:0:0:0:
341,76,60885,5,8,0:0:0:0:
241,36,61092,1,0,0:0:0:0:
133,52,61299,2,0,L|26:57,1,90,2|0,1:0|0:0,0:0:0:0:
115,137,61713,2,0,L|211:131,1,90,0|0,0:0|0:0,0:0:0:0:
308,164,62126,2,0,P|329:209|318:266,1,90,0|0,0:0|0:0,0:0:0:0:
267,330,62540,5,10,2:0:0:0:
267,330,62747,1,2,2:0:0:0:
162,307,62954,2,0,L|55:300,1,90,2|0,2:0|0:0,0:0:0:0:
36,198,63368,5,10,2:0:0:0:
36,198,63575,1,2,2:0:0:0:
128,142,63782,2,0,L|226:140,1,90,2|0,2:0|0:0,0:0:0:0:
324,122,64195,5,10,2:0:0:0:
410,56,64402,1,2,2:0:0:0:
470,145,64609,2,0,P|467:225|388:289,1,180,2|8,2:0|0:0,0:0:0:0:
290,313,65230,1,0,0:0:0:0:
181,314,65437,2,0,P|136:311|83:269,1,90,8|0,0:0|0:0,0:0:0:0:
79,260,65747,1,0,0:0:0:0:
76,226,65851,1,10,0:0:0:0:
74,118,66058,1,0,0:0:0:0:
158,42,66264,6,0,L|266:34,1,90,6|0,1:0|0:0,0:0:0:0:
309,124,66678,2,0,L|198:134,1,90,8|0,0:0|0:0,0:0:0:0:
128,190,67092,2,0,P|114:231|128:282,1,90
206,346,67506,1,8,0:0:0:0:
313,340,67713,1,0,0:0:0:0:
400,277,67920,2,0,L|396:171,1,90,2|0,1:0|0:0,0:0:0:0:
309,121,68333,6,0,P|261:129|205:114,1,90,8|0,0:0|0:0,0:0:0:0:
138,190,68747,2,0,P|150:230|138:282,1,90
43,324,69161,1,8,0:0:0:0:
31,217,69368,1,0,0:0:0:0:
138,190,69575,2,0,L|246:182,1,90,2|0,1:0|0:0,0:0:0:0:
329,144,69989,6,0,P|318:92|337:30,1,90,8|0,0:0|0:0,0:0:0:0:
423,100,70402,2,0,P|435:140|423:192,1,90
337,250,70816,1,8,0:0:0:0:
239,203,71023,1,0,0:0:0:0:
157,274,71230,2,0,L|146:387,1,90,2|0,1:0|0:0,0:0:0:0:
66,292,71644,2,0,L|76:201,1,90,8|0,0:0|0:0,0:0:0:0:
35,101,72058,1,0,0:0:0:0:
129,49,72264,2,0,P|182:39|221:53,2,90,0|8|0,0:0|0:0|0:0,0:0:0:0:
173,147,72885,6,0,P|220:158|271:139,1,90,6|0,1:0|0:0,0:0:0:0:
355,96,73299,2,0,P|404:84|466:111,1,90,8|0,0:0|0:0,0:0:0:0:
509,177,73713,2,0,P|521:217|509:269,1,90
445,349,74126,1,8,0:0:0:0:
338,331,74333,1,0,0:0:0:0:
284,236,74540,2,0,L|284:132,1,90,2|0,1:0|0:0,0:0:0:0:
208,68,74954,6,0,P|159:57|108:79,1,90,8|0,0:0|0:0,0:0:0:0:
56,152,75368,2,0,P|40:192|56:244,1,90
132,308,75782,1,8,0:0:0:0:
192,220,75989,1,0,0:0:0:0:
264,292,76195,2,0,L|372:284,1,90,2|0,1:0|0:0,0:0:0:0:
412,184,76609,6,0,L|300:192,1,90,8|0,0:0|0:0,0:0:0:0:
260,100,77023,2,0,L|372:92,1,90
452,64,77437,1,8,0:0:0:0:
508,156,77644,1,0,0:0:0:0:
488,264,77851,2,0,P|448:300|440:356,1,90
352,276,78264,2,0,P|324:232|264:212,1,90,8|0,0:0|0:0,0:0:0:0:
180,248,78678,1,0,0:0:0:0:
112,164,78885,1,0,0:0:0:0:
112,164,78989,1,0,0:0:0:0:
112,164,79092,1,8,0:0:0:0:
176,76,79299,1,0,0:0:0:0:
268,132,79506,6,0,L|263:245,1,90,12|0,0:0|0:0,0:0:0:0:
228,324,79920,1,0,0:0:0:0:
335,331,80126,1,0,0:0:0:0:
423,269,80333,2,0,P|436:223|422:171,1,90,8|0,0:0|0:0,0:0:0:0:
381,88,80747,5,0,0:0:0:0:
381,88,80954,1,0,0:0:0:0:
276,66,81161,2,0,L|171:69,1,90,8|0,0:0|0:0,0:0:0:0:
93,125,81575,2,0,P|79:168|88:214,1,90
188,171,81989,2,0,P|232:164|286:173,1,90,8|0,0:0|0:0,0:0:0:0:
363,238,82402,5,0,0:0:0:0:
459,298,82609,1,0,0:0:0:0:
459,298,82816,2,0,L|455:198,1,90,8|0,0:0|0:0,0:0:0:0:
444,101,83230,1,0,0:0:0:0:
353,44,83437,1,0,0:0:0:0:
358,149,83644,2,0,L|365:259,1,90,8|0,0:0|0:0,0:0:0:0:
373,348,84058,5,0,0:0:0:0:
276,303,84264,1,0,0:0:0:0:
171,281,84471,2,0,P|120:274|61:290,1,90,8|0,0:0|0:0,0:0:0:0:
83,176,84885,2,0,P|128:185|178:173,1,90,0|0,0:0|0:0,0:0:0:0:
262,117,85299,1,8,0:0:0:0:
357,64,85506,2,0,P|401:55|454:68,1,90,0|0,0:0|0:0,0:0:0:0:
509,153,85920,1,0,0:0:0:0:
456,249,86126,6,0,P|411:263|351:245,1,90,8|0,0:0|0:0,0:0:0:0:
272,210,86540,1,0,0:0:0:0:
169,241,86747,1,0,0:0:0:0:
79,182,86954,2,0,P|70:136|99:76,1,90,8|0,0:0|0:0,0:0:0:0:
188,66,87368,5,0,0:0:0:0:
270,133,87575,1,0,0:0:0:0:
375,161,87782,2,0,P|432:172|485:151,1,90,8|0,0:0|0:0,0:0:0:0:
424,63,88195,1,0,0:0:0:0:
320,37,88402,1,0,0:0:0:0:
221,79,88609,2,0,P|199:123|220:188,1,90,8|0,0:0|0:0,0:0:0:0:
224,270,89023,5,10,2:0:0:0:
224,270,89230,1,2,2:0:0:0:
329,243,89437,2,0,L|425:239,1,90,2|0,2:0|0:0,0:0:0:0:
484,153,89851,5,10,2:0:0:0:
484,153,90058,1,2,2:0:0:0:
381,123,90264,2,0,L|285:132,1,90,2|0,2:0|0:0,0:0:0:0:
201,72,90678,5,10,2:0:0:0:
201,72,90885,1,2,2:0:0:0:
200,180,91092,2,0,L|197:270,1,90,2|0,2:0|0:0,0:0:0:0:
291,325,91506,2,0,B|315:286|295:237,1,90,8|0,0:0|0:0,0:0:0:0:
200,180,91920,2,0,P|126:177|69:276,1,180,0|8,0:0|0:0,0:0:0:0:
97,362,92540,1,0,0:0:0:0:
202,329,92747,6,0,L|309:324,1,90,6|0,1:0|0:0,0:0:0:0:
400,339,93161,1,0,0:0:0:0:
496,289,93368,1,0,0:0:0:0:
459,188,93575,2,0,L|455:81,1,90,0|0,0:0|0:0,0:0:0:0:
358,51,93989,5,8,0:0:0:0:
358,51,94195,1,0,0:0:0:0:
289,134,94402,2,0,P|282:177|291:224,1,90,2|0,1:0|0:0,0:0:0:0:
199,280,94816,2,0,P|152:269|105:282,1,90,0|0,0:0|0:0,0:0:0:0:
27,212,95230,2,0,P|40:164|17:110,1,90,0|0,0:0|0:0,0:0:0:0:
105,50,95644,5,10,2:0:0:0:
105,50,95851,1,2,2:0:0:0:
212,68,96058,2,0,L|311:70,1,90,2|0,2:0|0:0,0:0:0:0:
394,117,96471,5,10,2:0:0:0:
394,117,96678,1,2,2:0:0:0:
364,221,96885,2,0,L|357:330,1,90,2|0,2:0|0:0,0:0:0:0:
270,250,97299,6,0,L|278:134,1,90,10|2,2:0|2:0,0:0:0:0:
213,69,97713,2,0,P|121:47|80:130,1,180,2|8,2:0|0:0,0:0:0:0:
77,215,98333,1,0,0:0:0:0:
166,277,98540,6,0,L|272:283,1,90,8|0,0:0|0:0,0:0:0:0:
294,284,98851,1,0,0:0:0:0:
330,286,98954,1,8,0:0:0:0:
433,320,99161,1,0,0:0:0:0:
435,194,99368,1,4,2:0:0:0:
256,192,109299,12,0,112195,0:0:0:0:
354,342,112609,6,0,L|246:350,1,90,6|0,1:0|0:0,0:0:0:0:
203,260,113023,2,0,L|314:250,1,90,8|0,0:0|0:0,0:0:0:0:
384,194,113437,2,0,P|398:153|384:102,1,90,0|0,0:0|0:0,0:0:0:0:
306,38,113851,1,8,0:0:0:0:
199,44,114058,1,0,0:0:0:0:
112,107,114264,2,0,L|116:213,1,90,2|0,1:0|0:0,0:0:0:0:
203,263,114678,6,0,P|251:255|307:270,1,90,8|0,0:0|0:0,0:0:0:0:
374,194,115092,2,0,P|362:154|374:102,1,90,0|0,0:0|0:0,0:0:0:0:
469,60,115506,1,8,0:0:0:0:
481,167,115713,1,0,0:0:0:0:
374,194,115920,2,0,L|266:202,1,90,2|0,1:0|0:0,0:0:0:0:
183,240,116333,6,0,P|194:292|175:354,1,90,8|0,0:0|0:0,0:0:0:0:
89,284,116747,2,0,P|77:244|89:192,1,90,0|0,0:0|0:0,0:0:0:0:
175,134,117161,1,8,0:0:0:0:
273,181,117368,1,0,0:0:0:0:
355,110,117575,6,0,L|366:-3,1,90,2|0,1:0|0:0,0:0:0:0:
446,92,117989,2,0,L|436:183,1,90,8|0,0:0|0:0,0:0:0:0:
477,283,118402,1,0,0:0:0:0:
383,335,118609,2,0,P|330:345|291:331,2,90,0|0|0,0:0|0:0|0:0,0:0:0:0:
339,237,119230,6,0,P|292:226|241:245,1,90,2|0,1:0|0:0,0:0:0:0:
157,288,119644,2,0,P|108:300|46:273,1,90,8|0,0:0|0:0,0:0:0:0:
3,207,120058,2,0,P|-9:167|3:115,1,90,0|0,0:0|0:0,0:0:0:0:
67,35,120471,1,8,0:0:0:0:
174,53,120678,1,0,0:0:0:0:
228,148,120885,2,0,L|228:252,1,90,2|0,1:0|0:0,0:0:0:0:
304,316,121299,6,0,P|353:327|404:305,1,90,8|0,0:0|0:0,0:0:0:0:
456,232,121713,2,0,P|472:192|456:140,1,90,0|0,0:0|0:0,0:0:0:0:
380,76,122126,1,8,0:0:0:0:
320,164,122333,1,0,0:0:0:0:
248,92,122540,2,0,L|140:100,1,90,2|0,1:0|0:0,0:0:0:0:
100,200,122954,6,0,L|212:192,1,90,8|0,0:0|0:0,0:0:0:0:
252,284,123368,2,0,L|140:292,1,90,0|0,0:0|0:0,0:0:0:0:
60,320,123782,1,8,0:0:0:0:
4,228,123989,1,0,0:0:0:0:
24,120,124195,2,0,P|64:84|72:28,1,90,2|0,1:0|0:0,0:0:0:0:
160,108,124609,2,0,P|188:152|248:172,1,90,8|0,0:0|0:0,0:0:0:0:
332,136,125023,1,6,2:0:0:0:
400,220,125230,1,0,0:0:0:0:
400,220,125333,1,0,0:0:0:0:
400,220,125437,1,4,2:0:0:0:
336,308,125644,1,0,0:0:0:0:
232,332,125851,6,0,L|129:327,1,90,6|0,2:0|0:0,0:0:0:0:
64,252,126264,2,0,L|65:150,1,90,8|0,0:0|0:0,0:0:0:0:
156,100,126678,2,0,L|155:213,1,90,0|0,0:0|0:0,0:0:0:0:
158,301,127092,1,8,0:0:0:0:
257,345,127299,1,0,0:0:0:0:
357,303,127506,2,0,L|451:305,1,90,2|0,1:0|0:0,0:0:0:0:
486,203,127920,6,0,L|384:200,1,90,8|0,0:0|0:0,0:0:0:0:
309,138,128333,2,0,P|297:98|309:46,1,90,0|0,0:0|0:0,0:0:0:0:
404,93,128747,1,8,0:0:0:0:
396,201,128954,1,0,0:0:0:0:
328,285,129161,2,0,L|220:293,1,90,2|0,1:0|0:0,0:0:0:0:
190,192,129575,6,0,P|197:149|167:89,1,90,8|0,0:0|0:0,0:0:0:0:
91,164,129989,2,0,P|82:208|95:251,1,90,0|0,0:0|0:0,0:0:0:0:
156,340,130402,1,8,0:0:0:0:
256,298,130609,1,0,0:0:0:0:
292,197,130816,6,0,L|295:80,1,90,2|0,1:0|0:0,0:0:0:0:
381,42,131230,2,0,L|379:132,1,90,8|0,0:0|0:0,0:0:0:0:
360,238,131644,1,0,0:0:0:0:
258,273,131851,2,0,L|145:278,2,90,0|0|0,0:0|0:0|0:0,0:0:0:0:
360,238,132471,6,0,P|350:187|364:149,1,90,6|0,1:0|0:0,0:0:0:0:
461,108,132885,2,0,P|472:159|446:218,1,90,8|0,0:0|0:0,0:0:0:0:
360,238,133299,2,0,L|250:241,1,90,0|0,0:0|0:0,0:0:0:0:
165,267,133713,1,8,0:0:0:0:
72,214,133920,1,0,0:0:0:0:
107,112,134126,2,0,P|128:81|181:68,1,90,2|0,1:0|0:0,0:0:0:0:
245,154,134540,6,0,L|235:274,1,90,8|0,0:0|0:0,0:0:0:0:
309,325,134954,2,0,L|413:327,1,90,8|0,0:0|0:0,0:0:0:0:
506,308,135368,1,8,0:0:0:0:
491,202,135575,1,0,0:0:0:0:
391,239,135782,6,0,L|396:341,1,90,2|0,1:0|0:0,0:0:0:0:
305,272,136195,2,0,L|300:180,1,90,8|0,0:0|0:0,0:0:0:0:
341,83,136609,2,0,P|386:69|435:94,1,90,0|0,0:0|0:0,0:0:0:0:
463,180,137023,1,8,0:0:0:0:
424,281,137230,1,0,0:0:0:0:
256,192,137437,12,4,140747,2:0:0:0:
