osu file format v5

[General]
AudioFilename: DancingLashaTumbai.mp3
AudioLeadIn: 0
PreviewTime: -1
Countdown: 1
SampleSet: Normal
StackLeniency: 0.7
Mode: 0
LetterboxInBreaks: 1

[Metadata]
Title:Dancing Lasha Tumbai
Artist:Verka Serduchka
Creator:240-185
Version:Hard
Source:
Tags:

[Difficulty]
HPDrainRate:6
CircleSize:3
OverallDifficulty:6
SliderMultiplier:1.4
SliderTickRate:1

[Events]
//Background and Video events
0,0,"vs.jpg"
//Break Periods
//Storyboard Layer 0 (Background)
//Storyboard Layer 1 (Failing)
//Storyboard Layer 2 (Passing)
//Storyboard Layer 3 (Foreground)
//Storyboard Sound Samples
//Background Colour Transformations
3,100,163,162,255

[TimingPoints]
14059,416.675425428,4,1,0,100

[HitObjects]
128,64,14038,1,0
384,64,14475,1,0
384,288,14892,1,0
128,288,15309,1,2
128,64,15725,5,0
384,64,16142,1,0
256,192,16559,5,2
256,192,16975,1,2
384,64,17392,5,0
128,64,17809,1,0
128,288,18225,1,0
384,288,18642,1,2
256,192,19059,5,2
256,192,19475,1,2
256,192,19892,1,2
64,64,20725,5,0
128,64,20934,1,0
192,64,21142,1,0
448,288,21559,1,0
384,288,21767,1,0
320,288,21975,1,0
448,64,22392,5,0
384,64,22600,1,0
320,64,22809,1,0
256,192,23225,5,2
256,192,23642,1,2
448,64,24059,5,0
384,64,24267,1,0
320,64,24475,1,0
192,320,24892,1,0
128,320,25100,1,0
64,320,25309,1,0
256,64,25725,5,2
192,320,26142,1,2
320,320,26559,1,2
192,64,27392,5,0
320,64,27809,1,0
96,156,28225,2,0,B|109:218|168:271|214:212|215:198,1,140
320,64,29059,5,0
192,64,29476,1,0
416,156,29892,2,0,B|403:218|344:271|298:212|297:198,1,140
320,320,30726,5,0
192,320,31143,1,0
416,228,31559,2,0,B|403:166|344:113|298:172|297:186,1,140
317,160,32184,1,0
128,160,32601,1,0
128,224,33226,1,0
128,224,33434,1,0
128,224,33642,1,0
128,224,33851,1,0
192,64,34059,5,0
320,320,34476,1,0
96,156,34892,2,0,B|109:218|168:271|214:212|215:198,1,140
192,320,35726,5,0
320,320,36143,1,0
96,228,36559,2,0,B|109:166|168:113|214:172|215:186,1,140
96,64,37392,1,0
96,64,37809,6,0,B|384:-32|384:352,1,490
384,320,39684,1,0
128,64,40101,1,0
128,160,40726,5,0
384,160,41142,1,0
384,224,41559,1,0
128,224,41976,1,2
128,224,42392,5,0
384,224,42809,1,0
256,192,43226,5,2
256,192,43642,1,2
384,160,44059,5,0
128,160,44476,1,0
128,224,44892,1,0
384,224,45309,1,2
256,320,45726,5,2
192,64,46143,1,2
320,64,46559,1,2
64,64,47393,5,0
64,64,47601,1,0
64,64,47809,1,0
448,64,48226,1,0
448,64,48434,1,0
448,64,48643,1,0
448,288,49059,5,0
448,288,49268,1,0
448,288,49476,1,0
64,64,49893,5,2
448,64,50309,1,2
64,288,50726,5,0
64,288,50934,1,0
64,288,51143,1,0
448,288,51559,5,0
448,288,51768,1,0
448,288,51976,1,0
448,288,52184,1,0
64,288,52393,5,2
448,288,52809,1,2
256,64,53226,1,2
192,64,54059,5,0
320,64,54476,1,0
96,156,54892,2,0,B|109:218|168:271|214:212|215:198,1,140
320,64,55726,5,0
192,64,56143,1,0
416,156,56559,2,0,B|403:218|344:271|298:212|297:198,1,140
320,320,57393,5,0
192,320,57810,1,0
416,228,58226,2,0,B|403:166|344:113|298:172|297:186,1,140
317,160,58851,1,0
192,160,59268,5,0
256,256,59684,1,0
256,256,59893,1,0
320,160,60309,1,0
192,64,60726,5,0
320,320,61143,1,0
96,156,61559,2,0,B|109:218|168:271|214:212|215:198,1,140
192,320,62393,5,0
320,320,62810,1,0
96,228,63226,2,0,B|109:166|168:113|214:172|215:186,1,140
320,320,64060,5,0
192,320,64477,1,0
416,228,64893,2,0,B|403:166|344:113|298:172|297:186,1,140
317,160,65518,1,0
192,160,65935,5,0
256,256,66351,1,0
256,256,66560,1,0
320,160,66976,1,0
64,64,67393,5,0
128,128,67705,1,0
192,192,68018,1,0
288,288,68643,2,0,B|448:288,1,140
448,64,70728,5,0
384,128,71040,1,0
320,192,71351,1,0
224,288,71976,2,0,B|64:288,1,140
64,320,74060,5,0
128,256,74372,1,0
192,192,74685,1,0
288,96,75310,2,0,B|448:96,1,140
448,320,77393,5,0
384,256,77705,1,0
320,192,78018,1,0
224,96,78643,2,2,B|64:96,1,140
64,64,80727,5,0
128,128,81039,1,0
192,192,81352,1,0
320,192,82393,1,0
384,128,82706,1,0
448,64,83018,1,0
448,64,83227,1,0
448,64,84060,5,0
384,128,84372,1,0
320,192,84685,1,0
192,192,85726,1,0
128,128,86039,1,0
64,64,86351,1,0
64,64,86560,1,0
64,320,87393,5,0
128,256,87705,1,0
192,192,88018,1,0
320,192,89059,1,0
384,256,89372,1,0
448,320,89684,1,0
448,320,89893,1,0
448,320,90727,5,0
384,256,91039,1,0
320,192,91352,1,0
256,192,91977,12,0,94060
256,192,94477,1,0
192,192,94894,1,0
320,192,95310,1,0
320,192,95519,1,0
192,192,95935,5,0
320,192,96352,1,0
192,192,96769,1,0
192,192,96977,1,0
320,192,97394,5,0
192,192,97810,1,0
256,322,98227,6,0,B|256:95|256:96,1,210
256,64,99269,1,0
256,288,99685,1,0
256,288,99894,1,0
256,96,100310,1,0
320,192,100727,5,0
256,192,101144,1,0
192,192,101561,1,0
320,192,101977,1,0
320,192,102186,1,0
192,192,102602,5,0
320,192,103019,1,0
192,192,103436,1,0
192,192,103644,1,0
320,192,104061,5,0
192,192,104477,1,0
256,322,104894,6,0,B|256:95|256:96,1,210
256,64,105936,1,0
256,288,106352,1,0
256,192,106769,1,0
256,192,106977,1,2
448,64,107394,5,0
384,128,107706,1,0
320,192,108019,1,0
224,288,108644,2,0,B|64:288,1,140
64,64,110729,5,0
128,128,111041,1,0
192,192,111352,1,0
288,288,111977,2,0,B|448:288,1,140
448,320,114061,5,0
384,256,114373,1,0
320,192,114686,1,0
224,96,115311,2,0,B|64:96,1,140
64,320,117394,5,0
128,256,117706,1,0
192,192,118019,1,0
288,96,118644,2,2,B|448:96,1,140
448,64,120727,5,0
384,128,121039,1,0
320,192,121352,1,0
192,192,122393,1,0
128,128,122706,1,0
64,64,123018,1,0
64,64,123227,1,0
64,64,124060,5,0
128,128,124372,1,0
192,192,124685,1,0
320,192,125726,1,0
384,128,126039,1,0
448,64,126351,1,0
448,64,126560,1,0
448,320,127393,5,0
384,256,127705,1,0
320,192,128018,1,0
192,192,129059,1,0
128,256,129372,1,0
64,320,129684,1,0
64,320,129893,1,0
64,320,130727,5,0
128,256,131039,1,0
192,192,131352,1,0
256,192,131977,12,0,134060
192,192,134478,1,0
320,192,134894,5,0
64,192,135311,5,0
448,192,135728,5,0
448,96,136144,1,0
320,96,136561,1,0
192,96,136978,1,0
64,96,137394,5,0
64,288,137811,1,0
192,288,138228,1,0
320,288,138644,1,0
448,288,139061,1,0
448,192,139478,1,0
64,192,139894,1,2
256,192,140936,5,0
256,256,141353,1,0
320,256,141770,1,0
320,192,142186,1,0
320,128,142603,1,0
256,128,143020,1,0
192,128,143436,1,0
192,192,143853,1,0
192,256,144270,5,0
256,256,144686,1,0
320,256,145103,1,0
320,192,145520,1,0
256,192,145936,1,0
192,192,146353,1,0
192,128,146770,1,2
192,64,147395,5,0
320,64,147812,1,0
96,156,148228,2,0,B|109:218|168:271|214:212|215:198,1,140
320,64,149062,5,0
192,64,149479,1,0
416,156,149895,2,0,B|403:218|344:271|298:212|297:198,1,140
320,320,150729,5,0
192,320,151146,1,0
416,228,151562,2,0,B|403:166|344:113|298:172|297:186,1,140
317,160,152187,1,0
128,160,152604,1,0
128,160,153228,1,0
128,320,153645,1,0
192,320,154061,5,0
320,320,154478,1,0
96,228,154894,2,0,B|109:166|168:113|214:172|215:186,1,140
320,320,155728,5,0
192,320,156145,1,0
416,228,156561,2,0,B|403:166|344:113|298:172|297:186,1,140
320,64,157395,5,0
192,64,157812,1,0
416,156,158228,2,0,B|403:218|344:271|298:212|297:198,1,140
317,224,158853,1,0
128,224,159270,1,0
128,160,159895,1,0
128,160,160312,1,2
192,64,160728,5,0
320,64,161145,1,0
96,156,161561,2,0,B|109:218|168:271|214:212|215:198,1,140
320,64,162395,5,0
192,64,162812,1,0
416,156,163228,2,0,B|403:218|344:271|298:212|297:198,1,140
320,320,164062,5,0
192,320,164479,1,0
416,228,164895,2,0,B|403:166|344:113|298:172|297:186,1,140
317,160,165520,1,0
128,160,165937,1,0
384,160,166562,1,0
384,160,166978,1,0
192,320,167394,5,0
320,320,167811,1,0
96,228,168227,2,0,B|109:166|168:113|214:172|215:186,1,140
320,320,169061,5,0
192,320,169478,1,0
416,228,169894,2,0,B|403:166|344:113|298:172|297:186,1,140
320,64,170728,5,0
192,64,171145,1,0
416,156,171561,2,0,B|403:218|344:271|298:212|297:198,1,140
317,224,172187,1,0
128,224,172603,1,0
128,160,173229,1,0
128,160,173437,1,0
128,160,173645,1,0
128,160,173854,1,2
256,192,175729,5,2
256,192,178229,5,2
256,192,178645,1,6
