osu file format v14

[General]
AudioFilename: Apollo.mp3
AudioLeadIn: 2
PreviewTime: 105500
Countdown: 0
SampleSet: Normal
StackLeniency: 0.7
Mode: 3
LetterboxInBreaks: 0
SpecialStyle: 0
WidescreenStoryboard: 0

[Editor]
DistanceSpacing: 0.8
BeatDivisor: 4
GridSize: 8
TimelineZoom: 1

[Metadata]
Title:dakemoto's Collection Pack Vol.2
TitleUnicode:dakemoto's Collection Pack Vol.2
Artist:Verious Artist
ArtistUnicode:Verious Artist
Creator:dakemoto
Version:Apollo (Challenge)
Source:Stepmania
Tags:
BeatmapID:741020
BeatmapSetID:334680

[Difficulty]
HPDrainRate:7
CircleSize:4
OverallDifficulty:8
ApproachRate:10
SliderMultiplier:1.4
SliderTickRate:1

[Events]
//Background and Video events
0,0,"Apollo bg.jpg",0,0
//Break Periods
//Storyboard Layer 0 (Background)
//Storyboard Layer 1 (Fail)
//Storyboard Layer 2 (Pass)
//Storyboard Layer 3 (Foreground)
//Storyboard Sound Samples

[TimingPoints]
-1325,387.0968,4,1,0,15,1,0

[HitObjects]
64,192,223,5,0,0:0:0:0:
320,192,223,1,0,0:0:0:0:
448,192,223,1,0,0:0:0:0:
192,192,416,1,0,0:0:0:0:
320,192,513,1,0,0:0:0:0:
448,192,610,1,0,0:0:0:0:
64,192,707,1,0,0:0:0:0:
320,192,804,1,0,0:0:0:0:
192,192,900,1,0,0:0:0:0:
64,192,997,1,0,0:0:0:0:
320,192,1094,1,0,0:0:0:0:
64,192,1191,1,0,0:0:0:0:
320,192,1287,1,0,0:0:0:0:
192,192,1384,1,0,0:0:0:0:
448,192,1481,1,0,0:0:0:0:
64,192,1771,1,0,0:0:0:0:
320,192,1771,1,0,0:0:0:0:
448,192,1965,1,0,0:0:0:0:
192,192,2062,1,0,0:0:0:0:
64,192,2158,1,0,0:0:0:0:
320,192,2255,1,0,0:0:0:0:
192,192,2352,1,0,0:0:0:0:
448,192,2449,1,0,0:0:0:0:
192,192,2545,1,0,0:0:0:0:
320,192,2642,1,0,0:0:0:0:
448,192,2739,1,0,0:0:0:0:
64,192,2836,1,0,0:0:0:0:
320,192,2933,1,0,0:0:0:0:
192,192,3029,1,0,0:0:0:0:
64,192,3320,1,0,0:0:0:0:
192,192,3320,1,0,0:0:0:0:
448,192,3513,1,0,0:0:0:0:
320,192,3610,1,0,0:0:0:0:
64,192,3707,1,0,0:0:0:0:
448,192,3804,1,0,0:0:0:0:
192,192,3900,1,0,0:0:0:0:
320,192,3997,1,0,0:0:0:0:
64,192,4094,1,0,0:0:0:0:
320,192,4191,1,0,0:0:0:0:
448,192,4287,1,0,0:0:0:0:
192,192,4384,1,0,0:0:0:0:
320,192,4481,1,0,0:0:0:0:
64,192,4578,1,0,0:0:0:0:
192,192,4868,1,0,0:0:0:0:
448,192,4868,1,0,0:0:0:0:
64,192,5062,1,0,0:0:0:0:
320,192,5158,1,0,0:0:0:0:
448,192,5255,1,0,0:0:0:0:
64,192,5352,1,0,0:0:0:0:
320,192,5449,1,0,0:0:0:0:
192,192,5545,1,0,0:0:0:0:
448,192,5642,1,0,0:0:0:0:
320,192,5739,1,0,0:0:0:0:
64,192,5836,1,0,0:0:0:0:
320,192,5933,1,0,0:0:0:0:
192,192,6029,1,0,0:0:0:0:
448,192,6126,1,0,0:0:0:0:
64,192,6416,1,0,0:0:0:0:
192,192,6416,1,0,0:0:0:0:
320,192,6416,1,0,0:0:0:0:
448,192,6610,1,0,0:0:0:0:
192,192,6707,1,0,0:0:0:0:
64,192,6804,1,0,0:0:0:0:
320,192,6804,1,0,0:0:0:0:
448,192,6900,1,0,0:0:0:0:
192,192,6997,1,0,0:0:0:0:
320,192,7094,1,0,0:0:0:0:
64,192,7191,1,0,0:0:0:0:
448,192,7191,1,0,0:0:0:0:
192,192,7287,1,0,0:0:0:0:
320,192,7384,1,0,0:0:0:0:
64,192,7481,1,0,0:0:0:0:
320,192,7578,1,0,0:0:0:0:
448,192,7578,1,0,0:0:0:0:
192,192,7675,1,0,0:0:0:0:
64,192,7771,1,0,0:0:0:0:
192,192,7965,1,0,0:0:0:0:
448,192,7965,1,0,0:0:0:0:
320,192,8158,1,0,0:0:0:0:
192,192,8255,1,0,0:0:0:0:
64,192,8352,1,0,0:0:0:0:
448,192,8352,1,0,0:0:0:0:
320,192,8449,1,0,0:0:0:0:
64,192,8545,1,0,0:0:0:0:
448,192,8642,1,0,0:0:0:0:
64,192,8739,1,0,0:0:0:0:
192,192,8739,1,0,0:0:0:0:
320,192,8836,1,0,0:0:0:0:
448,192,8933,1,0,0:0:0:0:
192,192,9029,1,0,0:0:0:0:
64,192,9126,1,0,0:0:0:0:
320,192,9126,1,0,0:0:0:0:
192,192,9223,1,0,0:0:0:0:
448,192,9320,1,0,0:0:0:0:
64,192,9513,1,0,0:0:0:0:
192,192,9513,1,0,0:0:0:0:
320,192,9707,1,0,0:0:0:0:
192,192,9804,1,0,0:0:0:0:
320,192,9900,1,0,0:0:0:0:
448,192,9900,1,0,0:0:0:0:
64,192,9997,1,0,0:0:0:0:
320,192,10094,1,0,0:0:0:0:
192,192,10191,1,0,0:0:0:0:
64,192,10287,1,0,0:0:0:0:
448,192,10287,1,0,0:0:0:0:
192,192,10384,1,0,0:0:0:0:
448,192,10481,1,0,0:0:0:0:
320,192,10578,1,0,0:0:0:0:
64,192,10675,1,0,0:0:0:0:
192,192,10675,1,0,0:0:0:0:
320,192,10771,1,0,0:0:0:0:
448,192,10868,1,0,0:0:0:0:
64,192,11062,1,0,0:0:0:0:
192,192,11062,1,0,0:0:0:0:
448,192,11062,1,0,0:0:0:0:
64,192,11642,1,0,0:0:0:0:
192,192,11642,1,0,0:0:0:0:
448,192,11642,1,0,0:0:0:0:
64,192,11739,1,0,0:0:0:0:
192,192,11739,1,0,0:0:0:0:
448,192,11739,1,0,0:0:0:0:
64,192,11933,1,0,0:0:0:0:
192,192,11933,1,0,0:0:0:0:
448,192,11933,1,0,0:0:0:0:
64,192,12029,1,0,0:0:0:0:
192,192,12029,1,0,0:0:0:0:
448,192,12029,1,0,0:0:0:0:
64,192,12223,1,0,0:0:0:0:
192,192,12223,1,0,0:0:0:0:
448,192,12223,1,0,0:0:0:0:
64,192,12320,1,0,0:0:0:0:
192,192,12320,1,0,0:0:0:0:
448,192,12320,1,0,0:0:0:0:
64,192,12610,1,0,0:0:0:0:
192,192,12610,1,0,0:0:0:0:
448,192,12610,1,0,0:0:0:0:
320,192,12707,1,0,0:0:0:0:
64,192,12804,1,0,0:0:0:0:
448,192,12900,1,0,0:0:0:0:
64,192,12997,1,0,0:0:0:0:
192,192,12997,1,0,0:0:0:0:
320,192,13094,1,0,0:0:0:0:
448,192,13191,1,0,0:0:0:0:
192,192,13287,1,0,0:0:0:0:
64,192,13384,1,0,0:0:0:0:
448,192,13384,1,0,0:0:0:0:
320,192,13481,1,0,0:0:0:0:
64,192,13578,1,0,0:0:0:0:
320,192,13675,1,0,0:0:0:0:
64,192,13771,1,0,0:0:0:0:
192,192,13771,1,0,0:0:0:0:
448,192,13868,1,0,0:0:0:0:
320,192,13965,1,0,0:0:0:0:
64,192,14062,1,0,0:0:0:0:
320,192,14158,1,0,0:0:0:0:
448,192,14158,1,0,0:0:0:0:
64,192,14223,1,0,0:0:0:0:
192,192,14287,1,0,0:0:0:0:
320,192,14352,1,0,0:0:0:0:
192,192,14449,1,0,0:0:0:0:
64,192,14545,1,0,0:0:0:0:
448,192,14545,1,0,0:0:0:0:
320,192,14642,1,0,0:0:0:0:
64,192,14739,1,0,0:0:0:0:
192,192,14836,1,0,0:0:0:0:
320,192,14933,1,0,0:0:0:0:
448,192,14933,1,0,0:0:0:0:
64,192,15029,1,0,0:0:0:0:
320,192,15126,1,0,0:0:0:0:
192,192,15223,1,0,0:0:0:0:
64,192,15320,1,0,0:0:0:0:
320,192,15320,1,0,0:0:0:0:
192,192,15416,1,0,0:0:0:0:
320,192,15513,1,0,0:0:0:0:
448,192,15610,1,0,0:0:0:0:
64,192,15707,1,0,0:0:0:0:
192,192,15707,1,0,0:0:0:0:
320,192,15804,1,0,0:0:0:0:
448,192,15900,1,0,0:0:0:0:
192,192,15997,1,0,0:0:0:0:
320,192,16094,1,0,0:0:0:0:
448,192,16094,1,0,0:0:0:0:
192,192,16191,1,0,0:0:0:0:
64,192,16287,1,0,0:0:0:0:
320,192,16384,1,0,0:0:0:0:
64,192,16481,1,0,0:0:0:0:
192,192,16481,1,0,0:0:0:0:
448,192,16578,1,0,0:0:0:0:
320,192,16675,1,0,0:0:0:0:
64,192,16771,1,0,0:0:0:0:
192,192,16868,1,0,0:0:0:0:
448,192,16868,1,0,0:0:0:0:
320,192,16965,1,0,0:0:0:0:
448,192,17062,1,0,0:0:0:0:
192,192,17158,1,0,0:0:0:0:
320,192,17255,1,0,0:0:0:0:
448,0,17255,128,0,17642:1:0:0:0:
192,192,17352,1,0,0:0:0:0:
64,192,17449,1,0,0:0:0:0:
320,192,17545,1,0,0:0:0:0:
64,192,17642,1,0,0:0:0:0:
192,192,17642,1,0,0:0:0:0:
448,192,17739,1,0,0:0:0:0:
320,192,17836,1,0,0:0:0:0:
64,192,17933,1,0,0:0:0:0:
192,192,18029,1,0,0:0:0:0:
320,192,18029,1,0,0:0:0:0:
64,192,18126,1,0,0:0:0:0:
448,192,18223,1,0,0:0:0:0:
192,192,18320,1,0,0:0:0:0:
320,192,18416,1,0,0:0:0:0:
448,192,18416,1,0,0:0:0:0:
64,192,18513,1,0,0:0:0:0:
320,192,18610,1,0,0:0:0:0:
448,192,18707,1,0,0:0:0:0:
64,192,18804,1,0,0:0:0:0:
192,192,18804,1,0,0:0:0:0:
320,192,18804,1,0,0:0:0:0:
448,192,18900,1,0,0:0:0:0:
192,192,18997,1,0,0:0:0:0:
64,192,19094,1,0,0:0:0:0:
320,192,19191,1,0,0:0:0:0:
448,192,19191,1,0,0:0:0:0:
192,192,19287,1,0,0:0:0:0:
64,192,19384,1,0,0:0:0:0:
320,192,19481,1,0,0:0:0:0:
64,192,19578,1,0,0:0:0:0:
192,192,19578,1,0,0:0:0:0:
320,192,19675,1,0,0:0:0:0:
448,192,19771,1,0,0:0:0:0:
192,192,19868,1,0,0:0:0:0:
64,192,19965,1,0,0:0:0:0:
448,192,19965,1,0,0:0:0:0:
192,192,20062,1,0,0:0:0:0:
320,192,20158,1,0,0:0:0:0:
192,192,20255,1,0,0:0:0:0:
64,192,20352,1,0,0:0:0:0:
320,192,20352,1,0,0:0:0:0:
192,192,20416,1,0,0:0:0:0:
320,192,20481,1,0,0:0:0:0:
448,192,20545,1,0,0:0:0:0:
64,192,20642,1,0,0:0:0:0:
320,192,20739,1,0,0:0:0:0:
448,192,20739,1,0,0:0:0:0:
192,192,20836,1,0,0:0:0:0:
64,192,20933,1,0,0:0:0:0:
448,192,21029,1,0,0:0:0:0:
192,192,21126,1,0,0:0:0:0:
320,192,21126,1,0,0:0:0:0:
64,192,21223,1,0,0:0:0:0:
448,192,21320,1,0,0:0:0:0:
192,192,21416,1,0,0:0:0:0:
320,192,21513,1,0,0:0:0:0:
448,192,21513,1,0,0:0:0:0:
64,192,21610,1,0,0:0:0:0:
320,192,21707,1,0,0:0:0:0:
192,192,21804,1,0,0:0:0:0:
64,192,21900,1,0,0:0:0:0:
320,192,21900,1,0,0:0:0:0:
448,192,21900,1,0,0:0:0:0:
192,192,21997,1,0,0:0:0:0:
448,192,22094,1,0,0:0:0:0:
320,192,22191,1,0,0:0:0:0:
192,192,22287,1,0,0:0:0:0:
448,192,22287,1,0,0:0:0:0:
320,192,22384,1,0,0:0:0:0:
64,192,22481,1,0,0:0:0:0:
448,192,22578,1,0,0:0:0:0:
64,192,22675,1,0,0:0:0:0:
192,192,22675,1,0,0:0:0:0:
320,192,22675,1,0,0:0:0:0:
448,192,22771,1,0,0:0:0:0:
192,192,22868,1,0,0:0:0:0:
320,192,22965,1,0,0:0:0:0:
64,192,23062,1,0,0:0:0:0:
192,192,23062,1,0,0:0:0:0:
448,192,23062,1,0,0:0:0:0:
320,192,23158,1,0,0:0:0:0:
192,192,23255,1,0,0:0:0:0:
64,192,23352,1,0,0:0:0:0:
64,192,23449,1,0,0:0:0:0:
320,192,23449,1,0,0:0:0:0:
448,192,23449,1,0,0:0:0:0:
64,192,23739,1,0,0:0:0:0:
320,192,23739,1,0,0:0:0:0:
448,192,23739,1,0,0:0:0:0:
64,192,24029,1,0,0:0:0:0:
320,192,24029,1,0,0:0:0:0:
448,192,24029,1,0,0:0:0:0:
64,192,24320,1,0,0:0:0:0:
320,192,24320,1,0,0:0:0:0:
448,192,24320,1,0,0:0:0:0:
64,192,24610,1,0,0:0:0:0:
320,192,24610,1,0,0:0:0:0:
448,192,24610,1,0,0:0:0:0:
64,192,24707,1,0,0:0:0:0:
192,192,24707,1,0,0:0:0:0:
320,192,24804,1,0,0:0:0:0:
448,192,24804,1,0,0:0:0:0:
64,192,24900,1,0,0:0:0:0:
192,192,24900,1,0,0:0:0:0:
320,192,24997,1,0,0:0:0:0:
448,0,24997,128,0,26158:1:0:0:0:
64,192,25191,1,0,0:0:0:0:
320,192,25287,1,0,0:0:0:0:
192,192,25384,1,0,0:0:0:0:
320,192,25578,1,0,0:0:0:0:
192,192,25675,1,0,0:0:0:0:
64,192,25771,1,0,0:0:0:0:
320,192,25868,1,0,0:0:0:0:
64,192,25965,1,0,0:0:0:0:
192,192,26062,1,0,0:0:0:0:
320,192,26158,1,0,0:0:0:0:
192,192,26255,1,0,0:0:0:0:
448,192,26352,1,0,0:0:0:0:
64,0,26352,128,0,27320:1:0:0:0:
320,192,26449,1,0,0:0:0:0:
192,192,26545,1,0,0:0:0:0:
320,192,26642,1,0,0:0:0:0:
448,192,26739,1,0,0:0:0:0:
192,192,26933,1,0,0:0:0:0:
448,192,27029,1,0,0:0:0:0:
320,192,27126,1,0,0:0:0:0:
192,192,27223,1,0,0:0:0:0:
448,192,27320,1,0,0:0:0:0:
192,192,27416,1,0,0:0:0:0:
64,192,27513,1,0,0:0:0:0:
320,0,27513,128,0,27900:1:0:0:0:
192,192,27707,1,0,0:0:0:0:
448,192,27804,1,0,0:0:0:0:
192,192,27900,1,0,0:0:0:0:
320,192,27997,1,0,0:0:0:0:
192,192,28094,1,0,0:0:0:0:
64,0,28094,128,0,29255:1:0:0:0:
320,192,28191,1,0,0:0:0:0:
448,192,28287,1,0,0:0:0:0:
192,192,28481,1,0,0:0:0:0:
448,192,28578,1,0,0:0:0:0:
192,192,28675,1,0,0:0:0:0:
320,192,28771,1,0,0:0:0:0:
448,192,28868,1,0,0:0:0:0:
320,192,28965,1,0,0:0:0:0:
192,192,29062,1,0,0:0:0:0:
448,192,29158,1,0,0:0:0:0:
320,192,29255,1,0,0:0:0:0:
448,192,29352,1,0,0:0:0:0:
64,192,29449,1,0,0:0:0:0:
192,0,29449,128,0,30223:1:0:0:0:
320,192,29642,1,0,0:0:0:0:
64,192,29739,1,0,0:0:0:0:
448,192,29836,1,0,0:0:0:0:
64,192,30029,1,0,0:0:0:0:
320,192,30126,1,0,0:0:0:0:
448,192,30223,1,0,0:0:0:0:
320,192,30320,1,0,0:0:0:0:
192,192,30416,1,0,0:0:0:0:
64,0,30416,128,0,30513:1:0:0:0:
320,192,30513,1,0,0:0:0:0:
192,192,30610,1,0,0:0:0:0:
448,0,30610,128,0,30804:1:0:0:0:
64,192,30804,1,0,0:0:0:0:
320,192,30900,1,0,0:0:0:0:
448,192,30997,1,0,0:0:0:0:
192,0,30997,128,0,31094:1:0:0:0:
320,192,31094,1,0,0:0:0:0:
192,192,31191,1,0,0:0:0:0:
448,192,31191,1,0,0:0:0:0:
64,0,31191,128,0,31965:1:0:0:0:
320,192,31287,1,0,0:0:0:0:
448,192,31384,1,0,0:0:0:0:
192,192,31578,1,0,0:0:0:0:
320,192,31675,1,0,0:0:0:0:
448,192,31771,1,0,0:0:0:0:
192,192,31868,1,0,0:0:0:0:
448,192,31965,1,0,0:0:0:0:
320,192,32062,1,0,0:0:0:0:
192,192,32158,1,0,0:0:0:0:
64,192,32255,1,0,0:0:0:0:
320,192,32352,1,0,0:0:0:0:
192,0,32352,128,0,32449:1:0:0:0:
64,192,32449,1,0,0:0:0:0:
320,192,32545,1,0,0:0:0:0:
448,0,32545,128,0,33126:1:0:0:0:
192,192,32642,1,0,0:0:0:0:
64,192,32739,1,0,0:0:0:0:
192,192,32836,1,0,0:0:0:0:
320,192,32933,1,0,0:0:0:0:
64,192,33126,1,0,0:0:0:0:
192,192,33223,1,0,0:0:0:0:
448,192,33320,1,0,0:0:0:0:
64,0,33320,128,0,33513:1:0:0:0:
320,192,33416,1,0,0:0:0:0:
192,192,33513,1,0,0:0:0:0:
320,192,33610,1,0,0:0:0:0:
64,192,33707,1,0,0:0:0:0:
448,0,33707,128,0,33900:1:0:0:0:
320,192,33900,1,0,0:0:0:0:
192,192,33997,1,0,0:0:0:0:
448,192,34094,1,0,0:0:0:0:
64,0,34094,128,0,34191:1:0:0:0:
192,192,34191,1,0,0:0:0:0:
448,192,34287,1,0,0:0:0:0:
320,0,34287,128,0,34675:1:0:0:0:
192,192,34384,1,0,0:0:0:0:
64,192,34481,1,0,0:0:0:0:
448,192,34578,1,0,0:0:0:0:
64,192,34675,1,0,0:0:0:0:
192,192,34771,1,0,0:0:0:0:
448,192,34868,1,0,0:0:0:0:
320,192,34965,1,0,0:0:0:0:
192,192,35062,1,0,0:0:0:0:
64,0,35062,128,0,35449:1:0:0:0:
320,192,35158,1,0,0:0:0:0:
448,192,35255,1,0,0:0:0:0:
192,192,35352,1,0,0:0:0:0:
320,192,35449,1,0,0:0:0:0:
192,192,35545,1,0,0:0:0:0:
64,192,35642,1,0,0:0:0:0:
448,0,35642,128,0,36416:1:0:0:0:
320,192,35739,1,0,0:0:0:0:
64,192,35836,1,0,0:0:0:0:
192,192,35933,1,0,0:0:0:0:
320,192,36029,1,0,0:0:0:0:
64,192,36223,1,0,0:0:0:0:
192,192,36320,1,0,0:0:0:0:
320,192,36416,1,0,0:0:0:0:
64,192,36513,1,0,0:0:0:0:
320,192,36610,1,0,0:0:0:0:
448,192,36610,1,0,0:0:0:0:
192,192,36707,1,0,0:0:0:0:
64,192,36804,1,0,0:0:0:0:
320,192,36900,1,0,0:0:0:0:
192,192,36997,1,0,0:0:0:0:
448,192,36997,1,0,0:0:0:0:
64,192,37094,1,0,0:0:0:0:
320,192,37191,1,0,0:0:0:0:
192,192,37287,1,0,0:0:0:0:
64,192,37384,1,0,0:0:0:0:
320,192,37384,1,0,0:0:0:0:
448,192,37384,1,0,0:0:0:0:
192,192,37481,1,0,0:0:0:0:
320,192,37578,1,0,0:0:0:0:
64,192,37675,1,0,0:0:0:0:
192,192,37771,1,0,0:0:0:0:
448,192,37771,1,0,0:0:0:0:
320,192,37868,1,0,0:0:0:0:
192,192,37965,1,0,0:0:0:0:
448,192,38062,1,0,0:0:0:0:
64,192,38158,1,0,0:0:0:0:
192,192,38158,1,0,0:0:0:0:
320,192,38255,1,0,0:0:0:0:
448,192,38352,1,0,0:0:0:0:
192,192,38449,1,0,0:0:0:0:
64,192,38545,1,0,0:0:0:0:
320,192,38545,1,0,0:0:0:0:
192,192,38642,1,0,0:0:0:0:
448,192,38642,1,0,0:0:0:0:
64,192,38739,1,0,0:0:0:0:
320,192,38739,1,0,0:0:0:0:
192,192,38836,1,0,0:0:0:0:
448,192,38836,1,0,0:0:0:0:
64,192,38933,1,0,0:0:0:0:
320,192,38933,1,0,0:0:0:0:
192,192,39029,1,0,0:0:0:0:
64,192,39126,1,0,0:0:0:0:
320,192,39223,1,0,0:0:0:0:
192,192,39320,1,0,0:0:0:0:
448,192,39320,1,0,0:0:0:0:
320,192,39416,1,0,0:0:0:0:
192,192,39513,1,0,0:0:0:0:
64,192,39610,1,0,0:0:0:0:
320,192,39707,1,0,0:0:0:0:
448,192,39707,1,0,0:0:0:0:
192,192,39804,1,0,0:0:0:0:
64,192,39900,1,0,0:0:0:0:
320,192,39997,1,0,0:0:0:0:
64,192,40094,1,0,0:0:0:0:
192,192,40094,1,0,0:0:0:0:
320,192,40191,1,0,0:0:0:0:
448,192,40191,1,0,0:0:0:0:
64,192,40287,1,0,0:0:0:0:
192,192,40287,1,0,0:0:0:0:
320,192,40384,1,0,0:0:0:0:
448,192,40384,1,0,0:0:0:0:
64,192,40481,1,0,0:0:0:0:
192,192,40481,1,0,0:0:0:0:
320,192,40578,1,0,0:0:0:0:
448,192,40675,1,0,0:0:0:0:
64,192,40771,1,0,0:0:0:0:
192,192,40868,1,0,0:0:0:0:
320,192,40868,1,0,0:0:0:0:
64,192,40965,1,0,0:0:0:0:
448,192,41062,1,0,0:0:0:0:
192,192,41158,1,0,0:0:0:0:
64,192,41255,1,0,0:0:0:0:
448,192,41255,1,0,0:0:0:0:
192,192,41352,1,0,0:0:0:0:
320,192,41449,1,0,0:0:0:0:
64,192,41545,1,0,0:0:0:0:
192,192,41642,1,0,0:0:0:0:
320,192,41642,1,0,0:0:0:0:
64,192,41739,1,0,0:0:0:0:
448,192,41739,1,0,0:0:0:0:
192,192,41836,1,0,0:0:0:0:
320,192,41836,1,0,0:0:0:0:
64,192,41933,1,0,0:0:0:0:
448,192,41933,1,0,0:0:0:0:
192,192,42029,1,0,0:0:0:0:
320,192,42029,1,0,0:0:0:0:
64,192,42126,1,0,0:0:0:0:
320,192,42223,1,0,0:0:0:0:
192,192,42320,1,0,0:0:0:0:
64,192,42416,1,0,0:0:0:0:
448,192,42416,1,0,0:0:0:0:
192,192,42513,1,0,0:0:0:0:
320,192,42610,1,0,0:0:0:0:
64,192,42707,1,0,0:0:0:0:
192,192,42804,1,0,0:0:0:0:
320,192,42804,1,0,0:0:0:0:
448,192,42900,1,0,0:0:0:0:
192,192,42997,1,0,0:0:0:0:
320,192,43094,1,0,0:0:0:0:
64,192,43191,1,0,0:0:0:0:
192,192,43191,1,0,0:0:0:0:
320,192,43287,1,0,0:0:0:0:
448,192,43287,1,0,0:0:0:0:
64,192,43384,1,0,0:0:0:0:
192,192,43384,1,0,0:0:0:0:
320,192,43481,1,0,0:0:0:0:
448,192,43481,1,0,0:0:0:0:
64,192,43578,1,0,0:0:0:0:
192,192,43578,1,0,0:0:0:0:
448,192,43578,1,0,0:0:0:0:
320,192,43675,1,0,0:0:0:0:
192,192,43771,1,0,0:0:0:0:
64,192,43868,1,0,0:0:0:0:
320,192,43965,1,0,0:0:0:0:
448,192,43965,1,0,0:0:0:0:
64,192,44062,1,0,0:0:0:0:
320,192,44158,1,0,0:0:0:0:
192,192,44255,1,0,0:0:0:0:
64,192,44352,1,0,0:0:0:0:
320,192,44352,1,0,0:0:0:0:
192,192,44449,1,0,0:0:0:0:
448,192,44545,1,0,0:0:0:0:
320,192,44642,1,0,0:0:0:0:
64,192,44739,1,0,0:0:0:0:
192,192,44739,1,0,0:0:0:0:
320,192,44836,1,0,0:0:0:0:
448,192,44836,1,0,0:0:0:0:
64,192,44933,1,0,0:0:0:0:
192,192,44933,1,0,0:0:0:0:
320,192,45029,1,0,0:0:0:0:
448,192,45029,1,0,0:0:0:0:
64,192,45126,1,0,0:0:0:0:
192,192,45126,1,0,0:0:0:0:
320,192,45223,1,0,0:0:0:0:
448,192,45320,1,0,0:0:0:0:
192,192,45416,1,0,0:0:0:0:
64,192,45513,1,0,0:0:0:0:
320,192,45513,1,0,0:0:0:0:
192,192,45610,1,0,0:0:0:0:
448,192,45707,1,0,0:0:0:0:
192,192,45804,1,0,0:0:0:0:
320,192,45900,1,0,0:0:0:0:
448,192,45900,1,0,0:0:0:0:
192,192,45997,1,0,0:0:0:0:
64,192,46094,1,0,0:0:0:0:
320,192,46191,1,0,0:0:0:0:
192,192,46287,1,0,0:0:0:0:
448,192,46287,1,0,0:0:0:0:
64,192,46384,1,0,0:0:0:0:
320,192,46384,1,0,0:0:0:0:
192,192,46481,1,0,0:0:0:0:
448,192,46481,1,0,0:0:0:0:
64,192,46578,1,0,0:0:0:0:
320,192,46578,1,0,0:0:0:0:
192,192,46675,1,0,0:0:0:0:
448,192,46675,1,0,0:0:0:0:
320,192,46771,1,0,0:0:0:0:
64,192,46868,1,0,0:0:0:0:
192,192,46965,1,0,0:0:0:0:
320,192,47062,1,0,0:0:0:0:
448,192,47062,1,0,0:0:0:0:
64,192,47158,1,0,0:0:0:0:
320,192,47255,1,0,0:0:0:0:
192,192,47352,1,0,0:0:0:0:
64,192,47449,1,0,0:0:0:0:
320,192,47449,1,0,0:0:0:0:
192,192,47545,1,0,0:0:0:0:
320,192,47642,1,0,0:0:0:0:
448,192,47739,1,0,0:0:0:0:
64,192,47836,1,0,0:0:0:0:
320,192,47836,1,0,0:0:0:0:
192,192,47933,1,0,0:0:0:0:
448,192,47933,1,0,0:0:0:0:
64,192,48029,1,0,0:0:0:0:
320,192,48029,1,0,0:0:0:0:
192,192,48126,1,0,0:0:0:0:
448,192,48126,1,0,0:0:0:0:
64,192,48223,1,0,0:0:0:0:
320,192,48223,1,0,0:0:0:0:
448,192,48320,1,0,0:0:0:0:
192,192,48416,1,0,0:0:0:0:
64,192,48513,1,0,0:0:0:0:
448,192,48610,1,0,0:0:0:0:
320,192,48707,1,0,0:0:0:0:
64,192,48804,1,0,0:0:0:0:
192,192,48804,1,0,0:0:0:0:
64,192,48900,1,0,0:0:0:0:
192,192,48900,1,0,0:0:0:0:
320,192,48997,1,0,0:0:0:0:
64,192,49094,1,0,0:0:0:0:
192,192,49094,1,0,0:0:0:0:
64,192,49191,1,0,0:0:0:0:
192,192,49191,1,0,0:0:0:0:
448,192,49287,1,0,0:0:0:0:
64,192,49384,1,0,0:0:0:0:
192,192,49384,1,0,0:0:0:0:
64,192,49481,1,0,0:0:0:0:
192,192,49481,1,0,0:0:0:0:
320,192,49578,1,0,0:0:0:0:
64,192,49675,1,0,0:0:0:0:
192,192,49675,1,0,0:0:0:0:
64,192,49771,1,0,0:0:0:0:
192,192,49771,1,0,0:0:0:0:
448,192,49771,1,0,0:0:0:0:
64,192,50158,1,0,0:0:0:0:
448,192,50352,1,0,0:0:0:0:
448,192,50449,1,0,0:0:0:0:
64,192,50545,1,0,0:0:0:0:
320,192,50642,1,0,0:0:0:0:
320,192,50739,1,0,0:0:0:0:
64,192,50933,1,0,0:0:0:0:
192,192,50933,1,0,0:0:0:0:
448,192,51029,1,0,0:0:0:0:
64,192,51320,1,0,0:0:0:0:
192,192,51320,1,0,0:0:0:0:
64,192,51707,1,0,0:0:0:0:
448,192,51900,1,0,0:0:0:0:
448,192,51997,1,0,0:0:0:0:
64,192,52094,1,0,0:0:0:0:
320,192,52191,1,0,0:0:0:0:
320,192,52287,1,0,0:0:0:0:
64,192,52481,1,0,0:0:0:0:
192,192,52481,1,0,0:0:0:0:
448,192,52578,1,0,0:0:0:0:
64,192,52868,1,0,0:0:0:0:
192,192,52868,1,0,0:0:0:0:
64,192,53255,1,0,0:0:0:0:
448,192,53449,1,0,0:0:0:0:
448,192,53545,1,0,0:0:0:0:
64,192,53642,1,0,0:0:0:0:
320,192,53739,1,0,0:0:0:0:
320,192,53836,1,0,0:0:0:0:
64,192,54029,1,0,0:0:0:0:
192,192,54029,1,0,0:0:0:0:
448,192,54126,1,0,0:0:0:0:
64,192,54223,1,0,0:0:0:0:
64,192,54416,1,0,0:0:0:0:
64,192,54610,1,0,0:0:0:0:
64,192,54997,1,0,0:0:0:0:
64,192,55384,1,0,0:0:0:0:
64,192,55771,1,0,0:0:0:0:
64,192,55965,1,0,0:0:0:0:
192,192,55965,1,0,0:0:0:0:
64,192,56062,1,0,0:0:0:0:
192,192,56062,1,0,0:0:0:0:
64,192,56158,1,0,0:0:0:0:
192,192,56158,1,0,0:0:0:0:
64,192,56352,1,0,0:0:0:0:
192,192,56352,1,0,0:0:0:0:
64,192,56449,1,0,0:0:0:0:
192,192,56449,1,0,0:0:0:0:
320,192,56545,1,0,0:0:0:0:
448,192,56545,1,0,0:0:0:0:
64,192,56642,1,0,0:0:0:0:
192,192,56642,1,0,0:0:0:0:
448,192,56739,1,0,0:0:0:0:
320,192,56836,1,0,0:0:0:0:
192,192,56933,1,0,0:0:0:0:
320,192,57029,1,0,0:0:0:0:
64,192,57126,1,0,0:0:0:0:
192,192,57126,1,0,0:0:0:0:
320,192,57223,1,0,0:0:0:0:
448,192,57223,1,0,0:0:0:0:
320,192,57320,1,0,0:0:0:0:
448,192,57320,1,0,0:0:0:0:
448,192,57416,1,0,0:0:0:0:
192,192,57513,1,0,0:0:0:0:
320,192,57513,1,0,0:0:0:0:
192,192,57610,1,0,0:0:0:0:
320,192,57610,1,0,0:0:0:0:
192,192,57707,1,0,0:0:0:0:
320,192,57707,1,0,0:0:0:0:
192,192,57900,1,0,0:0:0:0:
320,192,57900,1,0,0:0:0:0:
192,192,57997,1,0,0:0:0:0:
320,192,57997,1,0,0:0:0:0:
64,192,58094,1,0,0:0:0:0:
320,192,58094,1,0,0:0:0:0:
192,192,58191,1,0,0:0:0:0:
448,192,58191,1,0,0:0:0:0:
320,192,58287,1,0,0:0:0:0:
192,192,58384,1,0,0:0:0:0:
64,192,58481,1,0,0:0:0:0:
64,192,58578,1,0,0:0:0:0:
192,192,58675,1,0,0:0:0:0:
320,192,58675,1,0,0:0:0:0:
64,192,58771,1,0,0:0:0:0:
448,192,58771,1,0,0:0:0:0:
64,192,58868,1,0,0:0:0:0:
448,192,58868,1,0,0:0:0:0:
448,192,58965,1,0,0:0:0:0:
64,192,59062,1,0,0:0:0:0:
320,192,59062,1,0,0:0:0:0:
64,192,59158,1,0,0:0:0:0:
320,192,59158,1,0,0:0:0:0:
64,192,59255,1,0,0:0:0:0:
320,192,59255,1,0,0:0:0:0:
64,192,59449,1,0,0:0:0:0:
320,192,59449,1,0,0:0:0:0:
64,192,59545,1,0,0:0:0:0:
320,192,59545,1,0,0:0:0:0:
64,192,59642,1,0,0:0:0:0:
192,192,59642,1,0,0:0:0:0:
320,192,59739,1,0,0:0:0:0:
448,192,59739,1,0,0:0:0:0:
64,192,59836,1,0,0:0:0:0:
192,192,59933,1,0,0:0:0:0:
320,192,60029,1,0,0:0:0:0:
320,192,60126,1,0,0:0:0:0:
64,192,60223,1,0,0:0:0:0:
192,192,60223,1,0,0:0:0:0:
320,192,60320,1,0,0:0:0:0:
448,192,60320,1,0,0:0:0:0:
320,192,60416,1,0,0:0:0:0:
448,192,60416,1,0,0:0:0:0:
448,192,60513,1,0,0:0:0:0:
192,192,60610,1,0,0:0:0:0:
320,192,60610,1,0,0:0:0:0:
192,192,60707,1,0,0:0:0:0:
320,192,60707,1,0,0:0:0:0:
192,192,60804,1,0,0:0:0:0:
320,192,60804,1,0,0:0:0:0:
192,192,60997,1,0,0:0:0:0:
320,192,60997,1,0,0:0:0:0:
192,192,61094,1,0,0:0:0:0:
320,192,61094,1,0,0:0:0:0:
64,192,61191,1,0,0:0:0:0:
192,192,61191,1,0,0:0:0:0:
320,192,61287,1,0,0:0:0:0:
448,192,61287,1,0,0:0:0:0:
64,192,61384,1,0,0:0:0:0:
320,192,61481,1,0,0:0:0:0:
192,192,61578,1,0,0:0:0:0:
192,192,61675,1,0,0:0:0:0:
64,192,61771,1,0,0:0:0:0:
320,192,61771,1,0,0:0:0:0:
192,192,61868,1,0,0:0:0:0:
448,192,61868,1,0,0:0:0:0:
192,192,61965,1,0,0:0:0:0:
448,192,61965,1,0,0:0:0:0:
448,192,62062,1,0,0:0:0:0:
64,192,62158,1,0,0:0:0:0:
192,192,62158,1,0,0:0:0:0:
320,192,62158,1,0,0:0:0:0:
64,192,62255,1,0,0:0:0:0:
192,192,62255,1,0,0:0:0:0:
64,192,62352,1,0,0:0:0:0:
192,192,62352,1,0,0:0:0:0:
64,192,62545,1,0,0:0:0:0:
192,192,62545,1,0,0:0:0:0:
64,192,62642,1,0,0:0:0:0:
192,192,62642,1,0,0:0:0:0:
320,192,62739,1,0,0:0:0:0:
448,192,62739,1,0,0:0:0:0:
192,192,62836,1,0,0:0:0:0:
320,192,62836,1,0,0:0:0:0:
448,192,62933,1,0,0:0:0:0:
192,192,63029,1,0,0:0:0:0:
64,192,63126,1,0,0:0:0:0:
64,192,63223,1,0,0:0:0:0:
192,192,63320,1,0,0:0:0:0:
320,192,63320,1,0,0:0:0:0:
64,192,63416,1,0,0:0:0:0:
448,192,63416,1,0,0:0:0:0:
64,192,63513,1,0,0:0:0:0:
448,192,63513,1,0,0:0:0:0:
448,192,63610,1,0,0:0:0:0:
64,192,63707,1,0,0:0:0:0:
320,192,63707,1,0,0:0:0:0:
192,192,63804,1,0,0:0:0:0:
320,192,63804,1,0,0:0:0:0:
192,192,63900,1,0,0:0:0:0:
320,192,63900,1,0,0:0:0:0:
192,192,64094,1,0,0:0:0:0:
320,192,64094,1,0,0:0:0:0:
192,192,64191,1,0,0:0:0:0:
320,192,64191,1,0,0:0:0:0:
64,192,64287,1,0,0:0:0:0:
320,192,64287,1,0,0:0:0:0:
192,192,64384,1,0,0:0:0:0:
448,192,64384,1,0,0:0:0:0:
320,192,64481,1,0,0:0:0:0:
192,192,64578,1,0,0:0:0:0:
320,192,64675,1,0,0:0:0:0:
320,192,64771,1,0,0:0:0:0:
64,192,64868,1,0,0:0:0:0:
192,192,64868,1,0,0:0:0:0:
320,192,64965,1,0,0:0:0:0:
448,192,64965,1,0,0:0:0:0:
320,192,65062,1,0,0:0:0:0:
448,192,65062,1,0,0:0:0:0:
448,192,65158,1,0,0:0:0:0:
64,192,65255,1,0,0:0:0:0:
320,192,65255,1,0,0:0:0:0:
64,192,65352,1,0,0:0:0:0:
320,192,65352,1,0,0:0:0:0:
64,192,65449,1,0,0:0:0:0:
320,192,65449,1,0,0:0:0:0:
64,192,65642,1,0,0:0:0:0:
320,192,65642,1,0,0:0:0:0:
64,192,65739,1,0,0:0:0:0:
320,192,65739,1,0,0:0:0:0:
192,192,65836,1,0,0:0:0:0:
320,192,65836,1,0,0:0:0:0:
192,192,65933,1,0,0:0:0:0:
448,192,65933,1,0,0:0:0:0:
320,192,66029,1,0,0:0:0:0:
64,192,66126,1,0,0:0:0:0:
192,192,66223,1,0,0:0:0:0:
192,192,66320,1,0,0:0:0:0:
64,192,66416,1,0,0:0:0:0:
320,192,66416,1,0,0:0:0:0:
192,192,66513,1,0,0:0:0:0:
448,192,66513,1,0,0:0:0:0:
192,192,66610,1,0,0:0:0:0:
448,192,66610,1,0,0:0:0:0:
448,192,66707,1,0,0:0:0:0:
64,192,66804,1,0,0:0:0:0:
192,192,66804,1,0,0:0:0:0:
320,192,66804,1,0,0:0:0:0:
64,192,67384,1,0,0:0:0:0:
192,192,67384,1,0,0:0:0:0:
320,192,67384,1,0,0:0:0:0:
64,192,67481,1,0,0:0:0:0:
192,192,67481,1,0,0:0:0:0:
320,192,67481,1,0,0:0:0:0:
64,192,67675,1,0,0:0:0:0:
192,192,67675,1,0,0:0:0:0:
320,192,67675,1,0,0:0:0:0:
64,192,67771,1,0,0:0:0:0:
192,192,67771,1,0,0:0:0:0:
320,192,67771,1,0,0:0:0:0:
64,192,67965,1,0,0:0:0:0:
192,192,67965,1,0,0:0:0:0:
320,192,67965,1,0,0:0:0:0:
64,192,68062,1,0,0:0:0:0:
192,192,68062,1,0,0:0:0:0:
320,192,68062,1,0,0:0:0:0:
64,192,68352,1,0,0:0:0:0:
192,192,68352,1,0,0:0:0:0:
320,192,68352,1,0,0:0:0:0:
448,192,68449,1,0,0:0:0:0:
64,192,68545,1,0,0:0:0:0:
192,192,68642,1,0,0:0:0:0:
320,192,68642,1,0,0:0:0:0:
64,192,68739,1,0,0:0:0:0:
448,192,68739,1,0,0:0:0:0:
320,192,68836,1,0,0:0:0:0:
192,192,68933,1,0,0:0:0:0:
448,192,69029,1,0,0:0:0:0:
64,192,69126,1,0,0:0:0:0:
320,192,69126,1,0,0:0:0:0:
192,192,69223,1,0,0:0:0:0:
64,192,69320,1,0,0:0:0:0:
448,192,69416,1,0,0:0:0:0:
64,192,69513,1,0,0:0:0:0:
320,192,69513,1,0,0:0:0:0:
192,192,69610,1,0,0:0:0:0:
320,192,69707,1,0,0:0:0:0:
448,192,69707,1,0,0:0:0:0:
64,192,69804,1,0,0:0:0:0:
192,192,69804,1,0,0:0:0:0:
320,192,69900,1,0,0:0:0:0:
448,192,69900,1,0,0:0:0:0:
64,192,69997,1,0,0:0:0:0:
192,192,70094,1,0,0:0:0:0:
320,192,70191,1,0,0:0:0:0:
448,192,70191,1,0,0:0:0:0:
64,192,70287,1,0,0:0:0:0:
192,192,70287,1,0,0:0:0:0:
320,192,70384,1,0,0:0:0:0:
448,192,70481,1,0,0:0:0:0:
192,192,70578,1,0,0:0:0:0:
64,192,70675,1,0,0:0:0:0:
320,192,70675,1,0,0:0:0:0:
448,192,70771,1,0,0:0:0:0:
192,192,70868,1,0,0:0:0:0:
320,192,70965,1,0,0:0:0:0:
64,192,71062,1,0,0:0:0:0:
448,192,71062,1,0,0:0:0:0:
320,192,71158,1,0,0:0:0:0:
192,192,71255,1,0,0:0:0:0:
448,192,71255,1,0,0:0:0:0:
64,192,71352,1,0,0:0:0:0:
320,192,71352,1,0,0:0:0:0:
192,192,71449,1,0,0:0:0:0:
448,192,71449,1,0,0:0:0:0:
320,192,71545,1,0,0:0:0:0:
64,192,71642,1,0,0:0:0:0:
192,192,71739,1,0,0:0:0:0:
448,192,71739,1,0,0:0:0:0:
64,192,71836,1,0,0:0:0:0:
320,192,71836,1,0,0:0:0:0:
192,192,71933,1,0,0:0:0:0:
448,192,72029,1,0,0:0:0:0:
64,192,72126,1,0,0:0:0:0:
192,192,72223,1,0,0:0:0:0:
320,192,72223,1,0,0:0:0:0:
448,192,72320,1,0,0:0:0:0:
320,192,72416,1,0,0:0:0:0:
192,192,72513,1,0,0:0:0:0:
64,192,72610,1,0,0:0:0:0:
320,192,72610,1,0,0:0:0:0:
448,192,72707,1,0,0:0:0:0:
192,192,72804,1,0,0:0:0:0:
320,192,72804,1,0,0:0:0:0:
64,192,72900,1,0,0:0:0:0:
448,192,72900,1,0,0:0:0:0:
192,192,72997,1,0,0:0:0:0:
320,192,72997,1,0,0:0:0:0:
64,192,73094,1,0,0:0:0:0:
448,192,73191,1,0,0:0:0:0:
64,192,73287,1,0,0:0:0:0:
320,192,73287,1,0,0:0:0:0:
192,192,73384,1,0,0:0:0:0:
448,192,73384,1,0,0:0:0:0:
320,192,73481,1,0,0:0:0:0:
64,192,73578,1,0,0:0:0:0:
192,192,73675,1,0,0:0:0:0:
320,192,73771,1,0,0:0:0:0:
448,192,73771,1,0,0:0:0:0:
192,192,73868,1,0,0:0:0:0:
64,192,73965,1,0,0:0:0:0:
448,192,74062,1,0,0:0:0:0:
64,192,74158,1,0,0:0:0:0:
320,192,74158,1,0,0:0:0:0:
192,192,74255,1,0,0:0:0:0:
320,192,74352,1,0,0:0:0:0:
448,192,74352,1,0,0:0:0:0:
64,192,74449,1,0,0:0:0:0:
192,192,74449,1,0,0:0:0:0:
64,192,74545,1,0,0:0:0:0:
320,192,74545,1,0,0:0:0:0:
448,192,74545,1,0,0:0:0:0:
64,192,74642,1,0,0:0:0:0:
192,192,74642,1,0,0:0:0:0:
320,192,74739,1,0,0:0:0:0:
448,192,74739,1,0,0:0:0:0:
192,192,74836,1,0,0:0:0:0:
320,192,74836,1,0,0:0:0:0:
64,192,74933,1,0,0:0:0:0:
192,192,74933,1,0,0:0:0:0:
64,192,75029,1,0,0:0:0:0:
320,192,75029,1,0,0:0:0:0:
320,192,75126,1,0,0:0:0:0:
448,192,75126,1,0,0:0:0:0:
64,192,75223,1,0,0:0:0:0:
192,192,75223,1,0,0:0:0:0:
64,192,75320,1,0,0:0:0:0:
320,192,75320,1,0,0:0:0:0:
64,192,75416,1,0,0:0:0:0:
192,192,75416,1,0,0:0:0:0:
192,192,75513,1,0,0:0:0:0:
448,192,75513,1,0,0:0:0:0:
320,192,75610,1,0,0:0:0:0:
448,192,75610,1,0,0:0:0:0:
192,192,75707,1,0,0:0:0:0:
320,192,75707,1,0,0:0:0:0:
64,192,75804,1,0,0:0:0:0:
448,192,75804,1,0,0:0:0:0:
192,192,75900,1,0,0:0:0:0:
320,192,75900,1,0,0:0:0:0:
64,192,75997,1,0,0:0:0:0:
192,192,75997,1,0,0:0:0:0:
64,192,76094,1,0,0:0:0:0:
320,192,76094,1,0,0:0:0:0:
448,192,76094,1,0,0:0:0:0:
64,192,76191,1,0,0:0:0:0:
192,192,76191,1,0,0:0:0:0:
192,192,76287,1,0,0:0:0:0:
448,192,76287,1,0,0:0:0:0:
320,192,76384,1,0,0:0:0:0:
448,192,76384,1,0,0:0:0:0:
64,192,76481,1,0,0:0:0:0:
320,192,76481,1,0,0:0:0:0:
64,192,76578,1,0,0:0:0:0:
192,192,76578,1,0,0:0:0:0:
192,192,76675,1,0,0:0:0:0:
448,192,76675,1,0,0:0:0:0:
320,192,76771,1,0,0:0:0:0:
448,192,76771,1,0,0:0:0:0:
192,192,76868,1,0,0:0:0:0:
320,192,76868,1,0,0:0:0:0:
64,192,76965,1,0,0:0:0:0:
192,192,76965,1,0,0:0:0:0:
64,192,77062,1,0,0:0:0:0:
320,192,77062,1,0,0:0:0:0:
320,192,77158,1,0,0:0:0:0:
448,192,77158,1,0,0:0:0:0:
64,192,77255,1,0,0:0:0:0:
192,192,77255,1,0,0:0:0:0:
192,192,77352,1,0,0:0:0:0:
448,192,77352,1,0,0:0:0:0:
64,192,77449,1,0,0:0:0:0:
320,192,77449,1,0,0:0:0:0:
64,192,77545,1,0,0:0:0:0:
192,192,77545,1,0,0:0:0:0:
64,192,77642,1,0,0:0:0:0:
320,192,77642,1,0,0:0:0:0:
448,192,77642,1,0,0:0:0:0:
192,192,77739,1,0,0:0:0:0:
64,192,77836,1,0,0:0:0:0:
320,192,77836,1,0,0:0:0:0:
448,192,77933,1,0,0:0:0:0:
64,192,78029,1,0,0:0:0:0:
320,192,78029,1,0,0:0:0:0:
192,192,78126,1,0,0:0:0:0:
64,192,78223,1,0,0:0:0:0:
448,192,78223,1,0,0:0:0:0:
192,192,78320,1,0,0:0:0:0:
64,192,78416,1,0,0:0:0:0:
320,192,78416,1,0,0:0:0:0:
448,192,78416,1,0,0:0:0:0:
192,192,78513,1,0,0:0:0:0:
64,192,78610,1,0,0:0:0:0:
320,192,78610,1,0,0:0:0:0:
448,192,78707,1,0,0:0:0:0:
64,192,78804,1,0,0:0:0:0:
192,192,78804,1,0,0:0:0:0:
448,192,78900,1,0,0:0:0:0:
64,192,78997,1,0,0:0:0:0:
320,192,78997,1,0,0:0:0:0:
192,192,79094,1,0,0:0:0:0:
64,192,79191,1,0,0:0:0:0:
320,192,79191,1,0,0:0:0:0:
448,192,79191,1,0,0:0:0:0:
192,192,79287,1,0,0:0:0:0:
64,192,79384,1,0,0:0:0:0:
192,192,79481,1,0,0:0:0:0:
64,192,79578,1,0,0:0:0:0:
192,192,79675,1,0,0:0:0:0:
64,192,79771,1,0,0:0:0:0:
192,192,79868,1,0,0:0:0:0:
64,192,79965,1,0,0:0:0:0:
192,192,80062,1,0,0:0:0:0:
64,192,80158,1,0,0:0:0:0:
192,192,80255,1,0,0:0:0:0:
64,192,80352,1,0,0:0:0:0:
192,192,80449,1,0,0:0:0:0:
320,192,80545,1,0,0:0:0:0:
448,192,80642,1,0,0:0:0:0:
192,192,80739,1,0,0:0:0:0:
64,0,80739,128,0,81320:1:0:0:0:
320,192,80836,1,0,0:0:0:0:
192,192,81029,1,0,0:0:0:0:
320,192,81126,1,0,0:0:0:0:
192,192,81320,1,0,0:0:0:0:
448,192,81416,1,0,0:0:0:0:
448,192,81610,1,0,0:0:0:0:
320,192,81707,1,0,0:0:0:0:
320,192,81900,1,0,0:0:0:0:
448,0,81900,128,0,81997:1:0:0:0:
192,192,81997,1,0,0:0:0:0:
64,0,82094,128,0,82481:1:0:0:0:
192,192,82287,1,0,0:0:0:0:
320,192,82384,1,0,0:0:0:0:
448,192,82481,1,0,0:0:0:0:
320,192,82675,1,0,0:0:0:0:
192,192,82771,1,0,0:0:0:0:
448,0,82868,128,0,82965:1:0:0:0:
192,192,82965,1,0,0:0:0:0:
320,192,83062,1,0,0:0:0:0:
64,0,83062,128,0,83158:1:0:0:0:
448,192,83255,1,0,0:0:0:0:
320,192,83352,1,0,0:0:0:0:
192,0,83352,128,0,83449:1:0:0:0:
64,192,83545,1,0,0:0:0:0:
192,192,83642,1,0,0:0:0:0:
448,0,83642,128,0,83739:1:0:0:0:
64,192,83836,1,0,0:0:0:0:
320,0,83836,128,0,84416:1:0:0:0:
192,192,83933,1,0,0:0:0:0:
448,192,84029,1,0,0:0:0:0:
192,192,84223,1,0,0:0:0:0:
64,192,84320,1,0,0:0:0:0:
448,192,84513,1,0,0:0:0:0:
192,192,84610,1,0,0:0:0:0:
320,192,84804,1,0,0:0:0:0:
64,192,84900,1,0,0:0:0:0:
192,0,84997,128,0,85094:1:0:0:0:
320,192,85094,1,0,0:0:0:0:
448,192,85191,1,0,0:0:0:0:
64,0,85191,128,0,86352:1:0:0:0:
192,192,85384,1,0,0:0:0:0:
320,192,85481,1,0,0:0:0:0:
448,192,85578,1,0,0:0:0:0:
320,192,85771,1,0,0:0:0:0:
192,192,85868,1,0,0:0:0:0:
192,192,86062,1,0,0:0:0:0:
448,192,86158,1,0,0:0:0:0:
320,192,86352,1,0,0:0:0:0:
448,192,86449,1,0,0:0:0:0:
192,192,86642,1,0,0:0:0:0:
64,192,86739,1,0,0:0:0:0:
448,192,86739,1,0,0:0:0:0:
192,192,86836,1,0,0:0:0:0:
64,192,86933,1,0,0:0:0:0:
320,0,86933,128,0,87513:1:0:0:0:
192,192,87029,1,0,0:0:0:0:
448,192,87126,1,0,0:0:0:0:
192,192,87320,1,0,0:0:0:0:
64,192,87416,1,0,0:0:0:0:
192,192,87610,1,0,0:0:0:0:
448,192,87707,1,0,0:0:0:0:
448,192,87900,1,0,0:0:0:0:
192,192,87997,1,0,0:0:0:0:
448,0,88094,128,0,88191:1:0:0:0:
64,192,88191,1,0,0:0:0:0:
448,192,88287,1,0,0:0:0:0:
320,0,88287,128,0,88675:1:0:0:0:
192,192,88481,1,0,0:0:0:0:
64,192,88578,1,0,0:0:0:0:
448,192,88675,1,0,0:0:0:0:
192,192,88868,1,0,0:0:0:0:
320,192,88965,1,0,0:0:0:0:
448,0,89062,128,0,89158:1:0:0:0:
320,192,89158,1,0,0:0:0:0:
64,192,89255,1,0,0:0:0:0:
192,0,89255,128,0,89352:1:0:0:0:
64,192,89449,1,0,0:0:0:0:
192,192,89545,1,0,0:0:0:0:
320,0,89545,128,0,89642:1:0:0:0:
192,192,89739,1,0,0:0:0:0:
320,192,89836,1,0,0:0:0:0:
448,0,89836,128,0,89933:1:0:0:0:
320,192,90029,1,0,0:0:0:0:
192,0,90029,128,0,90610:1:0:0:0:
64,192,90126,1,0,0:0:0:0:
448,192,90223,1,0,0:0:0:0:
320,192,90416,1,0,0:0:0:0:
448,192,90513,1,0,0:0:0:0:
192,192,90707,1,0,0:0:0:0:
320,192,90804,1,0,0:0:0:0:
64,192,90997,1,0,0:0:0:0:
320,192,91094,1,0,0:0:0:0:
64,0,91191,128,0,91287:1:0:0:0:
192,192,91287,1,0,0:0:0:0:
320,192,91384,1,0,0:0:0:0:
448,0,91384,128,0,92545:1:0:0:0:
64,192,91578,1,0,0:0:0:0:
192,192,91675,1,0,0:0:0:0:
320,192,91771,1,0,0:0:0:0:
192,192,91965,1,0,0:0:0:0:
320,192,92062,1,0,0:0:0:0:
64,192,92255,1,0,0:0:0:0:
320,192,92352,1,0,0:0:0:0:
64,192,92545,1,0,0:0:0:0:
448,192,92642,1,0,0:0:0:0:
320,192,92836,1,0,0:0:0:0:
192,192,92933,1,0,0:0:0:0:
448,192,92933,1,0,0:0:0:0:
320,192,93029,1,0,0:0:0:0:
64,192,93126,1,0,0:0:0:0:
448,192,93126,1,0,0:0:0:0:
192,192,93223,1,0,0:0:0:0:
320,192,93320,1,0,0:0:0:0:
320,192,93513,1,0,0:0:0:0:
448,192,93513,1,0,0:0:0:0:
192,192,93610,1,0,0:0:0:0:
64,192,93707,1,0,0:0:0:0:
448,192,93804,1,0,0:0:0:0:
64,192,93900,1,0,0:0:0:0:
192,192,93900,1,0,0:0:0:0:
320,192,93997,1,0,0:0:0:0:
448,192,94094,1,0,0:0:0:0:
192,192,94191,1,0,0:0:0:0:
64,192,94287,1,0,0:0:0:0:
448,192,94287,1,0,0:0:0:0:
320,192,94384,1,0,0:0:0:0:
192,192,94481,1,0,0:0:0:0:
448,192,94578,1,0,0:0:0:0:
64,192,94675,1,0,0:0:0:0:
192,192,94675,1,0,0:0:0:0:
320,192,94739,1,0,0:0:0:0:
448,192,94804,1,0,0:0:0:0:
192,192,94868,1,0,0:0:0:0:
64,192,95062,1,0,0:0:0:0:
192,192,95062,1,0,0:0:0:0:
320,192,95158,1,0,0:0:0:0:
448,192,95255,1,0,0:0:0:0:
192,192,95352,1,0,0:0:0:0:
320,192,95449,1,0,0:0:0:0:
448,192,95449,1,0,0:0:0:0:
64,192,95545,1,0,0:0:0:0:
320,192,95642,1,0,0:0:0:0:
192,192,95739,1,0,0:0:0:0:
64,192,95836,1,0,0:0:0:0:
448,192,95836,1,0,0:0:0:0:
192,192,95933,1,0,0:0:0:0:
320,192,96029,1,0,0:0:0:0:
192,192,96126,1,0,0:0:0:0:
320,192,96223,1,0,0:0:0:0:
448,192,96223,1,0,0:0:0:0:
192,192,96320,1,0,0:0:0:0:
64,192,96416,1,0,0:0:0:0:
192,192,96610,1,0,0:0:0:0:
448,192,96610,1,0,0:0:0:0:
320,192,96707,1,0,0:0:0:0:
64,192,96804,1,0,0:0:0:0:
192,192,96900,1,0,0:0:0:0:
320,192,96997,1,0,0:0:0:0:
448,192,96997,1,0,0:0:0:0:
64,192,97094,1,0,0:0:0:0:
320,192,97191,1,0,0:0:0:0:
192,192,97287,1,0,0:0:0:0:
64,192,97384,1,0,0:0:0:0:
320,192,97384,1,0,0:0:0:0:
192,192,97481,1,0,0:0:0:0:
448,192,97578,1,0,0:0:0:0:
320,192,97675,1,0,0:0:0:0:
192,192,97771,1,0,0:0:0:0:
64,0,97771,128,0,97965:1:0:0:0:
320,192,97868,1,0,0:0:0:0:
448,192,97965,1,0,0:0:0:0:
320,192,98158,1,0,0:0:0:0:
448,192,98158,1,0,0:0:0:0:
192,192,98255,1,0,0:0:0:0:
64,192,98352,1,0,0:0:0:0:
320,192,98449,1,0,0:0:0:0:
64,192,98545,1,0,0:0:0:0:
192,192,98545,1,0,0:0:0:0:
448,192,98642,1,0,0:0:0:0:
192,192,98739,1,0,0:0:0:0:
320,192,98836,1,0,0:0:0:0:
64,192,98933,1,0,0:0:0:0:
448,192,98933,1,0,0:0:0:0:
320,192,99029,1,0,0:0:0:0:
192,192,99126,1,0,0:0:0:0:
320,192,99223,1,0,0:0:0:0:
64,192,99320,1,0,0:0:0:0:
192,192,99320,1,0,0:0:0:0:
448,192,99320,1,0,0:0:0:0:
320,192,99416,1,0,0:0:0:0:
64,192,99513,1,0,0:0:0:0:
448,192,99513,1,0,0:0:0:0:
64,192,99707,1,0,0:0:0:0:
192,192,99707,1,0,0:0:0:0:
320,192,99804,1,0,0:0:0:0:
64,192,99900,1,0,0:0:0:0:
192,192,99997,1,0,0:0:0:0:
64,192,100094,1,0,0:0:0:0:
448,192,100094,1,0,0:0:0:0:
64,192,100287,1,0,0:0:0:0:
192,192,100287,1,0,0:0:0:0:
448,192,100384,1,0,0:0:0:0:
64,192,100481,1,0,0:0:0:0:
320,192,100578,1,0,0:0:0:0:
64,192,100675,1,0,0:0:0:0:
448,192,100675,1,0,0:0:0:0:
64,192,100868,1,0,0:0:0:0:
192,192,100868,1,0,0:0:0:0:
448,192,100868,1,0,0:0:0:0:
320,192,100965,1,0,0:0:0:0:
64,192,101062,1,0,0:0:0:0:
448,192,101062,1,0,0:0:0:0:
64,192,101255,1,0,0:0:0:0:
192,192,101255,1,0,0:0:0:0:
320,192,101352,1,0,0:0:0:0:
64,192,101449,1,0,0:0:0:0:
192,192,101545,1,0,0:0:0:0:
64,192,101642,1,0,0:0:0:0:
448,192,101642,1,0,0:0:0:0:
64,192,101836,1,0,0:0:0:0:
320,192,101836,1,0,0:0:0:0:
448,192,101933,1,0,0:0:0:0:
64,192,102029,1,0,0:0:0:0:
192,192,102126,1,0,0:0:0:0:
64,192,102223,1,0,0:0:0:0:
448,192,102223,1,0,0:0:0:0:
64,192,102416,1,0,0:0:0:0:
448,192,102416,1,0,0:0:0:0:
192,192,102513,1,0,0:0:0:0:
64,192,102610,1,0,0:0:0:0:
192,192,102707,1,0,0:0:0:0:
64,192,102804,1,0,0:0:0:0:
192,192,102900,1,0,0:0:0:0:
64,192,102997,1,0,0:0:0:0:
192,192,103094,1,0,0:0:0:0:
64,192,103191,1,0,0:0:0:0:
448,192,103191,1,0,0:0:0:0:
192,192,103287,1,0,0:0:0:0:
64,192,103384,1,0,0:0:0:0:
192,192,103481,1,0,0:0:0:0:
64,192,103578,1,0,0:0:0:0:
448,192,103578,1,0,0:0:0:0:
192,192,103642,1,0,0:0:0:0:
64,192,103707,1,0,0:0:0:0:
192,192,103771,1,0,0:0:0:0:
64,192,103836,1,0,0:0:0:0:
192,192,103900,1,0,0:0:0:0:
64,192,103965,1,0,0:0:0:0:
320,192,103965,1,0,0:0:0:0:
448,192,103965,1,0,0:0:0:0:
64,192,104255,1,0,0:0:0:0:
192,192,104255,1,0,0:0:0:0:
448,192,104255,1,0,0:0:0:0:
64,192,104545,1,0,0:0:0:0:
320,192,104545,1,0,0:0:0:0:
448,192,104545,1,0,0:0:0:0:
192,192,104610,1,0,0:0:0:0:
320,192,104675,1,0,0:0:0:0:
448,192,104739,1,0,0:0:0:0:
192,192,104836,1,0,0:0:0:0:
320,192,104836,1,0,0:0:0:0:
64,192,104933,1,0,0:0:0:0:
64,192,105126,1,0,0:0:0:0:
320,192,105126,1,0,0:0:0:0:
448,192,105126,1,0,0:0:0:0:
192,192,105223,1,0,0:0:0:0:
64,192,105320,1,0,0:0:0:0:
448,192,105320,1,0,0:0:0:0:
192,192,105384,1,0,0:0:0:0:
320,192,105449,1,0,0:0:0:0:
64,192,105513,1,0,0:0:0:0:
192,192,105513,1,0,0:0:0:0:
448,192,105513,1,0,0:0:0:0:
64,192,105610,1,0,0:0:0:0:
448,192,105610,1,0,0:0:0:0:
192,192,105707,1,0,0:0:0:0:
320,192,105707,1,0,0:0:0:0:
64,192,105804,1,0,0:0:0:0:
448,192,105804,1,0,0:0:0:0:
192,192,105900,1,0,0:0:0:0:
320,192,105900,1,0,0:0:0:0:
64,192,105997,1,0,0:0:0:0:
192,192,105997,1,0,0:0:0:0:
64,192,106094,1,0,0:0:0:0:
320,192,106094,1,0,0:0:0:0:
320,192,106191,1,0,0:0:0:0:
448,192,106191,1,0,0:0:0:0:
320,192,106287,1,0,0:0:0:0:
448,192,106287,1,0,0:0:0:0:
64,192,106384,1,0,0:0:0:0:
192,192,106384,1,0,0:0:0:0:
192,192,106481,1,0,0:0:0:0:
448,192,106481,1,0,0:0:0:0:
320,192,106578,1,0,0:0:0:0:
448,192,106578,1,0,0:0:0:0:
64,192,106675,1,0,0:0:0:0:
192,192,106675,1,0,0:0:0:0:
320,192,106771,1,0,0:0:0:0:
448,192,106771,1,0,0:0:0:0:
192,192,106868,1,0,0:0:0:0:
320,192,106868,1,0,0:0:0:0:
64,192,106965,1,0,0:0:0:0:
192,192,106965,1,0,0:0:0:0:
320,192,107062,1,0,0:0:0:0:
448,192,107062,1,0,0:0:0:0:
64,192,107158,1,0,0:0:0:0:
192,192,107158,1,0,0:0:0:0:
64,192,107255,1,0,0:0:0:0:
320,192,107255,1,0,0:0:0:0:
320,192,107352,1,0,0:0:0:0:
448,192,107352,1,0,0:0:0:0:
64,192,107449,1,0,0:0:0:0:
192,192,107449,1,0,0:0:0:0:
192,192,107545,1,0,0:0:0:0:
320,192,107545,1,0,0:0:0:0:
320,192,107642,1,0,0:0:0:0:
448,192,107642,1,0,0:0:0:0:
64,192,107739,1,0,0:0:0:0:
192,192,107739,1,0,0:0:0:0:
192,192,107836,1,0,0:0:0:0:
448,192,107836,1,0,0:0:0:0:
320,192,107933,1,0,0:0:0:0:
448,192,107933,1,0,0:0:0:0:
64,192,108029,1,0,0:0:0:0:
192,192,108029,1,0,0:0:0:0:
192,192,108126,1,0,0:0:0:0:
448,192,108126,1,0,0:0:0:0:
320,192,108223,1,0,0:0:0:0:
448,192,108223,1,0,0:0:0:0:
320,192,108320,1,0,0:0:0:0:
448,192,108320,1,0,0:0:0:0:
64,192,108416,1,0,0:0:0:0:
192,192,108416,1,0,0:0:0:0:
320,192,108513,1,0,0:0:0:0:
448,192,108513,1,0,0:0:0:0:
64,192,108610,1,0,0:0:0:0:
320,192,108610,1,0,0:0:0:0:
64,192,108707,1,0,0:0:0:0:
192,192,108707,1,0,0:0:0:0:
64,192,108804,1,0,0:0:0:0:
320,192,108804,1,0,0:0:0:0:
320,192,108900,1,0,0:0:0:0:
448,192,108900,1,0,0:0:0:0:
192,192,108997,1,0,0:0:0:0:
448,192,108997,1,0,0:0:0:0:
64,192,109094,1,0,0:0:0:0:
320,192,109094,1,0,0:0:0:0:
192,192,109191,1,0,0:0:0:0:
448,192,109191,1,0,0:0:0:0:
320,192,109287,1,0,0:0:0:0:
448,192,109287,1,0,0:0:0:0:
64,192,109384,1,0,0:0:0:0:
192,192,109384,1,0,0:0:0:0:
192,192,109481,1,0,0:0:0:0:
448,192,109481,1,0,0:0:0:0:
192,192,109578,1,0,0:0:0:0:
448,192,109578,1,0,0:0:0:0:
64,192,109675,1,0,0:0:0:0:
320,192,109675,1,0,0:0:0:0:
320,192,109771,1,0,0:0:0:0:
448,192,109771,1,0,0:0:0:0:
192,192,109868,1,0,0:0:0:0:
448,192,109868,1,0,0:0:0:0:
192,192,109965,1,0,0:0:0:0:
320,192,109965,1,0,0:0:0:0:
64,192,110062,1,0,0:0:0:0:
320,192,110062,1,0,0:0:0:0:
192,192,110158,1,0,0:0:0:0:
448,192,110158,1,0,0:0:0:0:
192,192,110255,1,0,0:0:0:0:
320,192,110255,1,0,0:0:0:0:
64,192,110352,1,0,0:0:0:0:
320,192,110352,1,0,0:0:0:0:
192,192,110449,1,0,0:0:0:0:
448,192,110449,1,0,0:0:0:0:
64,192,110545,1,0,0:0:0:0:
320,192,110545,1,0,0:0:0:0:
64,192,110642,1,0,0:0:0:0:
192,192,110642,1,0,0:0:0:0:
320,192,110739,1,0,0:0:0:0:
448,192,110739,1,0,0:0:0:0:
64,192,110836,1,0,0:0:0:0:
192,192,110836,1,0,0:0:0:0:
320,192,110933,1,0,0:0:0:0:
448,192,110933,1,0,0:0:0:0:
64,192,111029,1,0,0:0:0:0:
320,192,111029,1,0,0:0:0:0:
192,192,111126,1,0,0:0:0:0:
448,192,111126,1,0,0:0:0:0:
64,192,111223,1,0,0:0:0:0:
192,192,111223,1,0,0:0:0:0:
64,192,111320,1,0,0:0:0:0:
320,192,111320,1,0,0:0:0:0:
64,192,111416,1,0,0:0:0:0:
192,192,111416,1,0,0:0:0:0:
320,192,111513,1,0,0:0:0:0:
448,192,111513,1,0,0:0:0:0:
320,192,111610,1,0,0:0:0:0:
448,192,111610,1,0,0:0:0:0:
64,192,111707,1,0,0:0:0:0:
192,192,111707,1,0,0:0:0:0:
448,192,111707,1,0,0:0:0:0:
64,192,111804,1,0,0:0:0:0:
192,192,111804,1,0,0:0:0:0:
192,192,111900,1,0,0:0:0:0:
320,192,111900,1,0,0:0:0:0:
64,192,111997,1,0,0:0:0:0:
448,192,111997,1,0,0:0:0:0:
192,192,112094,1,0,0:0:0:0:
320,192,112094,1,0,0:0:0:0:
64,192,112191,1,0,0:0:0:0:
192,192,112191,1,0,0:0:0:0:
64,192,112287,1,0,0:0:0:0:
320,192,112287,1,0,0:0:0:0:
320,192,112384,1,0,0:0:0:0:
448,192,112384,1,0,0:0:0:0:
320,192,112481,1,0,0:0:0:0:
448,192,112481,1,0,0:0:0:0:
64,192,112578,1,0,0:0:0:0:
192,192,112578,1,0,0:0:0:0:
192,192,112675,1,0,0:0:0:0:
448,192,112675,1,0,0:0:0:0:
320,192,112771,1,0,0:0:0:0:
448,192,112771,1,0,0:0:0:0:
64,192,112868,1,0,0:0:0:0:
192,192,112868,1,0,0:0:0:0:
320,192,112965,1,0,0:0:0:0:
448,192,112965,1,0,0:0:0:0:
192,192,113062,1,0,0:0:0:0:
320,192,113062,1,0,0:0:0:0:
64,192,113158,1,0,0:0:0:0:
192,192,113158,1,0,0:0:0:0:
320,192,113255,1,0,0:0:0:0:
448,192,113255,1,0,0:0:0:0:
64,192,113352,1,0,0:0:0:0:
192,192,113352,1,0,0:0:0:0:
64,192,113449,1,0,0:0:0:0:
320,192,113449,1,0,0:0:0:0:
320,192,113545,1,0,0:0:0:0:
448,192,113545,1,0,0:0:0:0:
64,192,113642,1,0,0:0:0:0:
192,192,113642,1,0,0:0:0:0:
192,192,113739,1,0,0:0:0:0:
320,192,113739,1,0,0:0:0:0:
320,192,113836,1,0,0:0:0:0:
448,192,113836,1,0,0:0:0:0:
64,192,113933,1,0,0:0:0:0:
192,192,113933,1,0,0:0:0:0:
192,192,114029,1,0,0:0:0:0:
448,192,114029,1,0,0:0:0:0:
320,192,114126,1,0,0:0:0:0:
448,192,114126,1,0,0:0:0:0:
64,192,114223,1,0,0:0:0:0:
192,192,114223,1,0,0:0:0:0:
192,192,114320,1,0,0:0:0:0:
448,192,114320,1,0,0:0:0:0:
320,192,114416,1,0,0:0:0:0:
448,192,114416,1,0,0:0:0:0:
320,192,114513,1,0,0:0:0:0:
448,192,114513,1,0,0:0:0:0:
64,192,114610,1,0,0:0:0:0:
192,192,114610,1,0,0:0:0:0:
320,192,114707,1,0,0:0:0:0:
448,192,114707,1,0,0:0:0:0:
64,192,114804,1,0,0:0:0:0:
320,192,114804,1,0,0:0:0:0:
64,192,114900,1,0,0:0:0:0:
192,192,114900,1,0,0:0:0:0:
64,192,114997,1,0,0:0:0:0:
320,192,114997,1,0,0:0:0:0:
320,192,115094,1,0,0:0:0:0:
448,192,115094,1,0,0:0:0:0:
192,192,115191,1,0,0:0:0:0:
448,192,115191,1,0,0:0:0:0:
64,192,115287,1,0,0:0:0:0:
320,192,115287,1,0,0:0:0:0:
192,192,115384,1,0,0:0:0:0:
448,192,115384,1,0,0:0:0:0:
320,192,115481,1,0,0:0:0:0:
448,192,115481,1,0,0:0:0:0:
64,192,115578,1,0,0:0:0:0:
192,192,115578,1,0,0:0:0:0:
192,192,115675,1,0,0:0:0:0:
448,192,115675,1,0,0:0:0:0:
192,192,115771,1,0,0:0:0:0:
448,192,115771,1,0,0:0:0:0:
64,192,115868,1,0,0:0:0:0:
320,192,115868,1,0,0:0:0:0:
320,192,115965,1,0,0:0:0:0:
448,192,115965,1,0,0:0:0:0:
192,192,116062,1,0,0:0:0:0:
448,192,116062,1,0,0:0:0:0:
192,192,116158,1,0,0:0:0:0:
320,192,116158,1,0,0:0:0:0:
64,192,116255,1,0,0:0:0:0:
320,192,116255,1,0,0:0:0:0:
64,192,116352,1,0,0:0:0:0:
192,192,116352,1,0,0:0:0:0:
448,192,116352,1,0,0:0:0:0:
192,192,116449,1,0,0:0:0:0:
320,192,116449,1,0,0:0:0:0:
192,192,116545,1,0,0:0:0:0:
320,192,116545,1,0,0:0:0:0:
64,192,116642,1,0,0:0:0:0:
448,192,116642,1,0,0:0:0:0:
192,192,116739,1,0,0:0:0:0:
320,192,116739,1,0,0:0:0:0:
192,192,116836,1,0,0:0:0:0:
448,192,116836,1,0,0:0:0:0:
64,192,116933,1,0,0:0:0:0:
320,192,116933,1,0,0:0:0:0:
448,192,116933,1,0,0:0:0:0:
64,192,117029,1,0,0:0:0:0:
320,192,117029,1,0,0:0:0:0:
448,192,117029,1,0,0:0:0:0:
64,192,117126,1,0,0:0:0:0:
192,192,117126,1,0,0:0:0:0:
192,192,117223,1,0,0:0:0:0:
320,192,117223,1,0,0:0:0:0:
448,192,117223,1,0,0:0:0:0:
192,192,117320,1,0,0:0:0:0:
320,192,117320,1,0,0:0:0:0:
448,192,117320,1,0,0:0:0:0:
64,192,117416,1,0,0:0:0:0:
320,192,117416,1,0,0:0:0:0:
64,192,117513,1,0,0:0:0:0:
192,192,117513,1,0,0:0:0:0:
448,192,117513,1,0,0:0:0:0:
64,192,117610,1,0,0:0:0:0:
192,192,117610,1,0,0:0:0:0:
448,192,117610,1,0,0:0:0:0:
320,192,117707,1,0,0:0:0:0:
448,192,117707,1,0,0:0:0:0:
64,192,117804,1,0,0:0:0:0:
320,192,117804,1,0,0:0:0:0:
448,192,117804,1,0,0:0:0:0:
64,192,117900,1,0,0:0:0:0:
192,192,117900,1,0,0:0:0:0:
448,192,117900,1,0,0:0:0:0:
64,192,117997,1,0,0:0:0:0:
448,192,117997,1,0,0:0:0:0:
192,192,118094,1,0,0:0:0:0:
320,192,118094,1,0,0:0:0:0:
64,192,118191,1,0,0:0:0:0:
448,192,118191,1,0,0:0:0:0:
192,192,118287,1,0,0:0:0:0:
320,192,118287,1,0,0:0:0:0:
64,192,118384,1,0,0:0:0:0:
192,192,118384,1,0,0:0:0:0:
64,192,118481,1,0,0:0:0:0:
320,192,118481,1,0,0:0:0:0:
320,192,118578,1,0,0:0:0:0:
448,192,118578,1,0,0:0:0:0:
320,192,118675,1,0,0:0:0:0:
448,192,118675,1,0,0:0:0:0:
64,192,118771,1,0,0:0:0:0:
192,192,118771,1,0,0:0:0:0:
192,192,118868,1,0,0:0:0:0:
448,192,118868,1,0,0:0:0:0:
320,192,118965,1,0,0:0:0:0:
448,192,118965,1,0,0:0:0:0:
64,192,119062,1,0,0:0:0:0:
192,192,119062,1,0,0:0:0:0:
320,192,119158,1,0,0:0:0:0:
448,192,119158,1,0,0:0:0:0:
192,192,119255,1,0,0:0:0:0:
320,192,119255,1,0,0:0:0:0:
64,192,119352,1,0,0:0:0:0:
192,192,119352,1,0,0:0:0:0:
320,192,119449,1,0,0:0:0:0:
448,192,119449,1,0,0:0:0:0:
64,192,119545,1,0,0:0:0:0:
192,192,119545,1,0,0:0:0:0:
64,192,119642,1,0,0:0:0:0:
320,192,119642,1,0,0:0:0:0:
320,192,119739,1,0,0:0:0:0:
448,192,119739,1,0,0:0:0:0:
64,192,119836,1,0,0:0:0:0:
192,192,119836,1,0,0:0:0:0:
192,192,119933,1,0,0:0:0:0:
320,192,119933,1,0,0:0:0:0:
320,192,120029,1,0,0:0:0:0:
448,192,120029,1,0,0:0:0:0:
64,192,120126,1,0,0:0:0:0:
192,192,120126,1,0,0:0:0:0:
192,192,120223,1,0,0:0:0:0:
448,192,120223,1,0,0:0:0:0:
320,192,120320,1,0,0:0:0:0:
448,192,120320,1,0,0:0:0:0:
64,192,120416,1,0,0:0:0:0:
192,192,120416,1,0,0:0:0:0:
192,192,120513,1,0,0:0:0:0:
448,192,120513,1,0,0:0:0:0:
320,192,120610,1,0,0:0:0:0:
448,192,120610,1,0,0:0:0:0:
320,192,120707,1,0,0:0:0:0:
448,192,120707,1,0,0:0:0:0:
64,192,120804,1,0,0:0:0:0:
192,192,120804,1,0,0:0:0:0:
320,192,120900,1,0,0:0:0:0:
448,192,120900,1,0,0:0:0:0:
64,192,120997,1,0,0:0:0:0:
320,192,120997,1,0,0:0:0:0:
64,192,121094,1,0,0:0:0:0:
192,192,121094,1,0,0:0:0:0:
64,192,121191,1,0,0:0:0:0:
320,192,121191,1,0,0:0:0:0:
320,192,121287,1,0,0:0:0:0:
448,192,121287,1,0,0:0:0:0:
192,192,121384,1,0,0:0:0:0:
448,192,121384,1,0,0:0:0:0:
64,192,121481,1,0,0:0:0:0:
320,192,121481,1,0,0:0:0:0:
192,192,121578,1,0,0:0:0:0:
448,192,121578,1,0,0:0:0:0:
320,192,121675,1,0,0:0:0:0:
448,192,121675,1,0,0:0:0:0:
64,192,121771,1,0,0:0:0:0:
192,192,121771,1,0,0:0:0:0:
192,192,121868,1,0,0:0:0:0:
448,192,121868,1,0,0:0:0:0:
192,192,121965,1,0,0:0:0:0:
448,192,121965,1,0,0:0:0:0:
64,192,122062,1,0,0:0:0:0:
320,192,122062,1,0,0:0:0:0:
320,192,122158,1,0,0:0:0:0:
448,192,122158,1,0,0:0:0:0:
192,192,122255,1,0,0:0:0:0:
448,192,122255,1,0,0:0:0:0:
192,192,122352,1,0,0:0:0:0:
320,192,122352,1,0,0:0:0:0:
64,192,122449,1,0,0:0:0:0:
320,192,122449,1,0,0:0:0:0:
192,192,122545,1,0,0:0:0:0:
448,192,122545,1,0,0:0:0:0:
192,192,122642,1,0,0:0:0:0:
320,192,122642,1,0,0:0:0:0:
64,192,122739,1,0,0:0:0:0:
320,192,122739,1,0,0:0:0:0:
192,192,122836,1,0,0:0:0:0:
448,192,122836,1,0,0:0:0:0:
64,192,122933,1,0,0:0:0:0:
320,192,122933,1,0,0:0:0:0:
64,192,123029,1,0,0:0:0:0:
192,192,123029,1,0,0:0:0:0:
320,192,123126,1,0,0:0:0:0:
448,192,123126,1,0,0:0:0:0:
64,192,123223,1,0,0:0:0:0:
192,192,123223,1,0,0:0:0:0:
320,192,123320,1,0,0:0:0:0:
448,192,123320,1,0,0:0:0:0:
64,192,123416,1,0,0:0:0:0:
320,192,123416,1,0,0:0:0:0:
192,192,123513,1,0,0:0:0:0:
448,192,123513,1,0,0:0:0:0:
64,192,123610,1,0,0:0:0:0:
192,192,123610,1,0,0:0:0:0:
64,192,123707,1,0,0:0:0:0:
320,192,123707,1,0,0:0:0:0:
64,192,123804,1,0,0:0:0:0:
192,192,123804,1,0,0:0:0:0:
320,192,123900,1,0,0:0:0:0:
448,192,123900,1,0,0:0:0:0:
320,192,123997,1,0,0:0:0:0:
448,192,123997,1,0,0:0:0:0:
64,192,124094,1,0,0:0:0:0:
192,192,124094,1,0,0:0:0:0:
448,192,124094,1,0,0:0:0:0:
64,192,124191,1,0,0:0:0:0:
192,192,124191,1,0,0:0:0:0:
192,192,124287,1,0,0:0:0:0:
320,192,124287,1,0,0:0:0:0:
64,192,124384,1,0,0:0:0:0:
448,192,124384,1,0,0:0:0:0:
192,192,124481,1,0,0:0:0:0:
320,192,124481,1,0,0:0:0:0:
64,192,124578,1,0,0:0:0:0:
192,192,124578,1,0,0:0:0:0:
64,192,124675,1,0,0:0:0:0:
320,192,124675,1,0,0:0:0:0:
320,192,124771,1,0,0:0:0:0:
448,192,124771,1,0,0:0:0:0:
320,192,124868,1,0,0:0:0:0:
448,192,124868,1,0,0:0:0:0:
64,192,124965,1,0,0:0:0:0:
192,192,124965,1,0,0:0:0:0:
192,192,125062,1,0,0:0:0:0:
448,192,125062,1,0,0:0:0:0:
320,192,125158,1,0,0:0:0:0:
448,192,125158,1,0,0:0:0:0:
64,192,125255,1,0,0:0:0:0:
192,192,125255,1,0,0:0:0:0:
320,192,125352,1,0,0:0:0:0:
448,192,125352,1,0,0:0:0:0:
192,192,125449,1,0,0:0:0:0:
320,192,125449,1,0,0:0:0:0:
64,192,125545,1,0,0:0:0:0:
192,192,125545,1,0,0:0:0:0:
64,192,125642,1,0,0:0:0:0:
320,192,125642,1,0,0:0:0:0:
448,192,125642,1,0,0:0:0:0:
192,192,125739,1,0,0:0:0:0:
320,192,125739,1,0,0:0:0:0:
192,192,125836,1,0,0:0:0:0:
448,192,125836,1,0,0:0:0:0:
320,192,125933,1,0,0:0:0:0:
448,192,125933,1,0,0:0:0:0:
64,192,126029,1,0,0:0:0:0:
192,192,126029,1,0,0:0:0:0:
192,192,126126,1,0,0:0:0:0:
320,192,126126,1,0,0:0:0:0:
320,192,126223,1,0,0:0:0:0:
448,192,126223,1,0,0:0:0:0:
64,192,126320,1,0,0:0:0:0:
192,192,126320,1,0,0:0:0:0:
192,192,126416,1,0,0:0:0:0:
448,192,126416,1,0,0:0:0:0:
320,192,126513,1,0,0:0:0:0:
448,192,126513,1,0,0:0:0:0:
64,192,126610,1,0,0:0:0:0:
192,192,126610,1,0,0:0:0:0:
192,192,126707,1,0,0:0:0:0:
448,192,126707,1,0,0:0:0:0:
320,192,126804,1,0,0:0:0:0:
448,192,126804,1,0,0:0:0:0:
320,192,126900,1,0,0:0:0:0:
448,192,126900,1,0,0:0:0:0:
64,192,126997,1,0,0:0:0:0:
192,192,126997,1,0,0:0:0:0:
320,192,127094,1,0,0:0:0:0:
448,192,127094,1,0,0:0:0:0:
64,192,127191,1,0,0:0:0:0:
320,192,127191,1,0,0:0:0:0:
448,192,127191,1,0,0:0:0:0:
64,192,127287,1,0,0:0:0:0:
192,192,127287,1,0,0:0:0:0:
64,192,127384,1,0,0:0:0:0:
320,192,127384,1,0,0:0:0:0:
320,192,127481,1,0,0:0:0:0:
448,192,127481,1,0,0:0:0:0:
192,192,127578,1,0,0:0:0:0:
448,192,127578,1,0,0:0:0:0:
64,192,127675,1,0,0:0:0:0:
320,192,127675,1,0,0:0:0:0:
192,192,127771,1,0,0:0:0:0:
448,192,127771,1,0,0:0:0:0:
320,192,127868,1,0,0:0:0:0:
448,192,127868,1,0,0:0:0:0:
64,192,127965,1,0,0:0:0:0:
192,192,127965,1,0,0:0:0:0:
320,192,127965,1,0,0:0:0:0:
192,192,128062,1,0,0:0:0:0:
448,192,128062,1,0,0:0:0:0:
192,192,128158,1,0,0:0:0:0:
448,192,128158,1,0,0:0:0:0:
64,192,128255,1,0,0:0:0:0:
320,192,128255,1,0,0:0:0:0:
320,192,128352,1,0,0:0:0:0:
448,192,128352,1,0,0:0:0:0:
192,192,128449,1,0,0:0:0:0:
448,192,128449,1,0,0:0:0:0:
192,192,128545,1,0,0:0:0:0:
320,192,128545,1,0,0:0:0:0:
64,192,128642,1,0,0:0:0:0:
320,192,128642,1,0,0:0:0:0:
64,192,128739,1,0,0:0:0:0:
192,192,128739,1,0,0:0:0:0:
448,192,128739,1,0,0:0:0:0:
192,192,128836,1,0,0:0:0:0:
320,192,128836,1,0,0:0:0:0:
192,192,128933,1,0,0:0:0:0:
320,192,128933,1,0,0:0:0:0:
64,192,129029,1,0,0:0:0:0:
320,192,129029,1,0,0:0:0:0:
448,192,129029,1,0,0:0:0:0:
192,192,129126,1,0,0:0:0:0:
320,192,129126,1,0,0:0:0:0:
192,192,129223,1,0,0:0:0:0:
320,192,129223,1,0,0:0:0:0:
64,192,129320,1,0,0:0:0:0:
192,192,129320,1,0,0:0:0:0:
448,192,129320,1,0,0:0:0:0:
192,192,129416,1,0,0:0:0:0:
320,192,129416,1,0,0:0:0:0:
192,192,129513,1,0,0:0:0:0:
320,192,129513,1,0,0:0:0:0:
64,192,129610,1,0,0:0:0:0:
320,192,129610,1,0,0:0:0:0:
448,192,129610,1,0,0:0:0:0:
192,192,129707,1,0,0:0:0:0:
320,192,129707,1,0,0:0:0:0:
64,192,129804,1,0,0:0:0:0:
192,192,129804,1,0,0:0:0:0:
448,192,129804,1,0,0:0:0:0:
192,192,129900,1,0,0:0:0:0:
320,192,129900,1,0,0:0:0:0:
64,192,129997,1,0,0:0:0:0:
320,192,129997,1,0,0:0:0:0:
448,192,129997,1,0,0:0:0:0:
64,192,130094,1,0,0:0:0:0:
192,192,130094,1,0,0:0:0:0:
448,192,130094,1,0,0:0:0:0:
64,192,130191,1,0,0:0:0:0:
320,192,130191,1,0,0:0:0:0:
448,192,130191,1,0,0:0:0:0:
320,0,130287,128,0,130384:1:0:0:0:
320,0,130578,128,0,130675:1:0:0:0:
192,0,130868,128,0,132997:1:0:0:0:
64,192,133384,1,0,0:0:0:0:
